
//----- song ID: cons -----
#TITLE:Consuela;
#ARTIST:Captain.T;
#BANNER:Consuela.png;
#BACKGROUND:Consuela-bg.png;
#CDTITLE:./CDTitles/DDR UNIVERSE3.png;
#MUSIC:Consuela.ogg;
#OFFSET:-0.001;
#SAMPLESTART:43.183;
#SAMPLELENGTH:15;
#BPMS:0=182;
#NOTES:
     dance-single:
     :
     Beginner:
     1:
     :
0000
0000
0000
0000
,
0000
0000
0000
0000
,
0000
0000
0000
0000
,
0000
0000
0000
0000
,
0000
0000
0000
0000
,
1000
0000
0000
0000
,
0000
0000
0000
0000
,
0001
0000
0000
0000
,
0000
0000
0000
0000
,
1001
0000
0000
0000
,
1000
0000
0000
0000
,
0001
0000
0000
0000
,
0001
0000
0000
0000
,
0100
0000
0000
0000
,
0100
0000
0000
0000
,
0010
0000
0000
0000
,
0010
0000
0010
0000
,
0110
0000
0000
0000
,
0001
0000
0000
0000
,
0100
0000
0000
0000
,
0001
0000
0000
0000
,
1000
0000
0000
0000
,
0010
0000
0000
0000
,
0100
0000
0000
0000
,
0100
0000
0100
0000
,
0110
0000
0000
0000
,
0100
0000
0000
0000
,
1000
0000
0000
0000
,
0001
0000
0000
0000
,
0010
0000
0000
0000
,
0010
0000
0000
0000
,
0001
0000
1000
0000
,
1001
0000
0000
0000
,
1001
0000
0000
0000
,
0001
0000
1000
0000
,
0001
0000
0001
0000
,
0001
0000
1000
0000
,
0001
0000
0000
0000
,
1000
0000
0001
0000
,
1000
0000
1000
0000
,
1000
0000
0001
0000
,
0100
0000
0000
0000
,
0010
0000
0010
0000
,
1000
0000
0001
0000
,
0000
0000
0000
0000
,
1000
0000
1000
0000
,
0001
0000
1000
0000
,
0001
0000
0001
0000
,
0100
0000
0001
0000
,
1001
0000
0000
0000
,
0000
0000
0000
0000
,
1000
0000
0000
0000
,
0000
0000
0000
0000
,
0001
0000
0000
0000
,
0001
0000
0000
0000
,
1000
0000
0000
0000
,
1000
0000
0000
0000
,
0010
0000
0000
0000
,
0010
0000
0000
0000
,
1000
0000
0001
0000
,
1000
0000
0000
0000
,
0100
0000
0000
0000
,
0100
0000
0000
0000
,
0100
0000
0000
0000
,
1001
0000
0000
0000
,
1001
0000
0000
0000
,
0001
0000
0001
0000
,
1000
0000
0000
0000
,
1000
0000
1000
0000
,
0100
0000
0000
0000
,
0100
0000
0100
0000
,
0010
0000
0000
0000
,
0010
0000
0010
0000
,
0200
0000
0000
0300
;
#NOTES:
     dance-single:
     :
     Easy:
     4:
     :
0000
0000
0000
0000
,
0000
0000
0000
0000
,
0000
0000
0000
0000
,
0000
0000
0000
0000
,
0000
0000
0000
0000
,
0010
0000
0000
0000
,
0010
0000
0000
0000
,
0010
0000
0000
0000
,
0100
0000
0000
0000
,
1001
0000
0001
0000
,
1000
0001
1000
0000
,
0001
0000
1000
0000
,
0010
0100
0010
0000
,
1000
0000
0100
0000
,
0001
0100
1000
0000
,
0010
0000
0010
0000
,
0100
0100
0100
0000
,
1001
0000
0100
0000
,
1000
0100
0010
0000
,
0001
0100
1000
0000
,
0100
0001
1000
0000
,
1000
1000
0100
0000
,
0010
0010
0001
0100
,
1001
0000
0100
0000
,
0010
0001
0100
0001
,
1001
1000
1000
0010
,
0100
0001
0010
0000
,
0000
0001
1000
0000
,
0001
0100
0010
0000
,
1000
0001
0010
0001
,
1000
0100
0010
0100
,
1000
0001
0000
0100
,
1001
0000
0000
0000
,
1001
0001
0100
0001
,
0010
0010
0100
0100
,
1000
0000
0001
0000
,
1000
1000
0010
0100
,
0001
1000
0100
1000
,
0010
0000
0100
0000
,
0001
0010
1000
0010
,
0001
0001
0010
0100
,
1000
0000
0001
0000
,
1000
0010
0100
0110
,
0001
1000
0010
0100
,
0000
0100
0000
0100
,
0001
0000
1000
0100
,
1000
0000
0010
0000
,
1000
0000
0001
0100
,
1001
0100
0110
0000
,
0001
0000
0001
0000
,
0001
0000
0001
0000
,
1000
0000
1000
0000
,
1000
0000
1000
0000
,
0001
0000
0010
0000
,
0001
0000
0010
0000
,
1000
0000
0100
0000
,
1000
0000
0100
0000
,
1001
0001
0001
0000
,
1000
1000
1000
0000
,
0010
0010
0100
0100
,
0010
0100
0010
0100
,
1001
0000
0010
0000
,
0100
0000
0010
0000
,
1000
0001
0000
1000
,
0110
0000
0000
0000
,
1001
0000
0100
0000
,
1000
0010
0001
0100
,
1000
0000
0100
0000
,
0001
0010
1000
0100
,
0001
0000
1000
0000
,
0001
0010
0100
1000
,
0010
0000
0100
0000
,
0001
0100
0010
1000
,
0100
0000
0000
0000
;
#NOTES:
     dance-single:
     :
     Medium:
     6:
     :
0000
0000
0000
0000
,
0000
0000
0000
0000
,
0000
0000
0000
0000
,
0000
0000
0000
0000
,
0000
0000
0000
0000
,
0100
0000
0100
0000
,
0100
0000
0100
0000
,
0001
0000
1000
0000
,
0010
0010
0010
0010
,
1001
0000
1000
0100
0010
0000
0001
0000
,
1000
1000
0001
0001
,
1001
0000
0001
0100
0010
0000
1000
0000
,
0001
0001
1000
1000
,
0110
0000
0001
1000
0100
0000
1000
0000
,
0010
0010
0100
0100
,
0001
0000
1000
0001
0100
0000
0010
0000
,
1000
0000
0001
0000
1000
0001
0100
0010
,
1000
0010
0010
0100
,
0001
0100
0000
0010
0000
0000
1000
0000
,
1000
0010
0000
0100
0000
0000
0001
0000
,
1000
0100
0000
0010
0000
0000
0001
0000
,
0100
1000
0000
0100
0000
0000
0001
0000
,
0010
1000
0000
0010
0000
0001
1000
0000
,
1001
1000
1001
0001
,
1000
0000
0110
0000
0001
0100
0100
0000
,
1001
0010
1000
0100
,
1000
0001
0000
0022
0000
0000
0033
0000
,
0100
0000
0010
0000
0001
0000
0100
0010
,
0000
1000
0000
2020
0000
0000
3030
0000
,
0001
0000
1000
0100
1000
0000
1000
0100
,
0000
0010
0000
0002
0000
0000
1003
0000
,
0002
0000
0000
2003
0000
0000
3100
0000
,
2002
0000
3003
0010
,
2001
0000
0000
3200
0000
0000
1300
0000
,
0001
0000
1000
0001
0000
1000
0000
0000
,
1000
1100
0001
0101
,
1000
1100
0001
0101
,
2000
0000
0000
3020
0000
0000
1030
0000
,
0001
0000
1000
0001
0000
1000
0000
0000
,
1000
1010
0001
0011
,
1000
1010
0001
0011
,
2000
0000
0000
3002
0000
0000
0103
0000
,
0010
1000
0001
0010
0000
1001
0000
0000
,
1000
0000
0001
0020
0000
0000
0100
0000
,
0000
0100
0000
0130
,
2000
3000
0010
0010
,
1001
0000
0020
0030
,
1001
0000
0000
0000
0001
0010
0100
1000
,
0010
0100
2002
3003
,
1000
0000
1000
0000
,
1000
0100
0001
0000
,
0001
0000
0001
0000
,
0001
0010
1000
0000
,
1000
0100
0001
0100
,
1000
0001
1000
0000
,
0001
0010
1000
0010
,
0001
1000
0001
0000
,
1001
0000
0100
0000
1000
1000
0000
0000
,
0010
0000
0100
0000
0001
0001
0000
0000
,
1000
0000
1000
0000
0001
0100
0001
0000
,
1000
0100
1000
0000
0010
0100
0010
0000
,
1001
0000
0010
0010
,
0001
0000
1000
1000
,
0001
0000
1000
0100
0000
0000
0100
0001
,
0010
0100
0100
0100
,
1001
0000
1000
0100
0010
0000
0001
0000
,
1000
0100
0001
0100
,
1001
0000
0001
0010
0100
0000
1000
0000
,
0001
0100
1000
0100
,
0110
0000
0001
1000
0100
0000
1000
0000
,
0010
0001
0100
1000
,
0001
0000
1000
0001
0100
0000
0100
0000
,
0001
0000
0010
0000
1000
0100
0001
0000
,
0200
0000
0000
0300
;
#NOTES:
     dance-single:
     :
     Hard:
     8:
     :
0000
0000
0000
0000
,
0000
0000
0000
0000
,
0000
0000
0000
0000
,
0000
0000
0000
0000
,
0000
0000
0000
0000
,
0010
0000
0010
0000
,
0010
0000
0010
0000
,
0001
0000
1000
0000
,
0100
0100
0100
0100
,
1000
0001
0100
0001
1000
0001
0100
0001
,
1000
0001
0100
1000
0100
0001
0010
0100
,
1000
0010
1000
0001
1000
0010
1000
0001
,
0100
1000
0100
0001
0100
0010
1000
0100
,
0010
0001
1000
0001
0010
0001
1000
0001
,
0010
0100
1000
0001
1000
0100
0010
0001
,
0100
0010
0100
0001
0100
0010
0100
0001
,
1000
0100
0010
0100
1000
0010
0100
0001
,
1001
0000
0001
0100
1000
0000
0100
0001
,
1000
0100
0000
0010
0000
0000
0001
1000
,
0010
0100
0000
0100
0000
0000
0000
0001
,
1000
0100
0000
0010
0000
0000
0001
1000
,
0001
0010
0000
0100
0000
0100
1000
0010
,
0100
0001
0000
0010
0000
0010
0001
1000
,
1001
0001
0101
1000
,
0001
0010
0001
0100
0001
0010
0100
1000
,
1001
0000
1000
0000
0001
0100
0001
0000
,
1000
0100
0000
0020
0000
0000
0031
0000
,
0001
0000
1000
0100
1000
0000
0100
0010
,
0000
0001
0000
2000
0000
0000
3001
0000
,
1000
0000
0010
0100
0010
0000
0100
0001
,
0000
1000
0000
0020
0000
0000
0130
0000
,
0002
0000
0000
2003
0000
0000
3100
0000
,
2002
0000
3003
0100
,
1001
0000
0010
0100
0001
0000
1100
0000
,
0001
0000
1000
0010
0000
0100
0010
0000
,
1001
0000
1000
0020
0000
0000
0130
0000
,
0001
0000
0100
1000
0000
0100
0001
0000
,
1001
0000
0010
0100
1000
0000
0101
0000
,
1000
0010
0100
0001
0010
0100
0000
0000
,
0100
0010
0002
1003
,
0100
0000
0010
0001
0000
0100
0010
0000
,
1001
0000
0001
0100
1000
0000
1100
0000
,
1000
0100
0001
0010
0000
0110
0000
0000
,
1000
0000
0001
0020
0000
0000
0100
0000
,
0000
0100
0000
0130
,
1000
0000
1100
0000
0001
0010
0001
0100
,
0010
1001
1000
0101
,
0010
0000
1100
0000
0010
0001
0100
0010
,
1000
0001
0220
0330
,
1001
0000
0010
0000
,
0001
0010
0000
0001
0000
0000
0000
0000
,
1000
0000
0100
0000
,
1000
0100
0000
1000
0000
0000
0000
0000
,
0001
0100
0010
0100
0001
0100
0010
0100
,
0001
0100
0000
0001
0000
0000
0000
0000
,
1000
0010
0100
0010
1000
0010
0100
0010
,
1000
0010
0000
1000
0000
0000
0000
0000
,
1001
0000
0100
0000
1000
0100
0000
0010
,
0001
0000
0100
0000
0001
0100
0000
0010
,
1000
0100
1000
0000
0001
0100
0001
0000
,
1000
0010
1000
0000
0001
0010
0001
0000
,
0110
0000
0000
0001
1000
0000
0001
0000
,
0100
0000
0000
0010
0100
0000
0010
0000
,
1000
0100
1000
0001
0000
0000
1000
0100
,
0010
0100
0100
0100
,
1001
0000
0100
0001
0010
0000
0010
0001
,
0100
0000
0010
1000
0100
0000
0010
0000
,
1001
0000
0100
1000
0010
0000
0010
1000
,
0100
0000
0010
0001
0100
0000
0010
0000
,
1001
0000
0010
0001
1000
0000
0001
1000
,
0100
0000
1000
0001
0100
0000
0010
0000
,
1001
0000
0100
0001
1000
0000
0110
0000
,
0001
1000
0100
1000
0010
0100
0001
0000
,
0200
0000
0000
0300
;
#NOTES:
     dance-double:
     :
     Beginner:
     2:
     :
00000000
00000000
00000000
00000000
,
00000000
00000000
00000000
00000000
,
00000000
00000000
00000000
00000000
,
00000000
00000000
00000000
00000000
,
00000000
00000000
00000000
00000000
,
00000001
00000000
00000000
00000000
,
00000000
00000000
00000000
00000000
,
00001000
00000000
00000000
00000000
,
00000000
00000000
00000000
00000000
,
00001001
00000000
00000000
00000000
,
00001000
00000000
00000000
00000000
,
00010000
00000000
00000000
00000000
,
00001000
00000000
00000000
00000000
,
00010000
00000000
00000000
00000000
,
01000000
00000000
00000000
00000000
,
10000000
00000000
00000000
00000000
,
00010000
00000000
00010000
00000000
,
10010000
00000000
00000000
00000000
,
10000000
00000000
00000000
00000000
,
01000000
00000000
00000000
00000000
,
00010000
00000000
00000000
00000000
,
00001000
00000000
00000000
00000000
,
00000100
00000000
00000000
00000000
,
00000001
00000000
00000000
00000000
,
00001000
00000000
00000001
00000000
,
00001001
00000000
00000000
00000000
,
00000010
00000000
00000000
00000000
,
00010000
00000000
00000000
00000000
,
00001000
00000000
00000000
00000000
,
00100000
00000000
00000000
00000000
,
00100000
00000000
00000000
00000000
,
00010000
00000000
10000000
00000000
,
10010000
00000000
00000000
00000000
,
10010000
00000000
00000000
00000000
,
01000000
00000000
00000000
00000000
,
01000000
00000000
01000000
00000000
,
00000000
00000000
00000000
00000000
,
00010000
00000000
00000000
00000000
,
00001000
00000000
00000000
00000000
,
00001000
00000000
00001000
00000000
,
00000000
00000000
00000000
00000000
,
00000010
00000000
00000000
00000000
,
00000100
00000000
00000100
00000000
,
00000001
00000000
00000001
00000000
,
00000000
00000000
00000000
00000000
,
00001000
00000000
00000000
00000000
,
00010000
00000000
00000000
00000000
,
00100000
00000000
00000000
00000000
,
10000000
00000000
00010000
00000000
,
10010000
00000000
00000000
00000000
,
00000000
00000000
00000000
00000000
,
00001000
00000000
00000000
00000000
,
00000000
00000000
00000000
00000000
,
00010000
00000000
00000000
00000000
,
00000000
00000000
00000000
00000000
,
00001000
00000000
00000000
00000000
,
00001000
00000000
00000000
00000000
,
00010000
00000000
00000000
00000000
,
00010000
00000000
00000000
00000000
,
00000010
00000000
00000000
00000000
,
00000100
00000000
00000000
00000000
,
00000010
00000000
00000100
00000000
,
00000010
00000000
00000100
00000000
,
00000001
00000000
00000000
00000000
,
00000001
00000000
00000000
00000000
,
00000010
00000000
00000000
00000100
,
00000100
00000000
00000000
00000000
,
00001001
00000000
00000000
00000000
,
00001000
00000000
00001000
00000000
,
00010000
00000000
00000000
00000000
,
00010000
00000000
00010000
00000000
,
00100000
00000000
00000000
00000000
,
00100000
00000000
00100000
00000000
,
20000000
00000000
00000000
30000000
;
#NOTES:
     dance-double:
     :
     Easy:
     4:
     :
00000000
00000000
00000000
00000000
,
00000000
00000000
00000000
00000000
,
00000000
00000000
00000000
00000000
,
00000000
00000000
00000000
00000000
,
00000000
00000000
00000000
00000000
,
10000000
00000000
10000000
00000000
,
01000000
00000000
01000000
00000000
,
00010000
00000000
00010000
00000000
,
00001000
00001000
00001000
00001000
,
00011000
00000000
00010000
00000000
,
00000010
00001000
00000010
00000000
,
00000100
00000000
00000001
00000000
,
00000010
00000100
00010000
00000000
,
00001000
00000000
00100000
00000000
,
00010000
00100000
00010000
00000000
,
01000000
00000000
00100000
00000000
,
10000000
10000000
00010000
00010000
,
10010000
00000000
10000000
00000000
,
01000000
01000000
00100000
00000000
,
00001000
00000000
00010000
00000000
,
00000100
00000100
00001000
00000000
,
00000001
00000000
00001000
00000000
,
00000001
00000010
00000010
00000100
,
00000110
00000000
00000100
00000000
,
00010000
00000000
00001000
00010000
,
00011000
00000000
00001000
01000000
,
00100000
00000000
10000000
10000000
,
00010000
00000000
00100000
00000000
,
00001000
00001000
00010000
00000000
,
00000010
00000000
00001000
00000000
,
00000001
00000010
00000001
00000000
,
00000010
00000000
00000100
00000000
,
00020000
00000000
00000000
00030000
,
00001000
00000000
01000000
00000000
,
00100000
00000000
00100000
00000000
,
10000000
00000000
00010000
00000000
,
00100000
00001000
00100000
00000000
,
00001000
00000000
00010000
00000000
,
00000010
00000010
00000010
00000000
,
00000100
00000000
00000001
00000000
,
00001000
00000100
00001000
00000000
,
00000100
00000000
00010000
00000000
,
00001000
01000000
00001000
00000000
,
00100000
00000000
01000000
00000000
,
10000000
00010000
10000000
00000000
,
00100000
00100000
01000000
00000000
,
00001000
00001000
00010000
00000000
,
00000100
00000000
00000010
00000010
,
00000002
00000000
00000000
00000003
,
00000010
00000000
00000100
00000000
,
00010000
00001000
00010000
00000000
,
00001000
00000000
01000000
00000000
,
00010000
00100000
00010000
00000000
,
10000000
00000000
01000000
00000000
,
00100000
01000000
00100000
00000000
,
00001000
00000000
00010000
00000000
,
00000100
00010000
00000100
00000000
,
00000010
00000000
00000001
00000000
,
00001000
00001000
00000010
00000000
,
00010000
00001000
00010000
00000000
,
00001000
00000000
01000000
00000000
,
00200000
00000000
00000000
00300000
,
10000000
00000000
01000000
00000000
,
00100000
00000000
00100000
00000000
,
00100000
00000000
00100000
00000000
,
00001000
00000000
00011000
00000000
,
00010000
00010000
00001000
00000000
,
00010000
00000000
00000010
00000000
,
00001000
00001000
00000001
00000000
,
00000010
00000000
00000100
00000000
,
00010000
00010000
00001000
00000000
,
00100000
00000000
00010000
00000000
,
10000000
01000000
00100000
00010000
,
10000000
00000000
00000000
00000000
;
#NOTES:
     dance-double:
     :
     Medium:
     6:
     :
00000000
00000000
00000000
00000000
,
00000000
00000000
00000000
00000000
,
00000000
00000000
00000000
00000000
,
00000000
00000000
00000000
00000000
,
00000000
00000000
00000000
00000000
,
10000000
00000000
10000000
00000000
,
01000000
00000000
01000000
00000000
,
00010000
00000000
00010000
00000000
,
00001000
00001000
00010000
00000000
,
00011000
00000000
00010000
01000000
10000000
00000000
10000000
00000000
,
00100000
00100000
01000000
01000000
,
00010000
00000000
01000000
00001000
00010000
00000000
00000100
00000000
,
00000010
00000100
00010000
00001000
,
00100000
00000000
00001000
00000100
00000001
00000000
00000001
00000000
,
00000010
00000010
00000100
00000100
,
00010000
00000000
00001000
00100000
00010000
00000000
10000000
00000000
,
01000000
00000000
00010000
00000000
00001000
00010000
00001000
00010000
,
00011000
00001000
00000100
00000001
,
00000010
00000100
00000000
00000010
00000000
00000000
00000001
00000000
,
00000100
00000010
00000000
00001000
00000000
00000000
00000100
00000000
,
00010000
00001000
00000000
00100000
00000000
00000000
00001000
00000000
,
00010000
00000100
00000000
00001000
00000000
00000000
00000100
00000000
,
00010000
01000000
00000000
10000000
00000000
10000000
00010000
00000000
,
20010000
31000000
01200000
00310000
,
10000000
00000000
01000000
00000000
00100000
00010000
00010000
00000000
,
00011000
00001000
00000100
00000001
,
00000100
00000010
00000000
00002020
00000000
00000000
00003030
00000000
,
00000001
00000000
00000100
00000000
00001000
00000000
00000000
00010000
,
00000000
01000000
00000000
22000000
00000000
00000000
33000000
00000000
,
10000000
00000000
00010000
00000000
10000000
00000000
00100000
01000000
,
00000000
00001000
00000000
00020000
00000000
00000000
00031000
00000000
,
00000020
00000000
00000000
00000032
00000000
00000000
00000103
00000000
,
00002002
00000000
00003003
00000100
,
00001001
00000010
00000001
00000100
,
00000001
00000000
00001000
00000010
00000000
00000100
00000000
00000000
,
00000010
00001010
00010000
00011000
,
00100000
00110000
01000000
01100000
,
10010000
00100000
10000000
01000000
,
10000000
00000000
00010000
00100000
00000000
01000000
00000000
00000000
,
00100000
00110000
00001000
00011000
,
00000010
00001010
00000100
00000110
,
00000002
00000000
00000000
00002003
00000000
00000000
00003100
00000000
,
00010000
00001000
00100000
00001000
00000000
00011000
00000000
00000000
,
00010000
00000000
01000000
20000000
00000000
00000000
00100000
00000000
,
00000000
00100000
00000000
30100000
,
00020000
00000000
00000000
00000000
01030000
00100000
10000000
01000000
,
00100000
00100000
00020000
00000000
,
01030000
00000000
01000000
00000000
00001000
00010000
00000100
00010000
,
00001000
00010000
00022000
00033000
,
00001000
00000000
00000010
00000000
,
00000001
00000010
00001000
00000000
,
00010000
00000000
01000000
00000000
,
10000000
01000000
00010000
00000000
,
00001000
00000010
00000001
00000010
,
00001000
00000001
00001000
00000000
,
00010000
01000000
10000000
01000000
,
00010000
10000000
00010000
00000000
,
10010000
00000000
01000000
00000000
00010000
00100000
00000000
00000000
,
00101000
00000000
00010000
00000000
00000100
00000010
00000000
00000000
,
00001001
00000100
00001100
00000010
,
00000110
00001000
00001100
00010000
,
00011000
00000000
00100000
00100000
,
01000000
00000000
10000000
10000000
,
00010000
10000000
00010000
10000000
00000000
00000000
01000000
00100000
,
00020000
01000000
01000000
01030000
,
10010000
00000000
10000000
01000000
10000000
00000000
00100000
00000000
,
01000000
01000000
00010000
00100000
,
00001000
00000000
00001000
00000100
00000001
00000000
00001000
00000000
,
00000010
00000010
00000100
00000100
,
00000001
00000000
00000100
00001000
00010000
00000000
00001000
00000000
,
00100000
00100000
00001000
00001000
,
00010000
00000000
01000000
10000000
00010000
00000000
01000000
00000000
,
00001000
00010000
00000100
00010000
00001000
00100000
00001000
00000000
,
00022000
00000000
00000000
00033000
;
#NOTES:
     dance-double:
     :
     Hard:
     8:
     :
00000000
00000000
00000000
00000000
,
00000000
00000000
00000000
00000000
,
00000000
00000000
00000000
00000000
,
00000000
00000000
00000000
00000000
,
00000000
00000000
00000000
00000000
,
00000001
00000000
00000100
00000000
,
00001000
00000000
00010000
00000000
,
00100000
00000000
10000000
00000000
,
00100000
00010000
00001000
00010000
,
00011000
00000000
00001000
00000100
00000001
00000000
00000001
00001000
,
00000100
00000000
00000100
00010000
00001000
00000000
00001000
00100000
,
01000000
00000000
01000000
10000000
00010000
00000000
00100000
00001000
,
00010000
00000000
00000100
00000010
00000001
00000000
00000001
00000100
,
00000010
00000000
00000010
00001000
00000100
00000000
00000100
00010000
,
00001000
00000000
00001000
00100000
00010000
00000000
00010000
01000000
,
00001000
00000000
00001000
00100000
00010000
00000000
00010000
00100000
,
01000000
00000000
10000000
01000000
00010000
00001000
00000100
00000010
,
00001001
00000000
00000001
00000100
00000001
00000000
00000100
00000000
,
00001000
00000000
00010000
00001000
00010000
00000000
00001000
00000000
,
00100000
00000000
01000000
10000000
01000000
00000000
10000000
00000000
,
00100000
00000000
00010000
00001000
00010000
00000000
00100000
00000000
,
10000000
00000000
01000000
00010000
01000000
00000000
00100000
00000000
,
00001000
00000000
00010000
00001000
00010000
00000000
00001000
00000000
,
00020100
00030100
00001020
00000130
,
00000001
00001000
00000010
00001000
00000100
00010000
00001000
00100000
,
01000000
00000000
10000000
01000000
10000000
00000000
00100000
00000000
,
00010000
00001000
00000000
00022000
00000000
00000000
00033000
00000000
,
00001000
00000000
00000001
00000100
00000001
00000000
00001000
00010000
,
00000000
01000000
00000000
02200000
00000000
00000000
03300000
00000000
,
10000000
00000000
00010000
01000000
00010000
00000000
00100000
00001000
,
00000000
00010000
00000000
00011000
00000000
00000000
00000100
00000000
,
00000020
00000000
00000000
00000032
00000000
00000000
00000103
00000000
,
00002002
00000000
00003003
00000100
,
00001010
00000000
00000001
00000100
00000001
00000000
00001000
00000000
,
00000100
00000000
00010000
00000100
00000000
00010100
00000000
00000000
,
00000100
00011000
00010000
00101000
,
00100000
00011000
00010000
01100000
,
10000000
00000000
00010000
01000000
00010000
00000000
10000000
00000000
,
01000000
00100000
00010000
00001000
00000010
00000100
00000000
00000000
,
00000001
00000110
00000100
00011000
,
00010000
00101000
00100000
00011000
,
00000100
00000000
00000010
00000001
00000010
00000000
00000100
00000000
,
00000010
00000001
00000100
00001000
00000000
00011000
00000000
00000000
,
00010000
00000000
00100000
20000000
00000000
00000000
01000000
00000000
,
00000000
01000000
00000000
31000000
,
00100000
00000000
10010000
00000000
00100000
00001000
00010000
00001000
,
00100000
00011000
00000010
00011000
,
00000100
00000000
00001001
00000000
00000001
00000100
00001000
00010000
,
00100000
01000000
02200000
03300000
,
10010000
00000000
10000000
00000000
,
00100000
00010000
00000000
00001000
00000000
00000000
00000000
00000000
,
00010000
00000000
00001000
00000000
,
00010000
00001000
00000000
00000010
00000000
00000000
00000000
00000000
,
00000001
00000100
00000001
00000010
00000001
00000100
00000001
00000010
,
00000100
00001000
00000000
00000100
00000000
00000000
00000000
00000000
,
00010000
00001000
00100000
00001000
00010000
00000100
00001000
00000100
,
00010000
00001000
00000000
00100000
00000000
00000000
00000000
00000000
,
10010000
00000000
00100000
00000000
10000000
01000000
00000000
10000000
,
00100000
00000000
01000000
00000000
00010000
00100000
00000000
00001000
,
00010000
00000000
00011000
00000000
00000100
00010000
00000100
00000000
,
00010000
00001000
00010000
00000000
00001000
00100000
00001000
00000000
,
00011000
00000000
00000000
00010000
00001000
00000000
00100000
00000000
,
01100000
00000000
00000000
00100000
00010000
00000000
10000000
00000000
,
00010000
00010000
10000000
10000000
00000000
00000000
01000000
00100000
,
01100000
00010000
00010000
00010000
,
00011000
00000000
00000100
00010000
00001000
00000000
00100000
00001000
,
00010000
00000000
00000100
00010000
00001000
00000000
00100000
01000000
,
10000000
00000000
00100000
01000000
00010000
00000000
10000000
00010000
,
01000000
00000000
00100000
10000000
01000000
00000000
00100000
00010000
,
01000000
00000000
00001000
00100000
00010000
00000000
00100000
00001000
,
00010000
00000000
00001000
00100000
00010000
00000000
00100000
00001000
,
00010000
00000000
00000010
00000100
00000001
00000000
00000010
00000000
,
00000001
00001000
00000100
00010000
00001000
00100000
00001000
00000000
,
00022000
00000000
00000000
00033000
;
