
//----- song ID: cona -----
#TITLE:Conga;
#ARTIST:Miami Sound Machine;
#BANNER:Conga.png;
#BACKGROUND:Conga-bg.png;
#CDTITLE:./CDTitles/DDR UNIVERSE3.png;
#MUSIC:Conga.ogg;
#OFFSET:-1.237;
#SAMPLESTART:69.637;
#SAMPLELENGTH:15;
#BPMS:0=122.27;
#BGCHANGES:-2.1=Conga.avi=1=0=0=0;
#NOTES:
     dance-single:
     :
     Beginner:
     1:
     :
0000
0000
0000
0000
,
0000
0000
0000
0000
,
0001
0000
0000
0000
,
1000
0000
0000
0000
,
1001
0000
0000
0000
,
0010
0000
0000
0000
,
0100
0000
0000
0000
,
0010
0000
0000
0000
,
0110
0000
0000
0000
,
0001
0000
0000
0000
,
1000
0000
0000
0000
,
0001
0000
0000
0000
,
0010
0000
0000
0000
,
0100
0000
0000
0000
,
1000
0000
0000
0000
,
0001
0000
0000
0000
,
0100
0000
0000
0000
,
0010
0000
0000
0000
,
1000
0000
0000
0000
,
0001
0000
0000
0000
,
0010
0000
0000
0000
,
0100
0000
0000
0000
,
1000
0000
0000
0000
,
0001
0000
0000
0000
,
0010
0000
0000
0000
,
0001
0000
0000
0000
,
1000
0000
0000
0000
,
0100
0000
0000
0000
,
1000
0000
0000
0000
,
0001
0000
0000
0000
,
0100
0000
0000
0000
,
0110
0000
0000
0000
,
0010
0000
0000
0000
,
0001
0000
0000
0000
,
1000
0000
0001
0000
,
1001
0000
0000
0000
,
0100
0000
0000
0000
,
0010
0000
0000
0000
,
0100
0000
0000
0000
,
1001
0000
0000
0000
,
0010
0000
0000
0000
,
0100
0000
0000
0000
,
0010
0000
0000
0000
,
0110
0000
0000
0000
,
0001
0000
0000
0000
,
1000
0000
0000
0000
,
0001
0000
0000
0000
,
0110
0000
0000
0000
,
1000
0000
0000
0000
,
0001
0000
0000
0000
,
1000
0000
0000
0000
,
0010
0000
0000
0000
,
1000
0000
0000
0000
,
0001
0000
0000
0000
,
0100
0000
0000
0000
,
1001
0000
0000
0000
;
#NOTES:
     dance-single:
     :
     Easy:
     4:
     :
0000
0000
0000
0000
,
0000
0000
0000
0000
,
0010
0100
0010
0000
,
0001
1000
0001
0000
,
1001
0000
0001
0000
,
0100
0000
0010
0000
,
1000
0000
0001
0000
,
0010
0000
0100
0000
,
0110
1000
0100
0000
,
0010
0001
0100
0000
,
1000
0100
0001
0000
,
1000
0010
0001
0000
,
0010
1000
0001
0000
,
0100
0001
1000
0000
,
0100
0010
0001
0000
,
0100
0010
1000
0000
,
0001
0001
1000
0000
,
0010
0010
1000
0000
,
0001
0100
1000
0100
,
0010
0000
0100
0001
,
0010
0010
0001
0000
,
0010
0010
0100
0000
,
1000
0010
0100
0010
,
0001
0000
0010
1000
,
0001
0001
0100
0000
,
0001
0001
1000
0000
,
0010
1000
0100
1000
,
0001
0000
1000
0010
,
0100
0100
0001
0000
,
0100
0100
0010
0000
,
1000
0001
0100
0010
,
1001
0100
0000
0010
,
0100
0001
0000
1000
,
0010
1000
0000
0001
,
0010
0100
1000
0001
,
1001
1000
0001
1000
,
0010
0100
0010
0010
,
0001
0001
1000
0001
,
0100
0010
0100
0100
,
1002
0003
0200
0300
,
0020
0030
2000
3000
,
0200
0300
2000
3000
,
0002
0003
0010
0100
,
1001
0001
1000
1000
,
0010
0010
0100
0010
,
0001
1000
0001
0001
,
0100
0100
0010
0100
,
1001
0010
0100
0000
,
0010
1000
0001
0000
,
1000
0100
0001
0000
,
0100
0010
0001
0000
,
0010
0100
1000
0000
,
0100
1000
0010
0000
,
1000
0010
0100
0000
,
0010
0100
0001
0000
,
1001
0000
0000
0000
;
#NOTES:
     dance-single:
     :
     Medium:
     6:
     :
0000
0000
0000
0000
0000
0000
0000
0000
0000
0000
0000
1001
0000
0000
0000
0000
,
0000
0000
0000
0000
0000
0000
0000
0000
0000
0000
0000
0000
0000
0000
0000
0001
,
0000
0000
0000
0000
1000
0000
0000
0000
0010
0000
0000
0100
0000
0001
0000
1000
,
0000
0000
0000
0000
0001
0000
0000
0000
0100
0000
0000
0010
0000
1000
0000
0001
,
0000
1000
0000
0000
0100
0000
0000
0010
0000
0001
0000
0000
1000
0000
0000
0010
,
0000
0100
0000
0000
0001
0000
0000
0010
0000
0100
0000
0000
1000
0000
0000
0010
,
0000
1000
0000
0000
0100
0000
0000
0010
0000
0001
0000
0000
0100
0000
0000
0001
,
0000
0100
0000
0000
1000
0000
0000
0100
0000
0001
0000
0000
0010
0000
0000
1001
,
0000
0000
0000
0000
0010
0000
0000
0000
0001
0000
0000
0000
0000
1000
0000
0100
,
0000
0000
0000
0000
0010
0000
0000
0000
1000
0000
0000
0000
0010
0000
0000
0001
,
0000
0000
0000
0000
0100
0000
0000
0000
1000
0000
0000
0100
0000
0001
0000
1000
,
0000
0000
0000
0000
0100
0000
0000
0000
0011
0000
0000
0000
1100
0000
0000
1001
,
0000
0000
0000
0000
0100
0000
0000
0000
1000
0000
0000
0000
0000
0001
0000
0010
,
0000
0000
0000
0000
0100
0000
0000
0000
0001
0000
0000
0000
0100
0000
0000
1000
,
0000
0000
0000
0000
0010
0000
0000
0000
0001
0000
0000
0010
0000
1000
0000
0001
,
0000
0000
0000
0000
0010
0000
0000
0000
1100
0000
0000
0000
0011
0000
0000
1001
,
0000
0000
0000
0000
0100
0000
0000
0000
0010
0000
0000
0000
1000
0000
0000
0001
,
0000
0000
0000
0000
0010
0000
0000
0000
0100
0000
0000
0000
1000
0000
0000
0010
,
0000
0000
0000
0000
0100
0000
0000
0000
0001
0000
0000
0000
1000
0000
0000
1001
,
0000
0000
0000
0000
0001
0000
0000
0000
1000
0000
0000
0000
0010
0000
0000
0101
,
0000
0000
0000
0000
0001
0000
0000
0000
0010
0000
0000
0000
1000
0000
0000
0010
,
0000
0000
0000
0000
0100
0000
0000
0000
1000
0000
0000
0000
0010
0000
0000
0001
,
0000
0000
0000
0000
0010
0000
0000
0000
1000
0000
0000
0000
0100
0000
0000
0011
,
0000
0000
0000
0000
0100
0000
0000
0000
1000
0000
0000
0000
0001
0000
0000
1001
,
0000
0000
0000
0000
1000
0000
0000
0000
0010
0000
0000
0000
0100
0000
0000
1000
,
0000
0000
0000
0000
0100
0000
0000
0000
0001
0000
0000
0000
0010
0000
0000
0100
,
0000
0000
0000
0000
1000
0000
0000
0000
0010
0000
0000
0000
0100
0000
0000
0110
,
0000
0000
0000
0000
1000
0000
0000
0000
0001
0000
0000
0000
0100
0000
0000
1010
,
0000
0000
0000
0000
1000
0000
0000
0000
0001
0000
0000
0000
0010
0000
0000
0100
,
0000
0000
0000
0000
1000
0000
0000
0000
0001
0000
0000
0000
0100
0000
0000
0010
,
0000
0000
0000
0000
1000
0000
0000
0000
0001
0000
0000
0000
0100
0000
0000
1001
,
0000
0000
0010
1000
0100
0000
1000
0000
,
0001
0000
0010
0001
0100
0000
0001
0000
,
1000
0000
0001
0100
0010
0000
1000
0000
,
0001
0000
0000
0000
1000
0000
0100
0000
0010
0000
0000
0000
0001
0000
0000
1001
,
0000
0000
0000
0000
1000
0000
0010
0000
0100
0000
0000
0000
0001
0000
0000
1010
,
0000
0000
0000
0000
0001
0000
0010
0000
0100
0000
0000
0000
1000
0000
0000
0011
,
0000
0000
0000
0000
1000
0000
0100
0000
0010
0000
0000
0000
0001
0000
0000
1100
,
0000
0000
0000
0000
0001
0000
0100
0000
0010
0000
0000
0000
1000
0000
0000
0001
,
0000
1000
0000
0000
0010
0000
0000
0100
0000
0001
0000
0000
1000
0000
0000
0100
,
0000
0010
0000
0000
0001
0000
0000
0100
0000
0010
0000
0000
1000
0000
0000
0100
,
0000
1000
0000
0000
0010
0000
0000
0000
1000
0000
0000
0001
0000
0010
0000
1000
,
0000
0010
0000
0000
0001
0000
0100
0000
1010
0000
0000
0000
0101
0000
0000
1001
,
0000
0000
0000
0000
0010
0000
1000
0000
0100
0000
0000
0000
0001
0000
0000
0100
,
0000
0000
0000
0000
1000
0000
0010
0000
0001
0000
0000
0000
0010
0000
0000
0100
,
0000
0000
0000
0000
0001
0000
0100
0000
1000
0000
0000
0000
0100
0000
0000
0001
,
0000
0000
0000
0000
0010
0000
0001
0000
0100
0000
0000
0000
0001
0000
0000
1000
,
0000
0000
0000
0000
0010
0000
0100
0000
0100
0000
0000
0000
0001
0000
0000
0010
,
0000
0000
0000
0000
0100
0000
1000
0000
1000
0000
0000
0000
0001
0000
0000
0100
,
0000
0000
0000
0000
0001
0000
0010
0000
1000
0000
0000
0000
0010
0000
0000
0001
,
0000
0000
0000
0000
1000
0000
0100
0000
0001
0000
0000
0000
0100
0000
0000
0010
,
0000
0000
0000
0000
0001
0000
1000
0000
0100
0000
0000
0000
0010
0000
0000
0001
,
0000
0000
0000
0000
0100
0000
0010
0000
1000
0000
0000
0000
0001
0000
0000
0100
,
0000
0000
0000
0000
0001
0000
1000
0000
0010
0000
0000
0000
0100
0000
0000
1000
,
0000
0000
0000
0000
0100
0000
0010
0000
0001
0000
0000
0000
0010
0000
0000
1001
,
0000
0000
0000
0000
0000
0000
0000
1001
;
#NOTES:
     dance-single:
     :
     Hard:
     8:
     :
0000
0000
0000
0000
,
0000
0000
0000
0000
0000
0000
0000
0000
0000
0000
0000
0000
0000
0000
0000
0001
,
0000
0000
0000
0000
0100
0000
0000
0000
0010
1000
0000
0001
0000
0010
0000
0100
,
0000
0000
0000
0000
1000
0000
0000
0000
0100
0001
0000
0100
0000
1000
0000
0010
,
0000
0100
0000
0001
1000
0000
0000
0100
0000
0010
0000
0001
1000
0000
0000
0001
,
0000
0100
0000
1000
0100
0000
0000
0001
0000
0010
0000
1000
0010
0000
0000
0100
,
0000
1000
0000
0010
0001
0000
0000
0010
0000
1000
0000
0001
0100
0000
0000
0010
,
0000
1000
0000
0100
0001
0000
0000
0100
0000
1000
0000
0010
0001
0000
0000
0110
,
0000
0000
0000
0000
0100
0000
0001
0000
0010
0000
0000
0000
0100
0010
0000
1000
,
0000
0010
0000
0000
0001
0000
1000
0000
0100
0000
0000
0000
0010
0000
0000
0001
,
0000
1000
0000
0000
0100
0000
0010
0000
1000
0000
0010
0001
0000
0100
0000
1000
,
0000
0100
0000
0000
0001
0000
1000
0000
0110
0000
0000
0000
1001
0000
0000
0110
,
0000
0001
0000
0000
1000
0000
0100
0000
0010
0000
0000
0000
1000
0010
0000
0001
,
0000
1000
0000
0000
0001
0000
0100
0000
0010
0000
0000
0000
0001
0000
0000
0010
,
0000
1000
0000
0000
0001
0000
0010
0000
0100
0000
1000
0001
0000
0100
0000
1000
,
0000
0100
0010
0000
1000
0001
0000
0000
0011
0000
0000
0000
1100
0000
0000
0001
,
0000
1000
0000
0000
0010
0000
0100
0000
0002
0000
0000
0000
1003
0000
0000
0010
,
0000
1000
0000
0000
0100
0000
0010
0000
0002
0000
0000
0000
1003
0000
0000
0100
,
0000
1000
0000
0000
0010
0000
1000
0000
0100
0000
0001
0100
0000
1000
0000
0010
,
0000
1000
0000
0000
0001
0000
0010
0000
0002
0000
0000
0000
2003
0000
0000
3100
,
0000
1000
0000
0000
0010
0000
0100
0000
2000
0000
0000
0000
3100
0000
0000
0010
,
0000
1000
0000
0000
0100
0000
0010
0000
0002
0000
0000
0000
0013
0000
0000
1000
,
0000
0010
0000
0000
0001
0000
0010
0000
1000
0000
0010
0001
0000
0100
0000
1000
,
0000
0100
0000
0000
0001
0000
1000
0000
0200
0000
0000
0000
0320
0000
0000
0031
,
0000
1000
0000
0000
0001
0000
0100
0000
0020
0000
0000
0000
0031
0000
0000
0010
,
0000
1000
0000
0000
0001
0000
0100
0000
0020
0000
0000
0000
1030
0000
0000
0010
,
0000
0100
0000
0000
0001
0000
1000
0000
0100
0010
0000
0001
0000
1000
0000
0010
,
0000
0100
0000
0000
0001
0000
1000
0000
0200
0000
0000
0000
0310
0000
0000
0001
,
0000
1000
0000
0000
0100
0000
1000
0000
0020
0000
0000
0000
0130
0000
0000
0001
,
0000
0010
0000
0000
0100
0000
1000
0000
0020
0000
0000
0000
0130
0000
0000
0010
,
0000
0100
0000
0000
0001
0000
1000
0000
0100
0000
0010
0100
0000
0010
0000
1001
,
0000
0000
0000
1000
0001
0000
0100
0000
0010
0000
0100
0002
0000
0000
0000
0000
,
1003
0000
0000
0010
0100
0000
0001
0000
1000
0000
0100
0020
0000
0000
0000
0000
,
0031
0000
0000
1000
0100
0000
0001
0000
0100
0000
0010
0002
0000
0000
0000
0000
,
1003
0000
0000
0010
0100
0000
0001
0000
1000
0010
0000
0000
0100
0001
0000
1001
,
0000
0000
0010
0000
1000
0000
0100
0000
0001
0100
0000
0010
0000
0001
0000
0100
,
0000
0000
1000
0000
0100
0000
0001
0000
0010
1000
0000
0010
0000
0100
0000
1000
,
0000
0000
0001
0000
0100
0000
1000
0000
0100
0001
0000
0010
0000
0100
0000
1000
,
0000
0000
0010
0000
0001
0000
0010
0000
1000
0100
0000
0010
0000
0001
0000
0100
,
0000
0010
0000
1000
0001
0000
0000
0010
0000
0100
0000
1000
0001
1000
0000
1000
,
0000
0010
0000
0001
0010
0000
0000
1000
0000
0100
0000
0001
0100
0000
0000
0010
,
0000
0001
0000
0100
1000
0000
0100
0001
1000
0000
0010
0100
0000
0001
0000
0010
,
0000
1000
0000
0010
0001
0000
0100
1000
0100
0000
0001
0000
0010
0000
1000
0010
,
0000
0000
0001
0000
1000
0000
0001
0000
0100
0010
0000
1000
0000
0100
0000
0001
,
0000
0000
0100
0000
1000
0000
0010
0000
0001
0010
0000
0100
0000
0001
0000
1000
,
0000
0000
0100
0000
0010
0000
1000
0000
0010
0001
0000
1000
0000
0010
0000
0100
,
0000
0000
0001
0000
1000
0000
0100
0000
0010
0001
0000
0100
0000
1000
0000
0100
,
0000
0001
0000
0000
0010
0000
0100
0000
0100
0000
0000
0000
1001
0000
1000
0001
,
1000
0000
0010
0100
0000
0001
0000
1000
0000
0100
0000
0000
0010
0000
0000
0001
,
0000
1000
0100
1000
0000
0001
0010
0001
0000
0000
1000
0000
0001
0000
0100
0010
,
0000
0000
0000
0000
1000
0000
0001
0000
0110
0000
0000
1001
0000
0000
0000
0110
,
0000
0000
0000
0000
0001
0000
0010
0000
1000
0000
0010
0001
0000
1000
0000
0100
,
0000
0000
0000
0000
0001
0000
0000
0000
0000
0000
0000
0000
0000
0000
0000
0000
0100
0000
0000
0000
0000
0000
0000
0000
1000
0000
0000
0000
0000
0000
0000
0000
0010
0000
0000
0000
0000
1000
0000
0000
0000
0000
0100
0000
0000
0000
0000
0000
0010
0000
0000
0000
0000
0001
0000
0000
0000
0000
0000
0000
0100
0000
0000
0000
,
0000
0010
0000
1000
0001
0000
0100
0000
0010
0000
0100
0010
0000
1000
0000
0001
,
0000
0010
0100
0000
1000
0001
0000
0000
0100
0000
0001
0000
0010
0000
1000
0010
,
0000
0000
0000
0000
0000
0000
0000
1001
;
#NOTES:
     dance-single:
     :
     Challenge:
     10:
     :
0000
0000
0000
0000
,
0000
0000
0000
0000
0000
0000
0000
0000
0000
0000
0000
0000
0000
0000
0000
0100
,
0000
0010
0001
0100
0001
1000
0010
1000
0100
0001
0000
0100
0000
1000
0000
0001
,
0000
0010
0001
1000
0100
1000
0001
0000
0100
0010
0000
1000
0000
0001
0000
0110
,
0000
1000
0000
0010
0001
0000
0000
0010
0000
0100
0000
1000
0100
0000
0000
0001
,
0000
1000
0000
0100
0001
0100
1000
0001
0000
0010
0000
1000
0010
0000
0001
1000
,
0000
0010
0000
0001
0010
0000
1000
0001
0000
0100
0000
0001
1000
0000
0000
0010
,
0000
0100
0000
1000
0100
0000
0001
1000
0000
0010
0000
0001
0010
0000
0000
2002
,
0000
3003
0000
0100
0010
0000
0001
0000
2200
0000
3300
0000
0001
0100
0000
0010
,
0000
1000
0000
0100
0010
0000
0001
0000
0100
0001
1000
0000
1000
0001
0000
0010
,
0000
0001
0000
1000
0100
0000
0010
0000
1000
0000
0010
0001
0000
1000
0000
0110
,
0000
0001
0000
0100
0010
0000
0001
0000
0010
1000
0100
0001
0100
1000
0001
0010
,
0000
0100
0000
1000
0001
0000
0100
0000
2020
0000
3030
0000
0001
0010
0000
0100
,
0000
1000
0000
0001
0100
0000
0010
0000
1000
0010
0100
0000
0100
0010
0000
0001
,
0000
0010
0000
1000
0001
0000
0010
0000
1000
0000
0010
0001
0000
1000
0000
0010
,
0000
0100
0001
0000
1000
0100
0000
0000
0010
0001
1000
0100
0010
0001
0100
1000
,
0000
0100
0000
0001
0010
0001
0000
1000
0000
0010
0000
0100
0001
0100
0000
0010
,
0000
1000
0000
0001
0100
0001
0000
0010
0000
0100
0000
1000
0100
1000
0000
0001
,
0000
0100
0000
0010
1000
0000
0100
0000
0001
0000
0100
1000
0000
0001
0000
0100
,
0000
0010
0000
1000
0001
0000
0010
0000
0200
0000
0000
0000
0320
0000
0000
0031
,
0000
0100
0000
0010
1000
0010
0000
0001
0000
0010
0000
1000
0100
1000
0000
0010
,
0000
1000
0000
0001
0100
0001
0000
0010
0000
0001
0000
0100
0001
0100
0000
1000
,
0000
0100
0000
0010
1000
0000
0001
0000
0010
0000
0100
1000
0000
0001
0000
0100
,
0000
0010
0000
1000
0001
0000
0010
0000
0200
0000
0000
0000
0320
0000
0000
1030
,
0000
0010
0000
0001
0100
0010
0000
1000
0000
0001
0000
0100
0010
1000
0000
0001
,
0000
0010
0000
1000
0010
0100
0000
0001
0000
0100
0000
0010
0001
1000
0000
0010
,
0000
0100
0000
1000
0100
0000
0001
0000
0010
0100
0000
0010
0000
0001
0000
1000
,
0000
0100
0000
0010
0001
0000
0100
0000
0020
0000
0000
0000
0230
0000
0000
0301
,
0000
0100
0000
0010
1000
0100
0000
0001
0000
0100
0000
0010
0001
0100
0000
1000
,
0000
0100
0000
0001
0010
1000
0000
0010
0000
0100
0000
0001
0100
1000
0000
0001
,
0000
1000
0000
0000
0010
0000
0100
0000
0010
0000
1000
0001
0000
1000
0000
1001
,
0000
0000
0010
0000
1000
0000
0001
0000
0100
0000
0010
0000
1000
0001
0000
0010
,
0000
0001
0000
0100
1000
0000
0100
0000
0001
0010
0000
1000
0000
0010
0000
0001
,
0000
0000
0000
0000
0000
0000
0000
0000
0010
0000
0000
0000
0000
0001
0000
0000
0000
0000
1000
0000
0000
0000
0000
0001
0000
0000
0000
0000
0100
0000
0000
0000
0000
0000
0000
0000
0000
0000
0000
0000
0010
0000
0000
0000
0000
1000
0000
0000
0000
0000
0001
0000
0000
0000
0000
1000
0000
0000
0000
0000
0100
0000
0000
0000
,
0000
0000
1000
0001
1000
0001
0000
0010
0100
1000
0001
0100
0010
1000
0001
0100
,
0000
0000
0010
1000
0100
1000
0001
0100
0001
0010
0000
1000
0000
0010
0000
0001
,
0000
0100
0001
0010
0100
1000
0010
0000
0100
0001
0000
0010
0000
1000
0000
0010
,
0000
0001
0100
0010
0001
0010
1000
0100
0010
1000
0000
0010
0000
0001
0000
0100
,
0000
1000
0100
0001
0010
0100
0010
0001
0100
1000
0000
0100
0000
0001
0000
0110
,
0000
0001
0000
0100
1000
0000
0000
0100
0000
0010
0000
0001
0010
1000
0000
1001
,
0000
0001
0000
0010
1000
0010
0001
1000
0000
0100
0000
0001
0100
0000
1000
0002
,
0000
0103
0000
1000
0100
0000
0001
1000
0020
0000
1030
0002
0000
0203
0000
0320
,
0000
0031
0000
0010
1000
0000
0001
0100
0010
1000
0001
0010
0100
1000
0001
0100
,
0000
1000
0100
0001
1000
0001
1000
0001
0010
1000
0000
0010
0000
0001
0000
0100
,
0000
0010
1000
0100
0010
0001
0100
0000
1000
0100
0000
0001
0000
0010
0000
0100
,
0000
1000
0010
0100
1000
0100
0001
0010
0100
0001
0000
0100
0000
1000
0000
0010
,
0000
0001
0010
1000
0100
0001
0100
0010
0001
1000
0000
0010
0000
0100
0000
0001
,
0000
0010
0001
0100
1000
0100
0001
0020
0000
0000
0000
0000
0130
0000
1000
0010
,
1000
0000
0001
0100
0000
0010
0000
0001
0000
0010
0000
0000
1000
0000
0000
0001
,
0000
0100
0001
1000
0000
0010
1000
0001
0000
0010
0001
1000
0100
1000
0001
0010
,
0000
0000
0000
0000
1100
0000
1001
0000
0011
0000
0000
0110
0000
0000
0000
1001
,
0000
0000
0000
0100
0001
0000
0010
0000
1100
0000
0010
0001
0000
0100
0000
1010
,
0000
0000
0000
0000
0101
0000
0000
0000
0000
0000
0000
0000
0000
0000
0000
0000
0000
0000
0000
0000
0010
0000
0000
0000
1000
0000
0000
0000
0100
0000
0000
0000
0001
0000
0000
0000
0000
0100
0000
0000
0000
0000
1000
0000
0000
0000
0000
0000
0001
0000
0000
0000
0000
0010
0000
0000
0000
0000
0000
0000
1000
0000
0000
0000
,
0000
0010
0000
0001
0100
0000
0000
0000
1000
0000
0100
0010
0000
1000
0000
0001
,
0000
0010
0001
0000
1000
0010
0000
0000
0001
0010
1000
0100
0010
0001
0100
1000
,
0000
0000
0000
0000
0000
0000
0000
1001
;
#NOTES:
     dance-double:
     :
     Beginner:
     1:
     :
00000000
00000000
00000000
00000000
,
00000000
00000000
00000000
00000000
,
00100000
00000000
00000000
00000000
,
01000000
00000000
00000000
00000000
,
01100000
00000000
00000000
00000000
,
10000000
00000000
00000000
00000000
,
01000000
00000000
00000000
00000000
,
00010000
00000000
00000000
00000000
,
00011000
00000000
00000000
00000000
,
00001000
00000000
00000000
00000000
,
00000010
00000000
00000000
00000000
,
00000001
00000000
00000000
00000000
,
00000100
00000000
00000000
00000000
,
00000010
00000000
00000000
00000000
,
00000100
00000000
00000000
00000000
,
00000010
00000000
00000000
00000000
,
00001000
00000000
00000000
00000000
,
00000001
00000000
00000000
00000000
,
00000010
00000000
00000000
00000000
,
00000100
00000000
00000000
00000000
,
00001000
00000000
00000000
00000000
,
00000001
00000000
00000000
00000000
,
00000100
00000000
00000000
00000000
,
00001000
00000000
00000000
00000000
,
00010000
00000000
00000000
00000000
,
00100000
00000000
00000000
00000000
,
10000000
00000000
00000000
00000000
,
00010000
00000000
00000000
00000000
,
01000000
00000000
00000000
00000000
,
00100000
00000000
00000000
00000000
,
10000000
00000000
00000000
00000000
,
10010000
00000000
00000000
00000000
,
00100000
00000000
00000000
00000000
,
00001000
00000000
00000000
00000000
,
00010000
00000000
00000000
00000000
,
00000010
00000000
00000000
00000000
,
00001000
00000000
00000000
00000000
,
00000100
00000000
00000000
00000000
,
00000010
00000000
00000000
00000000
,
00000100
00000000
00000000
00000000
,
00000010
00000000
00000000
00000000
,
00001000
00000000
00000000
00000000
,
00010000
00000000
00000000
00000000
,
00100000
00000000
00000000
00000000
,
00010000
00000000
00000000
00000000
,
01000000
00000000
00000000
00000000
,
00100000
00000000
00000000
00000000
,
01000000
00000000
00000000
00000000
,
00100000
00000000
00000000
00000000
,
00010000
00000000
00000000
00000000
,
00001000
00000000
00000000
00000000
,
00010000
00000000
00000000
00000000
,
00000100
00000000
00000000
00000000
,
00001000
00000000
00000000
00000000
,
00000001
00000000
00000000
00000000
,
00001001
00000000
00000000
00000000
;
#NOTES:
     dance-double:
     :
     Easy:
     3:
     :
00000000
00000000
00000000
00000000
,
00000000
00000000
00000000
00000000
,
00100000
01000000
00100000
00000000
,
10000000
00010000
10000000
00000000
,
10010000
00000000
00100000
00000000
,
01000000
00000000
00001000
00000000
,
00010000
00000000
00000010
00000000
,
00000100
00000000
00000001
00000000
,
00000110
00001000
00000100
00000000
,
00000010
00000001
00000100
00000000
,
00001000
00010000
01000000
00000000
,
10000000
00100000
00010000
00000000
,
00001000
00100000
01000000
00000000
,
00010000
00001000
00100000
00000000
,
00001000
00010000
00000100
00000000
,
00000010
00000001
00001000
00000000
,
00000100
00000000
00000100
00001000
,
00000001
00000000
00000001
00001000
,
00000100
00000010
00001000
00010000
,
00100000
00000000
01000000
00010000
,
10000000
00000000
10000000
00010000
,
10000000
00000000
10000000
00100000
,
01000000
00001000
00010000
00000100
,
00000010
00000000
00000001
00000100
,
00001000
00000000
00001000
01000000
,
00001000
00000000
00001000
00010000
,
00100000
10000000
01000000
10000000
,
00010000
00000000
10000000
00100000
,
00010000
00000000
00010000
00001000
,
00010000
00000000
00010000
00000010
,
00001000
00000001
00000100
00000010
,
00001001
00000100
00000000
00000010
,
00010000
00001000
00000000
01000000
,
00100000
10000000
00000000
00010000
,
00100000
01000000
10000000
00010000
,
10010000
10000000
00010000
10000000
,
00100000
01000000
00100000
00100000
,
00010000
00010000
00001000
00010000
,
00000100
00000010
00000100
00000100
,
00001002
00000003
00000200
00000300
,
00000020
00000030
00020000
00030000
,
00000200
00000300
00002000
00003000
,
00000002
00000003
00000010
00000100
,
00001001
00000001
00001000
00001000
,
00000010
00000010
00000100
00000010
,
00010000
00001000
00010000
00010000
,
01000000
01000000
00100000
01000000
,
10010000
00100000
01000000
00000000
,
00100000
00001000
00010000
00000000
,
00001000
01000000
00010000
00000000
,
01000000
00001000
00010000
00000000
,
00001000
00000100
00000010
00000000
,
00000100
00000001
00000010
00000000
,
00000001
00000100
00000010
00000000
,
00000100
00001000
00010000
00000000
,
00011000
00000000
00000000
00000000
;
#NOTES:
     dance-double:
     :
     Medium:
     6:
     :
00000000
00000000
00000000
00000000
,
00000000
00000000
00000000
00000000
00000000
00000000
00000000
00000000
00000000
00000000
00000000
00000000
00000000
00000000
00000000
00010000
,
00000000
00000000
00000000
00000000
10000000
00000000
00000000
00000000
00100000
00000000
00000000
01000000
00000000
00001000
00000000
00010000
,
00000000
00000000
00000000
00000000
00000010
00000000
00000000
00000000
00000100
00000000
00000000
00000001
00000000
00001000
00000000
00000001
,
00000000
00001000
00000000
00000000
00000100
00000000
00000000
00000010
00000000
00000001
00000000
00000000
00001000
00000000
00000000
00000010
,
00000000
00000100
00000000
00000000
00001000
00000000
00000000
00010000
00000000
01000000
00000000
00000000
00100000
00000000
00000000
01000000
,
00000000
10000000
00000000
00000000
00100000
00000000
00000000
01000000
00000000
00010000
00000000
00000000
00100000
00000000
00000000
10000000
,
00000000
00100000
00000000
00000000
00010000
00000000
00000000
01000000
00000000
00001000
00000000
00000000
00010000
00000000
00000000
00011000
,
00000000
00000000
00000000
00000000
00000010
00000000
00000000
00000000
00002000
00000000
00000000
00000000
00000000
00003001
00000000
00000100
,
00000000
00000000
00000000
00000000
00000010
00000000
00000000
00000000
00001000
00000000
00000000
00000000
00000010
00000000
00000000
00010000
,
00000000
00000000
00000000
00000000
00000100
00000000
00000000
00000000
00001000
00000000
00000000
00000010
00000000
00010000
00000000
00001000
,
00000000
00000000
00000000
00000000
01000000
00000000
00000000
00000000
00110000
00000000
00000000
00000000
11000000
00000000
00000000
10010000
,
00000000
00000000
00000000
00000000
01000000
00000000
00000000
00000000
00020000
00000000
00000000
00000000
00000000
10030000
00000000
00100000
,
00000000
00000000
00000000
00000000
01000000
00000000
00000000
00000000
10000000
00000000
00000000
00000000
01000000
00000000
00000000
00010000
,
00000000
00000000
00000000
00000000
00100000
00000000
00000000
00000000
00001000
00000000
00000000
00010000
00000000
00000100
00000000
00001000
,
00000000
00000000
00000000
00000000
00000010
00000000
00000000
00000000
00000101
00000000
00000000
00000000
00001010
00000000
00000000
00001001
,
00000000
00000000
00000000
00000000
00000100
00000000
00000000
00000000
00000010
00000000
00000000
00000000
00001000
00000000
00000000
00000001
,
00000000
00000000
00000000
00000000
00000010
00000000
00000000
00000000
00000100
00000000
00000000
00000000
00001000
00000000
00000000
00000010
,
00000000
00000000
00000000
00000000
00000100
00000000
00000000
00000000
00001000
00000000
00000000
00000000
00010000
00000000
00000000
00011000
,
00000000
00000000
00000000
00000000
00001000
00000000
00000000
00000000
00010000
00000000
00000000
00000000
00100000
00000000
00000000
11000000
,
00000000
00000000
00000000
00000000
00010000
00000000
00000000
00000000
00100000
00000000
00000000
00000000
10000000
00000000
00000000
00100000
,
00000000
00000000
00000000
00000000
01000000
00000000
00000000
00000000
10000000
00000000
00000000
00000000
00100000
00000000
00000000
00010000
,
00000000
00000000
00000000
00000000
00100000
00000000
00000000
00000000
10000000
00000000
00000000
00000000
01000000
00000000
00000000
00110000
,
00000000
00000000
00000000
00000000
01000000
00000000
00000000
00000000
00010000
00000000
00000000
00000000
00001000
00000000
00000000
00011000
,
00000000
00000000
00000000
00000000
00010000
00000000
00000000
00000000
00000010
00000000
00000000
00000000
00000100
00000000
00000000
00001000
,
00000000
00000000
00000000
00000000
00000100
00000000
00000000
00000000
00000001
00000000
00000000
00000000
00000010
00000000
00000000
00000100
,
00000000
00000000
00000000
00000000
00001000
00000000
00000000
00000000
00000010
00000000
00000000
00000000
00010000
00000000
00000000
00011000
,
00000000
00000000
00000000
00000000
00001000
00000000
00000000
00000000
00010000
00000000
00000000
00000000
01000000
00000000
00000000
00110000
,
00000000
00000000
00000000
00000000
10000000
00000000
00000000
00000000
00010000
00000000
00000000
00000000
00100000
00000000
00000000
01000000
,
00000000
00000000
00000000
00000000
10000000
00000000
00000000
00000000
00010000
00000000
00000000
00000000
01000000
00000000
00000000
00100000
,
00000000
00000000
00000000
00000000
10000000
00000000
00000000
00000000
00010000
00000000
00000000
00000000
01000000
00000000
00000000
10010000
,
00000000
00000000
00100000
10000000
01000000
00000000
10000000
00000000
,
00010000
00000000
00100000
00010000
01000000
00000000
00001000
00000000
,
00010000
00000000
00000100
00001000
00000010
00000000
00001000
00000000
,
00000001
00000000
00000000
00000000
00000100
00000000
00000001
00000000
00000010
00000000
00000000
00000000
00000001
00000000
00000000
00001001
,
00000000
00000000
00000000
00000000
00001000
00000000
00000010
00000000
00000100
00000000
00000000
00000000
00000001
00000000
00000000
00001010
,
00000000
00000000
00000000
00000000
00000010
00000000
00010000
00000000
00001000
00000000
00000000
00000000
01000000
00000000
00000000
01010000
,
00000000
00000000
00000000
00000000
10000000
00000000
01000000
00000000
00100000
00000000
00000000
00000000
00010000
00000000
00000000
11000000
,
00000000
00000000
00000000
00000000
00010000
00000000
01000000
00000000
00100000
00000000
00000000
00000000
10000000
00000000
00000000
00010000
,
00000000
10000000
00000000
00000000
00100000
00000000
00000000
01000000
00000000
00010000
00000000
00000000
10000000
00000000
00000000
01000000
,
00000000
00100000
00000000
00000000
00001000
00000000
00000000
00010000
00000000
00000010
00000000
00000000
00000100
00000000
00000000
00000010
,
00000000
00001000
00000000
00000000
00000100
00000000
00000000
00000000
00001000
00000000
00000000
00000001
00000000
00000010
00000000
00001000
,
00000000
00000010
00000000
00000000
00000001
00000000
00000100
00000000
00001010
00000000
00000000
00000000
00000101
00000000
00000000
00001001
,
00000000
00000000
00000000
00000000
00000010
00000000
00001000
00000000
00000100
00000000
00000000
00000000
00000001
00000000
00000000
00000100
,
00000000
00000000
00000000
00000000
00010000
00000000
00001000
00000000
00000010
00000000
00000000
00000000
00000100
00000000
00000000
00010000
,
00000000
00000000
00000000
00000000
00001000
00000000
00010000
00000000
01000000
00000000
00000000
00000000
10000000
00000000
00000000
00010000
,
00000000
00000000
00000000
00000000
01000000
00000000
00010000
00000000
00100000
00000000
00000000
00000000
00010000
00000000
00000000
10000000
,
00000000
00000000
00000000
00000000
00100000
00000000
01000000
00000000
01000000
00000000
00000000
00000000
00010000
00000000
00000000
00100000
,
00000000
00000000
00000000
00000000
01000000
00000000
10000000
00000000
10000000
00000000
00000000
00000000
00010000
00000000
00000000
01000000
,
00000000
00000000
00000000
00000000
00001000
00000000
00010000
00000000
00100000
00000000
00000000
00000000
01000000
00000000
00000000
00001000
,
00000000
00000000
00000000
00000000
00010000
00000000
00001000
00000000
00000100
00000000
00000000
00000000
00000010
00000000
00000000
00001000
,
00000000
00000000
00000000
00000000
00000001
00000000
00001000
00000000
00000100
00000000
00000000
00000000
00000010
00000000
00000000
00000001
,
00000000
00000000
00000000
00000000
00000100
00000000
00000010
00000000
00001000
00000000
00000000
00000000
00000001
00000000
00000000
00000100
,
00000000
00000000
00000000
00000000
00001000
00000000
00010000
00000000
00100000
00000000
00000000
00000000
01000000
00000000
00000000
00001000
,
00000000
00000000
00000000
00000000
00010000
00000000
00001000
00000000
00100000
00000000
00000000
00000000
01000000
00000000
00000000
10010000
,
00000000
00000000
00000000
00000000
00000000
00000000
00000000
10010000
;
#NOTES:
     dance-double:
     :
     Hard:
     9:
     :
00000000
00000000
10010000
00000000
,
00000000
00000000
00000000
00000000
00000000
00000000
00000000
00000000
00000000
00000000
00000000
00000000
00000000
00000000
00000000
00000001
,
00000000
00000000
00000000
00000000
00001000
00000000
00000000
00000000
00000010
00000001
00000000
00000010
00000000
00001000
00000000
00000100
,
00000000
00000000
00000000
00000000
00010000
00000000
00000000
00000000
00001000
00010000
00000000
01000000
00000000
10000000
00000000
00100000
,
00000000
01000000
00000000
00010000
10000000
00000000
00000000
01000000
00000000
00100000
00000000
00010000
10000000
00000000
00000000
00010000
,
00000000
01000000
00000000
00001000
00010000
00000000
00000000
00000010
00000000
00001000
00000000
00000100
00000001
00000000
00000000
00000100
,
00000000
00001000
00000000
00000010
00000001
00000000
00000000
00000010
00000000
00001000
00000000
00000001
00000100
00000000
00000000
00000010
,
00000000
00001000
00000000
00000100
00010000
00000000
00000000
00001000
00000000
01000000
00000000
00100000
00010000
00000000
00000000
00011000
,
00000000
00000000
00000000
00000000
01000000
00000000
00010000
00000000
00100000
00000000
00000000
00000000
01000000
00100000
00000000
10000000
,
00000000
00100000
00000000
00000000
00010000
00000000
10000000
00000000
01000000
00000000
00000000
00000000
00100000
00000000
00000000
00001000
,
00000000
00010000
00000000
00000000
00000100
00000000
00000010
00000000
00001000
00000000
00000010
00000001
00000000
00000100
00000000
00001000
,
00000000
00000100
00000000
00000000
00000001
00000000
00001000
00000000
00000110
00000000
00000000
00000000
00001001
00000000
00000000
00000110
,
00000000
00000001
00000000
00000000
00001000
00000000
00000100
00000000
00000010
00000000
00000000
00000000
00001000
00000010
00000000
00000100
,
00000000
00010000
00000000
00000000
00001000
00000000
01000000
00000000
00100000
00000000
00000000
00000000
00010000
00000000
00000000
00001000
,
00000000
00100000
00000000
00000000
00010000
00000000
01000000
00000000
00100000
00000000
10000000
00010000
00000000
01000000
00000000
10000000
,
00000000
01000000
00100000
00000000
10000000
00010000
00000000
00000000
00110000
00000000
00000000
00000000
11000000
00000000
00000000
00010000
,
00000000
10000000
00000000
00000000
00100000
00000000
01000000
00000000
00020000
00000000
00000000
00000000
10030000
00000000
00000000
00100000
,
00000000
10000000
00000000
00000000
01000000
00000000
00100000
00000000
00002000
00000000
00000000
00000000
00013000
00000000
00000000
00000100
,
00000000
00001000
00000000
00000000
00000010
00000000
00001000
00000000
00000100
00000000
00000001
00000100
00000000
00001000
00000000
00000010
,
00000000
00001000
00000000
00000000
00000001
00000000
00000010
00000000
00000002
00000000
00000000
00000000
00002003
00000000
00000000
00003100
,
00000000
00001000
00000000
00000000
00000010
00000000
00000100
00000000
00002000
00000000
00000000
00000000
00003100
00000000
00000000
00000010
,
00000000
00001000
00000000
00000000
00000100
00000000
00000010
00000000
00002000
00000000
00000000
00000000
00013000
00000000
00000000
00001000
,
00000000
00100000
00000000
00000000
00010000
00000000
00100000
00000000
10000000
00000000
00100000
00010000
00000000
01000000
00000000
10000000
,
00000000
01000000
00000000
00000000
00010000
00000000
10000000
00000000
02000000
00000000
00000000
00000000
03200000
00000000
00000000
00310000
,
00000000
10000000
00000000
00000000
00010000
00000000
01000000
00000000
00200000
00000000
00000000
00000000
00310000
00000000
00000000
00001000
,
00000000
00010000
00000000
00000000
00000100
00000000
00001000
00000000
00000020
00000000
00000000
00000000
00000031
00000000
00000000
00000010
,
00000000
00000100
00000000
00000000
00000001
00000000
00001000
00000000
00000100
00000010
00000000
00001000
00000000
00010000
00000000
00000010
,
00000000
00000000
00000000
00000000
00000100
00000000
00000000
00000000
00000000
00000000
00000000
00000000
00000000
00000000
00000000
00000000
00000001
00000000
00000000
00000000
00000000
00000000
00000000
00000000
00001000
00000000
00000000
00000000
00000000
00000000
00000000
00000000
00000200
00000000
00000000
00000000
00000000
00000000
00000000
00000000
00000000
00000000
00000000
00000000
00000000
00000000
00000000
00000000
00000320
00000000
00000000
00000000
00000000
00000000
00000000
00000000
00000000
00000000
00000000
00000030
00000001
00000000
00000000
00000000
,
00000000
00001000
00000000
00000000
00000100
00000000
00010000
00000000
00000020
00000000
00000000
00000000
00000130
00000000
00000000
00001000
,
00000000
00010000
00000000
00000000
01000000
00000000
10000000
00000000
00200000
00000000
00000000
00000000
00310000
00000000
00000000
00100000
,
00000000
01000000
00000000
00000000
00010000
00000000
10000000
00000000
01000000
00000000
00100000
01000000
00000000
00010000
00000000
00011000
,
00000000
00000000
00000000
00000010
00001000
00000000
00000100
00000000
00000010
00000000
00000100
00020000
00000000
00000000
00000000
00000000
,
00031000
00000000
00000000
01000000
00010000
00000000
00100000
00000000
01000000
00000000
00100000
00002000
00000000
00000000
00000000
00000000
,
00013000
00000000
00000000
00000100
00010000
00000000
00001000
00000000
01000000
00000000
00100000
00020000
00000000
00000000
00000000
00000000
,
00031000
00000000
00000000
00010000
00001000
00000000
00010000
00000000
00000010
00010000
00000000
00000000
00001000
01000000
00000000
10010000
,
00000000
00000000
00100000
00000000
10000000
00000000
01000000
00000000
00010000
01000000
00000000
00100000
00000000
00010000
00000000
01000000
,
00000000
00000000
10000000
00000000
01000000
00000000
00010000
00000000
00100000
10000000
00000000
00100000
00000000
01000000
00000000
00010000
,
00000000
00000000
00001000
00000000
00000100
00000000
00000001
00000000
00001000
00000100
00000000
00000010
00000000
00000100
00000000
00001000
,
00000000
00000000
00000010
00000000
00000001
00000000
00000010
00000000
00001000
00000100
00000000
00000010
00000000
00000001
00000000
00000100
,
00000000
00000010
00000000
00001000
00000001
00000000
00000000
00000010
00000000
00000100
00000000
00001000
00000001
00001000
00000000
00001000
,
00000000
00000010
00000000
00010000
00001000
00000000
00000000
01000000
00000000
00010000
00000000
00100000
10000000
00000000
00000000
00100000
,
00000000
00010000
00000000
01000000
10000000
00000000
01000000
00010000
10000000
00000000
00100000
01000000
00000000
00010000
00000000
00100000
,
00000000
10000000
00000000
00100000
00010000
00000000
01000000
10000000
01000000
00000000
00010000
00000000
00100000
00000000
01000000
00100000
,
00000000
00000000
00001000
00000000
00010000
00000000
00000100
00000000
00000010
00000100
00000000
00001000
00000000
00000100
00000000
00000001
,
00000000
00000000
00000100
00000000
00001000
00000000
00000010
00000000
00000001
00000010
00000000
00000100
00000000
00001000
00000000
00010000
,
00000000
00000000
01000000
00000000
00100000
00000000
00010000
00000000
00100000
00001000
00000000
00010000
00000000
00100000
00000000
01000000
,
00000000
00000000
00010000
00000000
10000000
00000000
01000000
00000000
00100000
00010000
00000000
01000000
00000000
10000000
00000000
01000000
,
00000000
00010000
00000000
00000000
00100000
00000000
01000000
00000000
01000000
00000000
00000000
00000000
10010000
00000000
10000000
00010000
,
10000000
00000000
00100000
01000000
00000000
00001000
00000000
00010000
00000000
00000100
00000000
00000000
00000010
00000000
00000000
00000001
,
00000000
00001000
00000100
00001000
00000000
00000001
00000010
00000001
00000000
00000000
00001000
00000000
00000001
00000000
00000100
00000010
,
00000000
00000000
00000000
00000000
00010000
00000000
00001000
00000000
01000000
00000000
00000000
00010000
00000000
00000000
00000000
01100000
,
00000000
00000000
00000000
00000000
10000000
00000000
00100000
00000000
00010000
00000000
00001000
00010000
00000000
00001000
00000000
00000100
,
00000000
00000000
00000000
00000000
00000001
00000000
00000000
00000000
00000000
00000000
00000000
00000000
00000000
00000000
00000000
00000000
00000010
00000000
00000000
00000000
00000000
00000000
00000000
00000000
00000100
00000000
00000000
00000000
00000000
00000000
00000000
00000000
00000010
00000000
00000000
00000000
00000000
00000001
00000000
00000000
00000000
00000000
00000100
00000000
00000000
00000000
00000000
00000000
00000010
00000000
00000000
00000000
00000000
00001000
00000000
00000000
00000000
00000000
00000000
00000000
00000100
00000000
00000000
00000000
,
00000000
00010000
00000000
00001000
00010000
00000000
01000000
00000000
00100000
00000000
00010000
10000000
00000000
00100000
00000000
01000000
,
00000000
00010000
00100000
00000000
00001000
00010000
00000000
00000000
00000100
00000000
00001000
00000000
00000010
00000000
00000001
00000010
,
00000000
00000000
00000000
00000000
00000000
00000000
00000000
00001001
;
#NOTES:
     dance-double:
     :
     Challenge:
     10:
     :
00000000
00000000
00000000
00000000
,
00000000
00000000
00000000
00000000
00000000
00000000
00000000
00000000
00000000
00000000
00000000
00000000
00000000
00000000
00000000
00001000
,
00000000
00000010
00000001
00000100
00000001
00001000
00000010
00001000
00000100
00000001
00000000
00000100
00000000
00010000
00000000
00001000
,
00000000
00100000
00001000
00010000
00000100
00001000
00000001
00000000
00000100
00000010
00000000
00001000
00000000
00000001
00000000
00001001
,
00000000
00001000
00000000
00000010
00000001
00000000
00000000
00000010
00000000
00000100
00000000
00001000
00000100
00000000
00000000
00001000
,
00000000
00010000
00000000
01000000
00010000
01000000
10000000
00010000
00000000
00100000
00000000
10000000
00100000
00000000
00010000
10000000
,
00000000
00100000
00000000
00010000
00100000
00000000
00010000
00001000
00000000
00000100
00000000
00000001
00001000
00000000
00000000
00000010
,
00000000
00000100
00000000
00001000
00000100
00000000
00000001
00001000
00000000
00000010
00000000
00000001
00000010
00000000
00000000
00002002
,
00000000
00003003
00000000
00000100
00000010
00000000
00000001
00000000
00002200
00000000
00003300
00000000
00000001
00000100
00000000
00000010
,
00000000
00001000
00000000
00000100
00000010
00000000
00000001
00000000
00000100
00000001
00001000
00000000
00001000
00000001
00000000
00000010
,
00000000
00001000
00000000
00010000
01000000
00000000
00100000
00000000
10000000
00000000
00100000
00010000
00000000
10000000
00000000
01100000
,
00000000
00010000
00000000
01000000
00100000
00000000
00010000
00000000
00100000
10000000
01000000
00010000
00001000
00000100
00000001
00000010
,
00000000
00000100
00000000
00001000
00000001
00000000
00000100
00000000
00002020
00000000
00003030
00000000
00000001
00000010
00000000
00000100
,
00000000
00001000
00000000
00000001
00000100
00000000
00000010
00000000
00001000
00000010
00000100
00000000
00000100
00000010
00000000
00010000
,
00000000
00001000
00000000
00100000
00010000
00000000
00100000
00000000
10000000
00000000
00100000
00010000
00000000
10000000
00000000
00100000
,
00000000
01000000
00010000
00000000
10000000
01000000
00000000
00000000
00100000
00001000
00010000
00000100
00000010
00000001
00000100
00001000
,
00000000
00000100
00000000
00000001
00000010
00000001
00000000
00001000
00000000
00000010
00000000
00000100
00000001
00000100
00000000
00000010
,
00000000
00001000
00000000
00000100
00010000
00000100
00000000
00000010
00000000
00001000
00000000
00010000
00001000
00010000
00000000
00001000
,
00000000
01000000
00000000
00100000
10000000
00000000
01000000
00000000
00010000
00000000
01000000
10000000
00000000
00010000
00000000
01000000
,
00000000
00100000
00000000
10000000
00010000
00000000
00100000
00000000
02000000
00000000
00000000
00000000
03200000
00000000
00000000
00310000
,
00000000
01000000
00000000
00100000
10000000
00100000
00000000
00010000
00000000
00100000
00000000
10000000
01000000
10000000
00000000
00010000
,
00000000
01000000
00000000
00001000
00010000
00001000
00000000
00100000
00000000
00001000
00000000
00010000
00000100
00010000
00000000
00001000
,
00000000
00000100
00000000
00000010
00001000
00000000
00000001
00000000
00000010
00000000
00000100
00001000
00000000
00000001
00000000
00000100
,
00000000
00000010
00000000
00001000
00000001
00000000
00000010
00000000
00000200
00000000
00000000
00000000
00000320
00000000
00000000
00001030
,
00000000
00000010
00000000
00000001
00000100
00000010
00000000
00001000
00000000
00000001
00000000
00000100
00000010
00001000
00000000
00000001
,
00000000
00000010
00000000
00001000
00000010
00000100
00000000
00010000
00000000
00001000
00000000
00100000
00010000
10000000
00000000
00100000
,
00000000
01000000
00000000
10000000
01000000
00000000
00010000
00000000
00100000
01000000
00000000
00100000
00000000
00010000
00000000
10000000
,
00000000
01000000
00000000
00100000
00010000
00000000
01000000
00000000
00200000
00000000
00000000
00000000
02300000
00000000
00000000
03010000
,
00000000
01000000
00000000
00100000
10000000
01000000
00000000
00010000
00000000
01000000
00000000
00100000
00010000
01000000
00000000
00001000
,
00000000
00010000
00000000
00000100
00001000
00000010
00000000
00000100
00000000
00001000
00000000
00000100
00000001
00000010
00000000
00000100
,
00000000
00001000
00000000
00000000
00000001
00000000
00000010
00000000
00001000
00000000
00010000
00001000
00000000
00010000
00000000
00011000
,
00000000
00000000
00100000
00000000
00010000
00000000
10000000
00000000
01000000
00000000
00100000
00000000
00001000
00010000
00000000
00000010
,
00000000
00001000
00000000
00000100
00000001
00000000
00000100
00000000
00001000
00000010
00000000
00000100
00000000
00001000
00000000
00010000
,
00000000
00000000
00000000
00000000
00000000
00000000
00000000
00000000
00000010
00000000
00000000
00000000
00000000
00001000
00000000
00000000
00000000
00000000
00000100
00000000
00000000
00000000
00000000
00010000
00000000
00000000
00000000
00000000
00001000
00000000
00000000
00000000
00000000
00000000
00000000
00000000
00000000
00000000
00000000
00000000
01000000
00000000
00000000
00000000
00000000
00010000
00000000
00000000
00000000
00000000
00100000
00000000
00000000
00000000
00000000
00001000
00000000
00000000
00000000
00000000
00010000
00000000
00000000
00000000
,
00000000
00000000
00000010
00010000
00001000
01000000
00000000
00010000
00100000
00010000
01000000
00001000
00010000
00000010
00001000
00000100
,
00000000
00000000
00000010
00000001
00000100
00000001
00001000
00000100
00001000
00000010
00000000
00000001
00000000
00000010
00000000
00001000
,
00000000
00000100
00010000
00001000
00100000
00010000
01000000
00000000
10000000
01000000
00000000
00100000
00000000
10000000
00000000
00010000
,
00000000
10000000
01000000
00100000
10000000
00100000
00010000
01000000
00100000
00010000
00000000
00100000
00000000
10000000
00000000
01000000
,
00000000
00100000
00010000
01000000
00001000
00100000
00010000
01000000
00001000
00010000
00000000
00000100
00000000
00001000
00000000
00001001
,
00000000
00000001
00000000
00000100
00001000
00000000
00000000
00000100
00000000
00000010
00000000
00000001
00000010
00001000
00000000
00001001
,
00000000
00000001
00000000
00000010
00001000
00000010
00000001
00001000
00000000
00000100
00000000
00010000
00001000
00000000
00100000
00020000
,
00000000
01030000
00000000
10000000
01000000
00000000
00010000
10000000
00200000
00000000
10300000
00020000
00000000
02030000
00000000
03200000
,
00000000
00310000
00000000
00001000
00010000
00000000
00010000
00001000
00100000
00010000
01000000
00001000
00010000
00000100
00001000
00000010
,
00000000
00000001
00000010
00001000
00000001
00001000
00000001
00001000
00000010
00000001
00000000
00000010
00000000
00001000
00000000
00000100
,
00000000
00010000
00001000
00100000
00001000
00010000
00000100
00000000
00001000
00000010
00000000
00010000
00000000
00001000
00000000
01000000
,
00000000
10000000
01000000
00100000
10000000
01000000
00010000
01000000
00100000
00010000
00000000
10000000
00000000
00010000
00000000
01000000
,
00000000
00010000
00100000
00001000
00010000
00000100
00001000
00000010
00000100
00000001
00000000
00000010
00000000
00000001
00000000
00000100
,
00000000
00000001
00000100
00001000
00010000
01000000
10000000
00200000
00000000
00000000
00000000
00000000
10300000
00000000
00010000
01000000
,
00010000
00000000
10000000
00100000
00000000
00010000
00000000
00001000
00000000
00000100
00000000
00000000
00001000
00000000
00000000
00010000
,
00000000
00000010
00010000
00001000
00000000
01000000
00001000
00010000
00000000
00000100
00010000
00001000
00100000
00001000
00010000
00000100
,
00000000
00000000
00000000
00000000
00000200
00000000
00020300
00000000
00032000
00000000
00000000
00103000
00000000
00000000
00000000
10010000
,
00000000
00000000
00000000
01000000
00010000
00000000
00100000
00000000
11000000
00000000
00100000
00010000
00000000
01000000
00000000
10100000
,
00000000
00000000
00000000
00000000
01010000
00000000
00000000
00000000
00000000
00000000
00000000
00000000
00000000
00000000
00000000
00000000
00000000
00000000
00000000
00000000
00100000
00000000
00000000
00000000
10000000
00000000
00000000
00000000
01000000
00000000
00000000
00000000
00010000
00000000
00000000
00000000
00000000
00001000
00000000
00000000
00000000
00000000
00010000
00000000
00000000
00000000
00000000
00000000
00001000
00000000
00000000
00000000
00000000
00000010
00000000
00000000
00000000
00000000
00000000
00000000
00000001
00000000
00000000
00000000
,
00000000
00000100
00000000
00001000
00000100
00000000
00000000
00000000
00000001
00000000
00000010
00000100
00000000
00001000
00000000
00000001
,
00000000
00000010
00000100
00000000
00001000
00000001
00000000
00000000
00000010
00000001
00000100
00001000
00010000
01000000
10000000
00100000
,
00000000
00000000
00000000
00000000
00000000
00000000
00000000
10010000
;
