
//----- song ID: conc -----
#TITLE:Concertino In Blue;
#ARTIST:Hirofumi Sasaki;
#BANNER:Concertino In Blue.png;
#BACKGROUND:Concertino In Blue-bg.png;
#CDTITLE:./CDTitles/GF 7thMIX & dm 6thMIX.png;
#MUSIC:Concertino In Blue.ogg;
#OFFSET:-0.013;
#SAMPLESTART:12.611;
#SAMPLELENGTH:15;
#DISPLAYBPM:103:155;
#BPMS:0=140.078,24=154.959,49=150,56=155.045,77=150,86=155.008,151=152.174,158=154.982,214=139.535,216=120,222=115.385,223=110.024,228=125;
#NOTES:
     dance-single:
     :
     Beginner:
     2:
     :
0000
0000
0000
0000
,
1001
0000
0000
0000
,
1000
0000
0000
0000
,
1001
0000
0000
0000
,
0001
0000
0000
0000
,
2002
0000
0000
3003
,
0000
0000
0000
0000
,
0000
0000
0100
0100
,
0000
0000
0000
0000
,
0010
0000
0000
1000
,
0000
0000
0000
0001
,
0001
0000
0000
0000
,
0000
0020
0000
0000
,
0030
0000
0000
0010
,
0010
0000
0100
0100
,
0000
0000
0000
0000
,
1000
0000
0000
0001
,
0000
0000
0000
0010
,
0010
0000
0000
0000
,
0000
0002
0000
0000
,
0003
0000
0000
0001
,
0001
0000
0100
0000
,
0000
0010
0000
0000
,
1000
0000
0000
0001
,
0000
0000
0010
0000
,
0000
0100
0000
0000
,
1000
0000
0000
0001
,
0000
0000
0100
0000
,
0000
0010
0000
0000
,
0110
0000
0000
1000
,
0000
0000
1001
0000
,
0000
0001
0000
0000
,
1001
0000
0000
1000
,
0000
0000
0010
0000
,
0000
0100
0000
0000
,
0110
0000
0000
0010
,
0000
0000
1000
0000
,
0000
0001
0000
0000
,
1001
0000
0000
0001
,
0000
0000
0010
0000
,
0000
0100
0000
0000
,
1000
0000
0000
0001
,
0000
0000
0100
0000
,
0100
0000
0100
0000
,
0010
0000
0010
0000
,
1000
0000
2000
0000
,
0000
3000
0000
0000
,
0000
0000
0000
0100
,
0000
0000
0010
0010
,
0000
0001
0001
0000
,
0000
0000
0000
0100
,
0000
0000
0010
0000
,
0000
0000
1000
1000
,
0000
0000
0000
0000
,
0200
0000
0000
0300
,
0000
0000
0100
0100
,
0010
0001
0000
0000
,
1000
0000
0001
0000
,
1000
0000
0000
0020
,
0000
0000
0030
0000
;
#NOTES:
     dance-single:
     :
     Easy:
     4:
     :
0000
0000
0000
0000
,
1001
0000
0000
0000
,
0110
0000
0000
0000
,
1001
0000
0000
0000
,
0110
0000
0000
0000
,
0001
0001
0001
0001
,
1000
1000
0010
0100
,
0100
0001
1001
1000
,
0100
0010
0000
0001
,
1000
0000
0000
1000
,
0000
0000
0001
1001
,
1000
0100
0010
0000
,
0001
1000
0000
0000
,
0001
0000
0000
0100
,
0001
0100
0110
0010
,
1000
0001
0000
0100
,
0010
0000
0000
1000
,
0000
0000
0100
0110
,
0010
0001
1000
0000
,
0001
0100
0000
0000
,
0010
0000
0000
1000
,
1000
0001
1001
0000
,
0000
0010
0000
0000
,
0100
0000
0000
0001
,
0000
0000
0010
0000
,
0000
0100
0000
0000
,
1000
0000
0000
0010
,
0000
0000
0100
0000
,
0000
0001
0000
0000
,
1001
0000
0000
1000
,
0000
0000
0110
0000
,
0000
0010
0000
0000
,
0100
0000
0000
0001
,
0000
0000
0010
0000
,
0000
0100
0000
0000
,
0001
0000
0100
0010
,
0000
1000
0001
0000
,
0000
0100
0000
0000
,
0001
0000
0000
0100
,
0000
0000
0010
0000
,
0000
1000
0000
0000
,
0100
0000
0000
0010
,
0000
0000
0001
0000
,
1000
0000
0010
0000
,
0100
0000
0001
0000
,
0010
0000
0200
0000
,
0000
0000
0300
0000
,
0000
0000
0000
1000
,
1000
0010
0010
0100
,
0001
1001
1000
0100
,
0010
0000
0001
0010
,
0000
0000
0001
0000
,
0000
0100
0110
0010
,
1000
0001
0000
0010
,
0200
0000
0000
0300
,
0000
0000
1000
0010
,
0100
1001
0000
0000
,
0001
0000
0010
0000
,
0100
0000
0000
1000
;
#NOTES:
     dance-single:
     :
     Medium:
     8:
     :
0000
0000
0000
0000
,
2100
0001
0010
3001
,
0201
0010
1000
0301
,
1020
0100
0001
0130
,
1002
0100
0010
1000
,
0013
0000
0000
0000
0000
0100
0000
0000
0000
0000
0010
0000
0000
0000
0000
0000
0100
0000
0000
0000
0000
0010
0000
0000
0000
0000
0100
0000
0000
0000
0000
0000
0010
0000
0000
0000
0000
0100
0000
0000
0000
0000
0010
0000
0000
0000
0000
0000
0100
0000
0000
0000
0000
0010
0000
0000
0000
0000
0100
0000
0000
0000
0000
0000
,
0010
0000
0000
0100
0000
0000
0010
0000
0001
0000
1000
0000
0001
0000
0000
0000
,
0101
0000
0010
1000
0001
0000
1001
0000
,
0010
0000
0000
1000
0000
0000
0001
0000
0000
0000
0010
0000
0100
0000
0010
0000
,
0001
0000
0000
1000
0000
0000
0010
0000
0100
0000
0010
0000
1000
0000
0000
0001
,
0000
0010
0100
0000
1000
0001
0010
0000
,
0110
0000
0000
0000
0100
0000
0000
1000
0000
0000
0001
0000
0000
0000
0100
0000
,
0010
0000
1000
0000
0001
0000
0000
1000
0000
0000
0000
0100
0000
0000
0000
0020
,
0000
0000
0000
0031
,
1001
0000
0001
0100
0010
0000
1010
0000
,
1000
0000
0000
0001
0000
0000
0010
0000
0000
0000
0001
0000
1000
0000
0010
0000
,
0100
0000
0000
0001
0000
0000
0010
0000
0100
0000
0010
0000
0001
0000
0000
1000
,
0000
0010
0100
0000
0001
1000
0001
0000
,
1001
0000
0000
0000
0010
0000
0000
0001
0000
0000
0010
0000
0000
0000
0100
0000
,
1000
0000
0001
0000
0100
0000
0000
0010
0000
0000
0000
1000
0000
0000
0000
0002
,
0000
0000
0000
1003
,
1001
0000
0001
0010
0200
0000
0000
0000
,
0000
2300
0000
0000
,
3001
0000
0100
0010
0000
1000
1000
0000
,
0100
0010
0001
1000
0010
0000
0100
0001
,
0000
0010
0010
0000
0100
1000
0001
0100
,
0010
0000
0010
1000
0000
1000
0001
0000
,
0001
0010
0000
0010
0100
1000
0010
0100
,
0000
0100
0010
1000
0100
0010
0001
0010
,
0100
1000
0010
0010
0100
0001
0001
0010
,
0100
0100
1000
0001
0001
0100
0010
0010
,
1000
0000
0001
0000
0001
0000
0010
0000
0100
0000
0100
0000
0000
1000
0000
0000
,
0001
0000
0000
0100
0000
0000
0010
0000
0000
1000
0000
0000
0001
0000
0000
0010
,
0000
0000
0100
0000
0000
0010
0000
0000
0011
0000
0000
0001
0000
0000
0101
0000
,
0000
1000
0000
0000
1001
0000
0000
0001
0000
0000
0011
0000
0000
0010
0000
0000
,
0110
0100
1000
0001
0100
0100
0010
1000
,
0001
0010
0100
0100
0001
0100
1000
0010
,
0100
0100
0001
0010
0100
1000
0100
0010
,
0001
0000
0000
0000
1001
0000
0000
0000
1000
0000
0010
0000
0100
0000
0000
0001
,
0000
0000
0010
0000
0000
0100
0000
0000
1000
0000
0000
0000
1001
0000
0000
0000
,
0001
0100
0010
1000
0001
1000
0100
0010
,
0001
0000
0011
0000
0010
0100
1000
0001
,
1000
0000
0000
0000
0000
0000
0000
0000
0010
0000
0000
0000
0000
0000
0000
0000
0100
0000
0000
0000
0000
0000
0000
0000
0010
0000
0000
0000
0000
0000
0000
0000
1000
0000
0000
0000
0000
0001
0000
0000
0000
0000
1000
0000
0000
0000
0000
0000
0001
0000
0000
0000
0000
1000
0000
0000
0000
0000
0001
0000
0000
0000
0000
0000
,
1000
0000
0000
0000
0000
0001
0000
0000
0000
0000
1000
0000
0000
0000
0000
0000
0010
0000
0000
0000
0000
0100
0000
0000
0000
0000
0010
0000
0000
0000
0000
0000
0100
0000
0000
0000
0000
0001
0000
0000
0000
0000
0100
0000
0000
0000
0000
0000
0001
0000
0000
0000
0000
1000
0000
0000
0000
0000
0001
0000
0000
0000
0000
0000
,
1000
0000
0000
0000
0000
0100
0000
0000
0000
0000
1000
0000
0000
0000
0000
0000
0100
0000
0000
0000
0000
0010
0000
0000
0000
0000
0100
0000
0000
0000
0000
0000
0010
0000
0000
0000
0000
0001
0000
0000
0000
0000
0010
0000
0000
0000
0000
0000
0001
0000
0000
0000
0000
1000
0000
0000
0000
0000
0001
0000
0000
0000
0000
0000
,
0100
0000
0000
0000
0000
0001
0000
0000
0000
0000
0100
0000
0000
0000
0000
0000
0010
0000
0000
0000
0000
1000
0000
0000
0000
0000
0010
0000
0000
0000
0000
0000
0200
0000
0000
0000
0000
0000
0000
0000
0000
0000
0000
0000
0000
0000
0000
0000
0000
0000
0000
0000
0000
0000
0000
0000
0000
0000
0000
0000
0000
0000
0000
0000
,
0000
0000
0300
0000
,
0001
0000
0010
0000
0100
0000
0000
0000
0000
0000
0000
0000
1000
0000
0000
0001
,
0000
0100
0010
1000
0001
0000
1001
0000
,
0010
0000
0001
0000
1000
0000
0000
0000
1010
0000
0000
0000
0100
0000
0000
0001
,
0000
0000
0010
0000
0000
0000
0100
0000
1000
0000
0100
0000
0010
0000
0000
0001
,
0000
0000
1000
0000
0010
0000
0100
0000
0010
0000
0000
1000
0000
0000
0001
0000
,
0010
0000
0100
1000
0010
0000
0110
0000
,
0100
0000
0000
0001
0000
0000
0010
0000
0000
0000
0100
0000
1000
0000
0001
0000
,
0100
0000
0000
0010
0000
0000
0000
1000
0000
0000
0000
0002
0000
0000
0000
0000
,
0000
0000
0013
0110
,
0100
1000
1001
0000
0000
0000
0000
0000
,
0001
0000
0000
0000
0000
0000
0000
0000
0000
0000
0100
0000
0000
0000
0000
0000
0000
0000
0000
0000
0000
0001
0000
0000
0000
0000
0000
0000
0000
0000
0000
0000
1000
0000
0000
0000
0000
0000
0000
0000
0000
0000
0001
0000
0000
0000
0000
0000
0000
0000
0000
0000
0000
1000
0000
0000
0000
0000
0000
0000
0000
0000
0000
0000
,
0001
0000
0000
0000
0000
0100
0000
0000
0000
0000
0000
0000
0010
0000
0000
0000
0000
0000
0000
0000
0000
0000
0000
0000
1000
0000
0000
0000
0000
0000
0000
0000
,
0000
0000
0000
0000
0000
0000
0000
0001
;
#NOTES:
     dance-single:
     :
     Hard:
     10:
     :
0000
0000
0000
0000
,
0001
0000
0000
0000
0000
1000
0000
0000
0000
0000
0010
0000
0000
0000
0000
0000
0000
0000
0000
0000
0000
0100
0000
0000
0000
0000
0001
0000
0000
0000
0000
0000
0000
0000
0000
0000
0000
1000
0000
0000
0000
0000
0100
0000
0000
0000
0000
0000
0000
0000
0000
0000
0000
0010
0000
0000
0000
0000
0001
0000
0000
0000
0000
0000
,
0100
0000
0000
0000
0000
0010
0000
0000
0000
0000
1000
0000
0000
0000
0000
0000
0000
0000
0000
0000
0000
0001
0000
0000
0000
0000
1000
0000
0000
0000
0000
0000
0000
0000
0000
0000
0000
0100
0000
0000
0000
0000
0010
0000
0000
0000
0000
0000
0000
0000
0000
0000
0000
0001
0000
0000
0000
0000
1000
0000
0000
0000
0000
0000
,
0100
0000
0000
0000
0000
0010
0000
0000
0000
0000
0001
0000
0000
0000
0000
0000
0000
0000
0000
0000
0000
1000
0000
0000
0000
0000
0100
0000
0000
0000
0000
0000
0000
0000
0000
0000
0000
1000
0000
0000
0000
0000
0010
0000
0000
0000
0000
0000
0000
0000
0000
0000
0000
0100
0000
0000
0000
0000
0001
0000
0000
0000
0000
0000
,
1000
0000
0000
0000
0000
0010
0000
0000
0000
0000
0100
0000
0000
0000
0000
0000
0000
0000
0000
0000
0000
0001
0000
0000
0000
0000
1000
0000
0000
0000
0000
0000
0000
0000
0000
0000
0000
0100
0000
0000
0000
0000
0010
0000
0000
0000
0000
0000
0000
0000
0000
0000
0000
0100
0000
0000
0000
0000
1000
0000
0000
0000
0000
0000
,
0001
0000
0000
0000
0000
1000
0000
0000
0000
0000
0001
0000
0000
0000
0000
0000
1000
0000
0000
0000
0000
0001
0000
0000
0000
0000
1000
0000
0000
0000
0000
0000
0001
0000
0000
0000
0000
1000
0000
0000
0000
0000
0001
0000
0000
0000
0000
0000
1000
0000
0000
0000
0000
0001
0000
0000
0000
0000
1000
0000
0000
0000
0000
0000
,
0100
0010
0000
0100
0000
0010
0001
0000
0100
0000
0100
0000
1001
0000
0000
0000
,
1001
0000
0000
0001
0100
0000
0010
0000
1010
0000
0000
0000
1010
0000
0000
0000
,
1000
0100
0000
0010
0000
0000
0010
0000
0000
0000
0001
0000
1000
0000
0010
0000
,
0100
0000
0001
1000
0000
0001
0010
0000
0100
0000
0010
0000
0100
1000
0000
0010
,
0000
0100
0001
0000
1000
0000
0000
0000
0010
0000
0100
0000
0101
0000
0000
0000
,
0101
0000
0000
0000
0001
0010
0000
0100
0000
0000
0100
0000
0000
0000
1000
0000
,
0010
0000
0100
0000
0001
0100
0001
0100
0000
0001
1000
0001
0000
1000
0100
2000
,
0000
0000
0000
0000
0000
3000
1001
0000
,
1001
0000
0000
0001
0010
0000
0100
0000
0110
0000
0000
0000
0110
0000
0000
0000
,
0010
0001
0000
1000
0000
0000
1000
0000
0000
0000
0100
0000
0010
0000
0001
0000
,
1000
0000
0010
0100
0000
0010
1000
0000
0001
0000
1000
0000
0001
0100
0000
0010
,
0000
1000
0001
0000
0010
0000
0000
0000
0100
0000
1000
0000
0011
0000
0000
0000
,
0011
0000
0000
0000
0001
0010
0000
0100
0000
0000
0100
0000
0000
0000
1000
0000
,
0001
0000
0100
0000
0010
1000
0010
0100
0000
0001
0100
0001
0000
0010
0100
2000
,
0000
0000
0000
3001
,
0101
0000
0000
0010
1000
0000
0100
0000
1200
0000
0000
0000
0000
0000
0000
0000
,
0000
0320
0000
0000
,
0031
0000
0000
1000
0000
0001
0100
0000
0010
0000
1000
0000
0010
0000
0001
0000
,
0010
0100
0010
0000
1000
0000
0001
0100
0001
0000
0010
0000
0100
0000
0001
0000
,
0100
0010
0000
0100
1000
0000
0001
0000
0100
0010
0100
0000
0001
0000
1000
0100
,
1000
0000
0001
0010
0001
0000
1000
0000
0001
0100
0001
0000
0010
0000
0100
1000
,
0100
0000
0010
0000
0001
1000
0001
0000
0100
0000
0010
1000
0001
1000
0010
0000
,
0100
0001
0100
0010
0100
0000
0001
0010
0100
0010
0001
0000
0010
0100
1000
0100
,
0010
0000
0001
0100
0001
0100
0001
0000
1000
0100
1000
0100
1000
0000
0010
0100
,
0010
0100
0010
0000
0100
0001
0100
0001
0100
0000
0001
0010
0001
0010
0001
0000
,
0010
0100
0010
0100
0010
0000
0100
1000
0100
1000
0001
0000
0000
0100
0000
0000
,
0110
0000
0000
1000
0000
0000
1100
0000
0000
0100
0000
0000
0011
0000
0000
0010
,
0000
0000
0101
0000
0000
0100
0000
0000
1010
0000
0000
0010
0000
0000
1001
0000
,
0000
1100
0000
0000
0101
0000
0000
0011
0000
0000
1100
0000
0000
1010
0000
0000
,
0101
0000
0001
0100
0001
0100
0001
0000
1000
0000
0010
0000
1000
0000
0100
0010
,
0100
0010
0100
0000
0001
0000
0100
0000
1000
0000
0001
1000
0001
0010
0001
0000
,
1000
0000
1000
0000
0010
0100
0010
0100
0010
0100
0001
1000
0001
1000
0100
0010
,
0001
0000
0000
0000
0011
0000
0000
0000
0100
1000
0100
0000
0010
0000
0000
0011
,
0000
0000
1010
0000
0000
0101
0000
0000
1100
0000
0000
0000
1001
0000
0000
0000
,
1000
0001
1000
0000
0010
0000
0100
0000
1000
0000
0100
0000
0001
0000
0010
0000
,
0110
0000
0000
0000
1100
0000
0000
0000
0100
0010
0100
0000
1000
0000
0001
0000
,
0100
0000
0000
0000
0000
0000
0000
0000
1000
0000
0000
0000
0000
0000
0000
0000
0100
0000
0000
0000
0000
0000
0000
0000
0001
0000
0000
0000
0000
0000
0000
0000
0010
0000
0000
0000
0000
0100
0000
0000
0000
0000
0010
0000
0000
0000
0000
0000
0001
0000
0000
0000
0000
1000
0000
0000
0000
0000
0001
0000
0000
0000
0000
0000
,
0010
0000
0000
0000
0000
0100
0000
0000
0000
0000
0010
0000
0000
0000
0000
0000
0001
0000
0000
0000
0000
0010
0000
0000
0000
0000
0100
0000
0000
0000
0000
0000
1000
0000
0000
0000
0000
0100
0000
0000
0000
0000
0010
0000
0000
0000
0000
0000
0001
0000
0000
0000
0000
0010
0000
0000
0000
0000
0100
0000
0000
0000
0000
0000
,
1000
0000
0000
0000
0000
0100
0000
0000
0000
0000
0010
0000
0000
0000
0000
0000
0001
0000
0000
0000
0000
0100
0000
0000
0000
0000
0010
0000
0000
0000
0000
0000
1000
0000
0000
0000
0000
0010
0000
0000
0000
0000
0100
0000
0000
0000
0000
0000
0001
0000
0000
0000
0000
0010
0000
0000
0000
0000
0100
0000
0000
0000
0000
0000
,
1000
0000
0000
0000
0000
0100
0000
0000
0000
0000
0010
0000
0000
0000
0000
0000
0001
0000
0000
0000
0000
0010
0000
0000
0000
0000
0100
0000
0000
0000
0000
0000
2000
0000
0000
0000
0000
0000
0000
0000
0000
0000
0000
0000
0000
0000
0000
0000
0000
0000
0000
0000
0000
0000
0000
0000
0000
0000
0000
0000
0000
0000
0000
0000
,
0000
0000
3000
0000
,
0010
1000
0001
0000
0010
0000
0000
0000
0000
0000
0000
0000
0001
0100
0000
0010
,
0000
0100
0001
0000
1000
0000
1000
0000
1100
0000
0000
0000
0110
0000
0000
0000
,
0001
0000
0100
0000
1010
0000
0000
0000
1010
0000
0000
0000
0100
0001
0000
1000
,
0000
0000
1000
0000
0000
0000
0010
0000
0001
0000
0010
0000
1000
0000
0001
0100
,
0000
0001
0010
0000
0100
0000
0010
0000
0100
1000
0000
0001
0000
1000
0100
0000
,
0010
0000
0001
0010
1100
0000
1100
0000
,
0001
0100
0000
0010
0000
0000
0010
0000
0000
0000
1000
0000
0010
0000
0100
0000
,
0001
1000
0001
1000
0000
0010
0100
0001
0000
0010
0100
0020
0000
0000
0000
0000
,
0000
0000
0000
0000
0000
0000
0000
0000
0130
0000
0000
0000
1100
0000
0010
0001
,
0010
0001
1000
0000
0000
0000
0000
0000
,
0010
0000
0000
0000
0000
0000
0000
0000
0000
0000
0100
0000
0000
0000
0000
0000
0000
0000
0000
0000
0000
0010
0000
0000
0000
0000
0000
0000
0000
0000
0000
0000
1000
0000
0000
0000
0000
0000
0000
0000
0000
0000
0001
0000
0000
0000
0000
0000
0000
0000
0000
0000
0000
1000
0000
0000
0000
0000
0000
0000
0000
0000
0000
0000
,
0100
0000
0000
0000
0000
0010
0000
0000
0000
0000
0000
0000
0001
0000
0000
0000
0000
0000
0000
0000
0000
0000
0000
0000
0010
0000
0000
0000
0000
0000
0000
0000
,
0000
0000
0000
0100
1000
0000
0000
1001
;
#NOTES:
     dance-single:
     :
     Challenge:
     10:
     :
0000
0000
0000
0000
,
2000
0000
0000
0000
0000
0100
0000
0000
0000
0000
0100
0000
0000
0000
0000
0000
0000
0000
0000
0000
0000
0001
0000
0000
0000
0000
0001
0000
0000
0000
0000
0000
0000
0000
0000
0000
0000
0010
0000
0000
0000
0000
0010
0000
0000
0000
0000
0000
0000
0000
0000
0000
0000
0001
0000
0000
0000
0000
3001
0000
0000
0000
0000
0000
,
0200
0000
0000
0000
0000
0010
0000
0000
0000
0000
0010
0000
0000
0000
0000
0000
0000
0000
0000
0000
0000
0001
0000
0000
0000
0000
0001
0000
0000
0000
0000
0000
0000
0000
0000
0000
0000
1000
0000
0000
0000
0000
1000
0000
0000
0000
0000
0000
0000
0000
0000
0000
0000
0001
0000
0000
0000
0000
0301
0000
0000
0000
0000
0000
,
0020
0000
0000
0000
0000
0100
0000
0000
0000
0000
0100
0000
0000
0000
0000
0000
0000
0000
0000
0000
0000
0001
0000
0000
0000
0000
0001
0000
0000
0000
0000
0000
0000
0000
0000
0000
0000
1000
0000
0000
0000
0000
1000
0000
0000
0000
0000
0000
0000
0000
0000
0000
0000
0001
0000
0000
0000
0000
0031
0000
0000
0000
0000
0000
,
0200
0000
0000
0000
0000
0010
0000
0000
0000
0000
0010
0000
0000
0000
0000
0000
0000
0000
0000
0000
0000
1000
0000
0000
0000
0000
1000
0000
0000
0000
0000
0000
0000
0000
0000
0000
0000
0010
0000
0000
0000
0000
0010
0000
0000
0000
0000
0000
0000
0000
0000
0000
0000
0001
0000
0000
0000
0000
0301
0000
0000
0000
0000
0000
,
1000
0000
0000
0000
0000
0001
0000
0000
0000
0000
1000
0000
0000
0000
0000
0000
0001
0000
0000
0000
0000
1000
0000
0000
0000
0000
0001
0000
0000
0000
0000
0000
1000
0000
0000
0000
0000
0001
0000
0000
0000
0000
1000
0000
0000
0000
0000
0000
0001
0000
0000
0000
0000
1000
0000
0000
0000
0000
0001
0000
0000
0000
0000
0000
,
0010
0001
0000
0001
0000
0001
1000
0000
0010
0000
0010
0000
1001
0000
0000
0000
,
1001
0000
0000
0000
1000
0100
0010
0001
1000
0000
0000
0000
1010
0000
0000
0000
,
0001
0100
0000
0101
0000
0000
0011
0000
0000
0000
0010
0000
1000
0000
0010
0000
,
0001
0000
0100
0010
0000
0100
0001
0000
0001
0000
0001
0000
0001
0010
0000
0100
,
0000
0010
0100
0000
0001
0000
0000
0000
0100
1000
0010
0100
0001
0000
0000
0000
,
1001
0000
0000
0000
0010
1000
0000
1010
0000
0000
0011
0000
0000
0000
0100
0000
,
1000
0000
0010
0000
0001
0010
1000
0001
0000
0010
0100
1000
0000
0001
0100
1000
,
0100
1000
0100
1000
0100
1000
0100
1000
0100
1000
0100
0000
0010
0000
0000
0000
,
0110
0000
0000
0000
1000
0001
0010
0100
1000
0000
0000
0000
1100
0000
0000
0000
,
0100
0010
0000
1001
0000
0000
0101
0000
0000
0000
0010
0000
1000
0000
0010
0000
,
0100
0000
0001
0100
0000
0001
0010
0000
0010
0000
0010
0000
0010
0100
0000
1000
,
0000
0001
1000
0000
0010
0000
0000
0000
0100
0001
0100
0010
1000
0000
0000
0000
,
1010
0000
0000
0000
0001
0010
0000
0110
0000
0000
1100
0000
0000
0000
1000
0000
,
0100
0000
0010
0000
1000
0010
0100
0010
0000
0001
0010
0100
0000
1000
0100
0001
,
0100
0001
0100
0001
0100
0001
0100
0001
0100
0001
0100
0001
0100
0000
0000
0000
,
0110
0000
0000
0001
1000
0000
0010
0000
0101
0000
0000
0100
0000
0010
1000
0000
,
0001
0010
0000
0010
0001
0000
0000
0100
0000
0010
1000
0000
0001
0100
0000
0100
,
0020
0000
0000
0000
0000
0000
0000
0000
0000
0000
0000
0000
1000
0030
0000
0000
0000
0000
0000
0000
0001
0000
0000
0000
0010
0000
0000
0000
0100
0000
0000
0000
1000
0000
0000
0000
0002
0000
0000
0000
0000
0000
0000
0000
0000
0000
0000
0000
0000
0000
0000
0000
0000
0000
0000
0000
0000
0000
0000
0000
0000
0000
0000
0000
,
0000
0000
0203
0000
0000
0000
0000
0310
1000
0001
0000
0010
0000
0100
0010
0100
,
1000
0100
0010
0001
1000
0001
0200
0000
0000
0000
0000
0000
0000
0000
0000
0000
,
0301
0010
0100
1000
0001
1000
0100
0010
0001
0010
0100
1000
0001
1000
0100
0010
,
0001
0200
0000
0000
0000
0000
0310
1000
0001
0100
0010
1000
0010
0100
0001
0010
,
0100
1000
0010
1000
0100
0010
0001
0100
0020
0000
0000
0000
0000
0000
0030
0000
,
1000
0000
0001
0100
0001
0100
0010
0000
1000
0100
1000
0100
0010
0000
0001
1000
,
0001
1000
0010
0000
0100
0010
0100
0010
0001
0000
0010
1000
0010
1000
0001
0000
,
0010
0100
0010
0100
0001
0000
0100
1000
0100
1000
0002
0000
0000
0000
0000
0000
,
0013
0100
1000
0100
0010
0001
0100
0010
1000
0001
0100
0001
0010
0000
0010
0100
,
1000
0001
0100
0000
0100
0010
1000
0001
0010
0100
1000
0001
0010
0100
0010
0001
,
1000
0020
0000
0030
0200
0000
0000
0000
0000
0000
0302
0000
0000
0000
0000
0000
,
0013
0000
0100
1000
0100
0010
0001
0000
1001
0000
1010
0000
0101
0000
0010
1000
,
0010
0100
0001
0000
1001
0000
0011
0000
1100
0000
0010
0001
0010
0100
1000
0000
,
1001
0000
1001
0000
0001
0100
0010
1000
0010
0100
0001
0010
0100
1000
0100
0010
,
0001
0000
0000
0000
0101
0000
0000
0000
0010
1000
0010
1000
0010
0000
0000
1010
,
0000
0000
0011
0000
0000
0110
0000
0000
1100
0000
0000
0000
0011
0000
0000
0000
,
0001
1000
0001
1000
0001
0000
0100
0000
0010
0000
0001
0000
0010
0000
1000
0000
,
1001
0000
0000
0000
0011
0000
0000
0000
0100
1000
0100
1000
0100
0000
0010
0000
,
0001
0000
0000
0000
0000
0000
0000
0000
0100
0000
0000
0000
0000
0000
0000
0000
0010
0000
0000
0000
0000
0000
0000
0000
1000
0000
0000
0000
0000
0000
0000
0000
0001
0000
0000
0000
0000
0100
0000
0000
0000
0000
0001
0000
0000
0000
0000
0000
1000
0000
0000
0000
0000
0010
0000
0000
0000
0000
1000
0000
0000
0000
0000
0000
,
0001
0000
0000
0000
0000
0100
0000
0000
0000
0000
0001
0000
0000
0000
0000
0000
1000
0000
0000
0000
0000
0100
0000
0000
0000
0000
1000
0000
0000
0000
0000
0000
0001
0000
0000
0000
0000
0010
0000
0000
0000
0000
0001
0000
0000
0000
0000
0000
1000
0000
0000
0000
0000
0010
0000
0000
0000
0000
0100
0000
0000
0000
0000
0000
,
0001
0000
0000
0000
0000
0100
0000
0000
0000
0000
0010
0000
0000
0000
0000
0000
1000
0000
0000
0000
0000
0100
0000
0000
0000
0000
0010
0000
0000
0000
0000
0000
0001
0000
0000
0000
0000
0010
0000
0000
0000
0000
0100
0000
0000
0000
0000
0000
1000
0000
0000
0000
0000
0001
0000
0000
0000
0000
1000
0000
0000
0000
0000
0000
,
0010
0000
0000
0000
0000
0100
0000
0000
0000
0000
0010
0000
0000
0000
0000
0000
1000
0000
0000
0000
0000
0001
0000
0000
0000
0000
1000
0000
0000
0000
0000
0000
0200
0000
0000
0000
0000
0000
0000
0000
0000
0000
0000
0000
0000
0000
0000
0000
0000
0000
0000
0000
0000
0000
0000
0000
0000
0000
0000
0000
0000
0000
0000
0000
,
0000
0000
0000
0300
0000
0000
0000
0000
,
1000
0010
0100
0001
1000
0000
0000
0000
0000
0000
0000
0000
0001
0010
0000
0010
,
0000
0010
0100
0000
1000
0000
1000
0000
1001
0000
0000
0000
1001
0000
0000
0000
,
0001
0010
0100
1000
0001
0000
0000
0000
0011
0000
0000
0000
1000
0100
0000
1100
,
0000
0000
0110
0000
0000
0000
0010
0000
0001
0000
0100
0000
1000
0000
0100
0010
,
0000
0100
0001
0000
0001
0000
0001
0000
0001
1000
0000
0100
0000
1000
0100
0000
,
0010
0000
0000
0000
0001
0100
0010
1000
0001
0000
0000
0000
1001
0000
0000
0000
,
1000
0001
0000
0101
0000
0000
1010
0000
0000
0000
0010
0000
0100
0000
0001
0000
,
0010
0100
1000
0001
0000
0010
0100
1000
0000
0001
0100
0010
0100
0010
0100
0010
,
0100
0010
0100
0010
0100
0010
0100
0010
1000
0000
0000
0000
1010
0000
0100
0001
,
0010
0100
1000
0000
0000
0000
0000
0000
,
0010
0000
0000
0000
0000
0000
0000
0000
0000
0000
0001
0000
0000
0000
0000
0000
0000
0000
0000
0000
0000
0010
0000
0000
0000
0000
0000
0000
0000
0000
0000
0000
0100
0000
0000
0000
0000
0000
0000
0000
0000
0000
0001
0000
0000
0000
0000
0000
0000
0000
0000
0000
0000
0100
0000
0000
0000
0000
0000
0000
0000
0000
0000
0000
,
1000
0000
0000
0000
0000
0100
0000
0000
0000
0000
0000
0000
0001
0000
0000
0000
0000
0000
0000
0000
0000
0000
0000
0000
0010
0000
0000
0000
0000
0000
0000
0000
,
0000
0000
0000
1000
0001
0000
0000
1001
;
#NOTES:
     dance-double:
     :
     Beginner:
     2:
     :
00000000
00000000
00000000
00000000
,
00001001
00000000
00000000
00000000
,
00001000
00000000
00000000
00000000
,
00011000
00000000
00000000
00000000
,
00010000
00000000
00000000
00000000
,
20020000
00000000
00000000
30030000
,
00000000
00000000
00000000
00000000
,
00000000
00000000
10000000
10000000
,
00000000
00000000
00000000
00000000
,
01000000
00000000
00000000
00100000
,
00000000
00000000
00000000
00001000
,
00001000
00000000
00000000
00000000
,
00000000
00020000
00000000
00000000
,
00030000
00000000
00000000
00010000
,
00010000
00000000
00000100
00000100
,
00000000
00000000
00000000
00000000
,
00000010
00000000
00000000
00000001
,
00000000
00000000
00000000
00000100
,
00000100
00000000
00000000
00000000
,
00000000
00000020
00000000
00000000
,
00000030
00000000
00000000
00000010
,
00000010
00000000
00010000
00000000
,
00000000
00001000
00000000
00000000
,
00100000
00000000
00000000
00010000
,
00000000
00000000
10000000
00000000
,
00000000
01000000
00000000
00000000
,
00010000
00000000
00000000
00001000
,
00000000
00000000
00010000
00000000
,
00000000
00000010
00000000
00000000
,
00000110
00000000
00000000
00000100
,
00000000
00000000
00001001
00000000
,
00000000
00000001
00000000
00000000
,
00000110
00000000
00000000
00000010
,
00000000
00000000
00010000
00000000
,
00000000
00001000
00000000
00000000
,
00011000
00000000
00000000
00100000
,
00000000
00000000
00010000
00000000
,
00000000
01000000
00000000
00000000
,
01100000
00000000
00000000
10000000
,
00000000
00000000
01000000
00000000
,
00000000
00100000
00000000
00000000
,
00001000
00000000
00000000
00010000
,
00000000
00000000
00000100
00000000
,
00001000
00000000
00000010
00000000
,
00000100
00000000
00000001
00000000
,
00000010
00000000
00000200
00000000
,
00000000
00000300
00000000
00000000
,
00000000
00000000
00000000
00010000
,
00000000
00000000
00001000
00001000
,
00000000
01000000
01000000
00000000
,
00000000
00000000
00000000
00100000
,
00000000
00000000
10000000
00000000
,
00000000
00000000
01000000
01000000
,
00000000
00000000
00000000
00000000
,
00200000
00000000
00000000
00300000
,
00000000
00000000
00100000
00100000
,
00001000
00011000
00000000
00000000
,
00010000
00000000
00000010
00000000
,
00000100
00000000
00000000
00000002
,
00000000
00000000
00000003
00000000
;
#NOTES:
     dance-double:
     :
     Easy:
     4:
     :
00000000
00000000
00000000
00000000
,
10010000
00000000
00000000
00000000
,
01100000
00000000
00000000
00000000
,
00011000
00000000
00000000
00000000
,
00000110
00000000
00000000
00000000
,
00001001
00000001
00000001
00000001
,
00001000
00001000
00000010
00000100
,
00000001
00001000
00001001
00000001
,
00000100
00000010
00000000
00010000
,
00001000
00000000
00000000
00100000
,
00000000
00000000
00010000
10010000
,
10000000
01000000
00010000
00000000
,
00001000
00000100
00000000
00000000
,
00000010
00000000
00000000
00000100
,
00000001
00000100
00000110
00000010
,
00010000
00001000
00000000
00100000
,
01000000
00000000
00000000
10000000
,
00000000
00000000
00100000
01100000
,
01000000
00001000
00010000
00000000
,
00000010
00000100
00000000
00000000
,
00000001
00000000
00000000
00000010
,
00000010
00000100
00001001
00000000
,
00000000
00001000
00000000
00000000
,
00000100
00000000
00000000
00010000
,
00000000
00000000
00001000
00000000
,
00000000
01000000
00000000
00000000
,
00100000
00000000
00000000
10000000
,
00000000
00000000
01000000
00000000
,
00000000
00100000
00000000
00000000
,
00001000
00000000
00000000
00010000
,
00000000
00000000
00000100
00000000
,
00000000
00000010
00000000
00000000
,
00000001
00000000
00000000
00000100
,
00000000
00000000
00001000
00000000
,
00000000
00010000
00000000
00000000
,
00100000
00000000
10000000
00010000
,
00000000
00100000
00001000
00000000
,
00000000
00010000
00000000
00000000
,
00011000
00000000
00000000
00010000
,
00000000
00000000
00000010
00000000
,
00000000
00001000
00000000
00000000
,
00000001
00000000
00000000
00000010
,
00000000
00000000
00000100
00000000
,
00010000
00010000
00001000
00001000
,
01000000
01000000
00010000
00010000
,
00100000
00100000
02000000
00000000
,
00000000
00000000
03000000
00000000
,
00000000
00000000
00000000
10000000
,
10000000
00100000
00100000
01000000
,
00010000
10010000
10000000
01000000
,
00010000
00000000
00001000
00010000
,
00000000
00000000
00001000
00000000
,
00000000
00000100
00000110
00000010
,
00001000
00000001
00000000
00000010
,
00000200
00000000
00000000
00000300
,
00000000
00000000
00010000
00001000
,
00010000
00011000
00000000
00000000
,
00001000
00000000
00100000
00000000
,
00010000
00000000
00000000
10000000
;
#NOTES:
     dance-double:
     :
     Medium:
     8:
     :
00000000
00000000
00000000
00000000
,
20010000
00100000
01000000
30010000
,
02010000
00100000
00001000
03010000
,
00210000
01000000
00001000
00310000
,
00021000
00000100
00000010
00000100
,
00031000
00000000
00000000
00000000
00000000
00010000
00000000
00000000
00000000
00000000
00001000
00000000
00000000
00000000
00000000
00000000
00010000
00000000
00000000
00000000
00000000
00001000
00000000
00000000
00000000
00000000
00010000
00000000
00000000
00000000
00000000
00000000
00001000
00000000
00000000
00000000
00000000
00010000
00000000
00000000
00000000
00000000
00001000
00000000
00000000
00000000
00000000
00000000
00010000
00000000
00000000
00000000
00000000
00001000
00000000
00000000
00000000
00000000
00010000
00000000
00000000
00000000
00000000
00000000
,
00001000
00000000
00000000
00010000
00000000
00000000
00000100
00000000
00001000
00000000
00000100
00000000
00000010
00000000
00000000
00000000
,
00000110
00000000
00000001
00000010
00000100
00000000
00001001
00000000
,
00000100
00000000
00000000
00000010
00000000
00000000
00010000
00000000
00000000
00000000
00001000
00000000
00100000
00000000
00010000
00000000
,
00100000
00000000
00000000
01000000
00000000
00000000
10000000
00000000
00010000
00000000
10000000
00000000
00100000
00000000
00000000
01000000
,
00000000
00001000
00010000
00000000
00001000
00000100
00000010
00000000
,
00001010
00000000
00000000
00000000
00001000
00000000
00000000
00000001
00000000
00000000
00000010
00000000
00000000
00000000
00000100
00000000
,
00000010
00000000
00001000
00000000
00010000
00000000
00000000
00001000
00000000
00000000
00000000
01000000
00000000
00000000
00000000
00200000
,
00000000
00000000
00000000
10300000
,
10010000
00000000
10000000
01000000
00010000
00000000
01010000
00000000
,
00010000
00000000
00000000
00001000
00000000
00000000
00010000
00000000
00000000
00000000
00001000
00000000
00000100
00000000
00000010
00000000
,
00001000
00000000
00000000
00000001
00000000
00000000
00000010
00000000
00000100
00000000
00010000
00000000
00001000
00000000
00000000
01000000
,
00000000
00100000
00010000
00000000
00100000
10000000
00010000
00000000
,
00110000
00000000
00000000
00000000
01000000
00000000
00000000
10000000
00000000
00000000
00100000
00000000
00000000
00000000
01000000
00000000
,
00001000
00000000
00010000
00000000
00001000
00000000
00000000
00000100
00000000
00000000
00000000
00000010
00000000
00000000
00000000
00000200
,
00000000
00000000
00000000
00000301
,
00001001
00000000
00000010
00010000
00002000
00000000
00000000
00000000
,
00000000
00023000
00000000
00000000
,
00031000
00000000
00100000
00010000
00000000
00100000
00100000
00000000
,
01000000
10000000
00100000
01000000
00001000
00000000
00010000
00000100
,
00000000
00001000
00001000
00000000
00000010
00000100
00000001
00001000
,
00000100
00000000
00000100
00010000
00000000
00010000
00001000
00000000
,
00001000
01000000
00000000
01000000
00100000
10000000
00100000
01000000
,
00000000
00010000
00100000
01000000
10000000
00100000
01000000
00001000
,
00010000
00001000
00100000
00100000
01000000
00010000
00010000
00001000
,
00000100
00000100
00000010
00001000
00001000
00000001
00000010
00000010
,
00000100
00000000
00010000
00000000
00010000
00000000
00001000
00000000
01000000
00000000
01000000
00000000
00000000
00100000
00000000
00000000
,
10000000
00000000
00000000
00100000
00000000
00000000
00010000
00000000
00000000
00001000
00000000
00000000
00000010
00000000
00000000
00000001
,
00000000
00000000
00000100
00000000
00000000
00001000
00000000
00000000
00011000
00000000
00000000
00010000
00000000
00000000
01010000
00000000
,
00000000
01000000
00000000
00000000
11000000
00000000
00000000
10000000
00000000
00000000
10010000
00000000
00000000
00010000
00000000
00000000
,
01010000
01000000
00001000
00010000
00000100
00000100
00000010
00000001
,
00000010
00000100
00010000
00010000
00001000
00100000
00010000
01000000
,
00100000
00100000
10000000
01000000
00100000
00001000
00010000
00001000
,
00010000
00000000
00000000
00000000
00011000
00000000
00000000
00000000
00010000
00000000
00000010
00000000
00001000
00000000
00000000
00000100
,
00000000
00000000
00000010
00000000
00000000
00001000
00000000
00000000
00000010
00000000
00000000
00000000
00000110
00000000
00000000
00000000
,
00000100
00001000
00000001
00000100
00000010
00000100
00001000
00010000
,
00001000
00000000
00011000
00000000
00001000
00100000
00010000
00100000
,
01000000
00000000
00000000
00000000
00000000
00000000
00000000
00000000
10000000
00000000
00000000
00000000
00000000
00000000
00000000
00000000
00100000
00000000
00000000
00000000
00000000
00000000
00000000
00000000
01000000
00000000
00000000
00000000
00000000
00000000
00000000
00000000
00010000
00000000
00000000
00000000
00000000
10000000
00000000
00000000
00000000
00000000
00010000
00000000
00000000
00000000
00000000
00000000
10000000
00000000
00000000
00000000
00000000
00010000
00000000
00000000
00000000
00000000
10000000
00000000
00000000
00000000
00000000
00000000
,
00010000
00000000
00000000
00000000
00000000
10000000
00000000
00000000
00000000
00000000
00010000
00000000
00000000
00000000
00000000
00000000
01000000
00000000
00000000
00000000
00000000
00100000
00000000
00000000
00000000
00000000
01000000
00000000
00000000
00000000
00000000
00000000
00010000
00000000
00000000
00000000
00000000
01000000
00000000
00000000
00000000
00000000
00010000
00000000
00000000
00000000
00000000
00000000
00100000
00000000
00000000
00000000
00000000
00001000
00000000
00000000
00000000
00000000
00100000
00000000
00000000
00000000
00000000
00000000
,
00001000
00000000
00000000
00000000
00000000
00010000
00000000
00000000
00000000
00000000
00001000
00000000
00000000
00000000
00000000
00000000
00010000
00000000
00000000
00000000
00000000
00000010
00000000
00000000
00000000
00000000
00010000
00000000
00000000
00000000
00000000
00000000
00000010
00000000
00000000
00000000
00000000
00001000
00000000
00000000
00000000
00000000
00000010
00000000
00000000
00000000
00000000
00000000
00001000
00000000
00000000
00000000
00000000
00000001
00000000
00000000
00000000
00000000
00001000
00000000
00000000
00000000
00000000
00000000
,
00000001
00000000
00000000
00000000
00000000
00000010
00000000
00000000
00000000
00000000
00000100
00000000
00000000
00000000
00000000
00000000
00001000
00000000
00000000
00000000
00000000
00000100
00000000
00000000
00000000
00000000
00000010
00000000
00000000
00000000
00000000
00000000
00000002
00000000
00000000
00000000
00000000
00000000
00000000
00000000
00000000
00000000
00000000
00000000
00000000
00000000
00000000
00000000
00000000
00000000
00000000
00000000
00000000
00000000
00000000
00000000
00000000
00000000
00000000
00000000
00000000
00000000
00000000
00000000
,
00000000
00000000
00000003
00000000
,
00000100
00000000
00000010
00000000
00010000
00000000
00000000
00000000
00000000
00000000
00000000
00000000
00001000
00000000
00000000
00010000
,
00000000
00100000
10000000
00010000
10000000
00000000
10010000
00000000
,
10000000
00000000
01000000
00000000
00100000
00000000
00000000
00000000
00110000
00000000
00000000
00000000
00010000
00000000
00000000
00100000
,
00000000
00000000
00001000
00000000
00000000
00000000
00010000
00000000
00000100
00000000
00001000
00000000
00000010
00000000
00000000
00000100
,
00000000
00000000
00001000
00000000
00000100
00000000
00000001
00000000
00000010
00000000
00000000
00000100
00000000
00000000
00010000
00000000
,
00001000
00000000
00100000
00010000
01000000
00000000
01010000
00000000
,
00100000
00000000
00000000
10000000
00000000
00000000
01000000
00000000
00000000
00000000
00100000
00000000
01000000
00000000
00010000
00000000
,
00001000
00000000
00000000
00010000
00000000
00000000
00000000
00000100
00000000
00000000
00000000
00000020
00000000
00000000
00000000
00000000
,
00000000
00000000
00000031
00000101
,
00000010
00001000
00001001
00000000
00000000
00000000
00000000
00000000
,
00000010
00000000
00000000
00000000
00000000
00000000
00000000
00000000
00000000
00000000
00000100
00000000
00000000
00000000
00000000
00000000
00000000
00000000
00000000
00000000
00000000
00000010
00000000
00000000
00000000
00000000
00000000
00000000
00000000
00000000
00000000
00000000
00010000
00000000
00000000
00000000
00000000
00000000
00000000
00000000
00000000
00000000
00000100
00000000
00000000
00000000
00000000
00000000
00000000
00000000
00000000
00000000
00000000
00010000
00000000
00000000
00000000
00000000
00000000
00000000
00000000
00000000
00000000
00000000
,
00001000
00000000
00000000
00000000
00000000
00100000
00000000
00000000
00000000
00000000
00000000
00000000
01000000
00000000
00000000
00000000
00000000
00000000
00000000
00000000
00000000
00000000
00000000
00000000
10000000
00000000
00000000
00000000
00000000
00000000
00000000
00000000
,
00000000
00000000
00000000
00000000
00000000
00000000
00000000
00010000
;
#NOTES:
     dance-double:
     :
     Hard:
     9:
     :
00000000
00000000
00000000
00000000
,
00000001
00000000
00000000
00000000
00000000
00000100
00000000
00000000
00000000
00000000
00000010
00000000
00000000
00000000
00000000
00000000
00000000
00000000
00000000
00000000
00000000
00010000
00000000
00000000
00000000
00000000
00001000
00000000
00000000
00000000
00000000
00000000
00000000
00000000
00000000
00000000
00000000
00100000
00000000
00000000
00000000
00000000
00010000
00000000
00000000
00000000
00000000
00000000
00000000
00000000
00000000
00000000
00000000
01000000
00000000
00000000
00000000
00100000
00000000
00000000
00000000
00000000
00000000
00000000
,
10000000
00000000
00000000
00000000
00000000
01000000
00000000
00000000
00000000
00000000
00100000
00000000
00000000
00000000
00000000
00000000
00000000
00000000
00000000
00000000
00000000
00001000
00000000
00000000
00000000
00000000
00010000
00000000
00000000
00000000
00000000
00000000
00000000
00000000
00000000
00000000
00000000
00000100
00000000
00000000
00000000
00000000
00001000
00000000
00000000
00000000
00000000
00000000
00000000
00000000
00000000
00000000
00000000
00000010
00000000
00000000
00000000
00000000
00001000
00000000
00000000
00000000
00000000
00000000
,
00000001
00000000
00000000
00000000
00000000
00000010
00000000
00000000
00000000
00000000
00000100
00000000
00000000
00000000
00000000
00000000
00000000
00000000
00000000
00000000
00000000
00010000
00000000
00000000
00000000
00000000
00001000
00000000
00000000
00000000
00000000
00000000
00000000
00000000
00000000
00000000
00000000
00100000
00000000
00000000
00000000
00000000
00010000
00000000
00000000
00000000
00000000
00000000
00000000
00000000
00000000
00000000
00000000
01000000
00000000
00000000
00000000
00000000
00100000
00000000
00000000
00000000
00000000
00000000
,
10000000
00000000
00000000
00000000
00000000
00010000
00000000
00000000
00000000
00000000
00100000
00000000
00000000
00000000
00000000
00000000
00000000
00000000
00000000
00000000
00000000
00001000
00000000
00000000
00000000
00000000
00010000
00000000
00000000
00000000
00000000
00000000
00000000
00000000
00000000
00000000
00000000
00000100
00000000
00000000
00000000
00000000
00001000
00000000
00000000
00000000
00000000
00000000
00000000
00000000
00000000
00000000
00000000
00000010
00000000
00000000
00000000
00000000
00000100
00000000
00000000
00000000
00000000
00000000
,
00000001
00000000
00000000
00000000
00000000
00001000
00000000
00000000
00000000
00000000
00000001
00000000
00000000
00000000
00000000
00000000
00001000
00000000
00000000
00000000
00000000
00000001
00000000
00000000
00000000
00000000
00001000
00000000
00000000
00000000
00000000
00000000
00000001
00000000
00000000
00000000
00000000
00001000
00000000
00000000
00000000
00000000
00000001
00000000
00000000
00000000
00000000
00000000
00001000
00000000
00000000
00000000
00000000
00000001
00000000
00000000
00000000
00000000
00001000
00000000
00000000
00000000
00000000
00000000
,
00000010
00010000
00000000
00001000
00000000
00100000
00010000
00000000
01000000
00000000
01000000
00000000
01010000
00000000
00000000
00000000
,
01010000
00000000
00000000
00100000
10000000
00000000
01000000
00000000
10010000
00000000
00000000
00000000
10010000
00000000
00000000
00000000
,
10000000
01000000
00000000
00010000
00000000
00000000
00010000
00000000
00000000
00000000
00001000
00000000
00100000
00000000
00001000
00000000
,
00000100
00000000
00000010
00001000
00000000
00000001
00000010
00000000
00000100
00000000
00000010
00000000
00000001
00000100
00000000
00001000
,
00000000
00010000
00001000
00000000
00100000
00000000
00000000
00000000
00010000
00000000
10000000
00000000
11000000
00000000
00000000
00000000
,
11000000
00000000
00000000
00000000
00100000
01000000
00000000
00010000
00000000
00000000
00010000
00000000
00000000
00000000
00100000
00000000
,
01000000
00000000
00001000
00000000
00010000
00000100
00010000
00000100
00000000
00001000
00000100
00001000
00000000
00000010
00000100
00000020
,
00000000
00000000
00000000
00000000
00000000
00000030
00000110
00000000
,
00000110
00000000
00000000
00000001
00000010
00000000
00000100
00000000
00001001
00000000
00000000
00000000
00001001
00000000
00000000
00000000
,
00000010
00010000
00000000
00001000
00000000
00000000
00001000
00000000
00000000
00000000
00100000
00000000
00010000
00000000
10000000
00000000
,
01000000
00000000
00010000
01000000
00000000
00010000
00001000
00000000
00010000
00000000
00001000
00000000
00010000
00000010
00000000
00000100
,
00000000
00001000
00000100
00000000
00000001
00000000
00000000
00000000
00000100
00000000
00000010
00000000
00010010
00000000
00000000
00000000
,
00010010
00000000
00000000
00000000
00001000
00100000
00000000
00010000
00000000
00000000
00010000
00000000
00000000
00000000
00100000
00000000
,
10000000
00000000
00100000
00000000
00010000
10000000
01000000
10000000
00000000
00010000
00100000
00010000
00000000
00100000
00001000
00020000
,
00000000
00000000
00000000
00031000
,
00011000
00000000
00000000
00010000
00000010
00000000
00000100
00000000
00000201
00000000
00000000
00000000
00000000
00000000
00000000
00000000
,
00000000
00000320
00000000
00000000
,
00001030
00000000
00000000
00000100
00000000
00010000
00001000
00000000
01000000
00000000
00010000
00000000
00100000
00000000
00010000
00000000
,
00100000
10000000
00100000
00000000
00010000
00000000
00100000
00001000
00100000
00000000
00001000
00000000
00010000
00000000
00000100
00000000
,
00001000
00000010
00000000
00000100
00000001
00000000
00001000
00000000
00000001
00000010
00000001
00000000
00000010
00000000
00000100
00010000
,
00000100
00000000
00010000
00001000
00010000
00000000
00001000
00000000
01000000
00010000
01000000
00000000
00100000
00000000
10000000
00010000
,
10000000
00000000
01000000
00000000
00100000
00010000
00100000
00000000
00001000
00000000
00100000
00001000
00010000
00001000
00100000
00000000
,
00001000
00010000
00000100
00010000
00000010
00000000
00000100
00000010
00001000
00000010
00000100
00000000
00000001
00001000
00000100
00001000
,
00000010
00000000
00000100
00000001
00000100
00000001
00000100
00000000
00000010
00001000
00000010
00001000
00000010
00000000
00010000
00001000
,
00010000
00001000
00010000
00000000
00001000
00100000
00001000
00100000
00001000
00000000
01000000
00010000
01000000
00010000
01000000
00000000
,
00100000
10000000
00100000
10000000
00100000
00000000
10000000
01000000
10000000
01000000
00100000
00000000
00000000
00010000
00000000
00000000
,
00110000
00000000
00000000
00100000
00000000
00000000
00101000
00000000
00000000
00001000
00000000
00000000
00011000
00000000
00000000
00010000
,
00000000
00000000
00010100
00000000
00000000
00000100
00000000
00000000
00001100
00000000
00000000
00001000
00000000
00000000
00001010
00000000
,
00000000
00001001
00000000
00000000
00000101
00000000
00000000
00000011
00000000
00000000
00001100
00000000
00000000
00010100
00000000
00000000
,
00011000
00000000
00010000
00001000
00010000
00001000
00010000
00000000
00001000
00000000
01000000
00000000
00010000
00000000
00100000
01000000
,
00100000
01000000
00100000
00000000
10000000
00000000
00100000
00000000
00010000
00000000
01000000
00100000
01000000
00010000
01000000
00000000
,
00001000
00000000
00001000
00000000
00010000
00000100
00010000
00000100
00010000
00000100
00001000
00000100
00000010
00000001
00001000
00000010
,
00000100
00000000
00000000
00000000
00001001
00000000
00000000
00000000
00000010
00001000
00000010
00000000
00000100
00000000
00000000
00000101
,
00000000
00000000
00000011
00000000
00000000
00000110
00000000
00000000
00010100
00000000
00000000
00000000
00011000
00000000
00000000
00000000
,
00100000
00010000
00100000
00000000
00010000
00000000
01000000
00000000
00100000
00000000
00010000
00000000
00100000
00000000
10000000
00000000
,
10100000
00000000
00000000
00000000
11000000
00000000
00000000
00000000
01000000
00100000
01000000
00000000
00010000
00000000
00001000
00000000
,
00010000
00000000
00000000
00000000
00000000
00000000
00000000
00000000
00001000
00000000
00000000
00000000
00000000
00000000
00000000
00000000
00000010
00000000
00000000
00000000
00000000
00000000
00000000
00000000
00000001
00000000
00000000
00000000
00000000
00000000
00000000
00000000
00001000
00000000
00000000
00000000
00000000
00000010
00000000
00000000
00000000
00000000
00000100
00000000
00000000
00000000
00000000
00000000
00000001
00000000
00000000
00000000
00000000
00000100
00000000
00000000
00000000
00000000
00000010
00000000
00000000
00000000
00000000
00000000
,
00001000
00000000
00000000
00000000
00000000
00000010
00000000
00000000
00000000
00000000
00000100
00000000
00000000
00000000
00000000
00000000
00000001
00000000
00000000
00000000
00000000
00000010
00000000
00000000
00000000
00000000
00000100
00000000
00000000
00000000
00000000
00000000
00010000
00000000
00000000
00000000
00000000
00000100
00000000
00000000
00000000
00000000
00000010
00000000
00000000
00000000
00000000
00000000
00000100
00000000
00000000
00000000
00000000
00010000
00000000
00000000
00000000
00000000
00001000
00000000
00000000
00000000
00000000
00000000
,
00100000
00000000
00000000
00000000
00000000
00001000
00000000
00000000
00000000
00000000
00010000
00000000
00000000
00000000
00000000
00000000
01000000
00000000
00000000
00000000
00000000
00100000
00000000
00000000
00000000
00000000
00010000
00000000
00000000
00000000
00000000
00000000
10000000
00000000
00000000
00000000
00000000
00010000
00000000
00000000
00000000
00000000
00100000
00000000
00000000
00000000
00000000
00000000
01000000
00000000
00000000
00000000
00000000
10000000
00000000
00000000
00000000
00000000
00010000
00000000
00000000
00000000
00000000
00000000
,
10000000
00000000
00000000
00000000
00000000
01000000
00000000
00000000
00000000
00000000
00100000
00000000
00000000
00000000
00000000
00000000
00010000
00000000
00000000
00000000
00000000
00100000
00000000
00000000
00000000
00000000
01000000
00000000
00000000
00000000
00000000
00000000
20000000
00000000
00000000
00000000
00000000
00000000
00000000
00000000
00000000
00000000
00000000
00000000
00000000
00000000
00000000
00000000
00000000
00000000
00000000
00000000
00000000
00000000
00000000
00000000
00000000
00000000
00000000
00000000
00000000
00000000
00000000
00000000
,
00000000
00000000
30000000
00000000
,
00100000
01000000
00001000
00000000
00010000
00000000
00000000
00000000
00000000
00000000
00000000
00000000
00000100
00010000
00000000
00001000
,
00000000
00010000
00000100
00000000
00000010
00000000
00000010
00000000
00000110
00000000
00000000
00000000
00001001
00000000
00000000
00000000
,
00000100
00000000
00010000
00000000
00011000
00000000
00000000
00000000
00011000
00000000
00000000
00000000
00100000
00010000
00000000
10000000
,
00000000
00000000
10000000
00000000
00000000
00000000
00100000
00000000
01000000
00000000
00001000
00000000
00010000
00000000
00000010
00001000
,
00000000
00000010
00000100
00000000
00000001
00000000
00000100
00000000
00000010
00000100
00000000
00001000
00000000
00010000
00001000
00000000
,
00100000
00000000
00010000
00100000
11000000
00000000
11000000
00000000
,
10000000
01000000
00000000
00100000
00000000
00000000
00100000
00000000
00000000
00000000
00010000
00000000
00100000
00000000
01000000
00000000
,
00010000
00001000
00010000
00001000
00000000
00010000
00000100
00010000
00000000
00000100
00001000
00000200
00000000
00000000
00000000
00000000
,
00000000
00000000
00000000
00000000
00000000
00000000
00000000
00000000
00001300
00000000
00000000
00000000
00001001
00000000
00000100
00000010
,
00001000
00000100
00010000
00000000
00000000
00000000
00000000
00000000
,
00001000
00000000
00000000
00000000
00000000
00000000
00000000
00000000
00000000
00000000
00100000
00000000
00000000
00000000
00000000
00000000
00000000
00000000
00000000
00000000
00000000
00001000
00000000
00000000
00000000
00000000
00000000
00000000
00000000
00000000
00000000
00000000
00010000
00000000
00000000
00000000
00000000
00000000
00000000
00000000
00000000
00000000
00000100
00000000
00000000
00000000
00000000
00000000
00000000
00000000
00000000
00000000
00000000
00010000
00000000
00000000
00000000
00000000
00000000
00000000
00000000
00000000
00000000
00000000
,
00000010
00000000
00000000
00000000
00000000
00001000
00000000
00000000
00000000
00000000
00000000
00000000
00000001
00000000
00000000
00000000
00000000
00000000
00000000
00000000
00000000
00000000
00000000
00000000
00000010
00000000
00000000
00000000
00000000
00000000
00000000
00000000
,
00000000
00000000
00000000
00000100
00010000
00000000
00000000
00011000
;
#NOTES:
     dance-double:
     :
     Challenge:
     10:
     :
00000000
00000000
00000000
00000000
,
20000000
00000000
00000000
00000000
00000000
00100000
00000000
00000000
00000000
00000000
00100000
00000000
00000000
00000000
00000000
00000000
00000000
00000000
00000000
00000000
00000000
00010000
00000000
00000000
00000000
00000000
00010000
00000000
00000000
00000000
00000000
00000000
00000000
00000000
00000000
00000000
00000000
01000000
00000000
00000000
00000000
00000000
01000000
00000000
00000000
00000000
00000000
00000000
00000000
00000000
00000000
00000000
00000000
00010000
00000000
00000000
00000000
00000000
30010000
00000000
00000000
00000000
00000000
00000000
,
00200000
00000000
00000000
00000000
00000000
01000000
00000000
00000000
00000000
00000000
01000000
00000000
00000000
00000000
00000000
00000000
00000000
00000000
00000000
00000000
00000000
10000000
00000000
00000000
00000000
00000000
10000000
00000000
00000000
00000000
00000000
00000000
00000000
00000000
00000000
00000000
00000000
00010000
00000000
00000000
00000000
00000000
00010000
00000000
00000000
00000000
00000000
00000000
00000000
00000000
00000000
00000000
00000000
00001000
00000000
00000000
00000000
00000000
00301000
00000000
00000000
00000000
00000000
00000000
,
00020000
00000000
00000000
00000000
00000000
00000100
00000000
00000000
00000000
00000000
00000100
00000000
00000000
00000000
00000000
00000000
00000000
00000000
00000000
00000000
00000000
00001000
00000000
00000000
00000000
00000000
00001000
00000000
00000000
00000000
00000000
00000000
00000000
00000000
00000000
00000000
00000000
00000010
00000000
00000000
00000000
00000000
00000010
00000000
00000000
00000000
00000000
00000000
00000000
00000000
00000000
00000000
00000000
00000100
00000000
00000000
00000000
00000000
00030100
00000000
00000000
00000000
00000000
00000000
,
00002000
00000000
00000000
00000000
00000000
00000010
00000000
00000000
00000000
00000000
00000010
00000000
00000000
00000000
00000000
00000000
00000000
00000000
00000000
00000000
00000000
00000100
00000000
00000000
00000000
00000000
00000100
00000000
00000000
00000000
00000000
00000000
00000000
00000000
00000000
00000000
00000000
00000001
00000000
00000000
00000000
00000000
00000001
00000000
00000000
00000000
00000000
00000000
00000000
00000000
00000000
00000000
00000000
00000010
00000000
00000000
00000000
00000000
00003010
00000000
00000000
00000000
00000000
00000000
,
00001000
00000000
00000000
00000000
00000000
00000001
00000000
00000000
00000000
00000000
00001000
00000000
00000000
00000000
00000000
00000000
00000001
00000000
00000000
00000000
00000000
00001000
00000000
00000000
00000000
00000000
00000001
00000000
00000000
00000000
00000000
00000000
00001000
00000000
00000000
00000000
00000000
00000001
00000000
00000000
00000000
00000000
00001000
00000000
00000000
00000000
00000000
00000000
00000001
00000000
00000000
00000000
00000000
00001000
00000000
00000000
00000000
00000000
00000001
00000000
00000000
00000000
00000000
00000000
,
00000100
00000010
00000000
00000010
00000000
00000010
00001000
00000000
00000100
00000000
00000100
00000000
00010100
00000000
00000000
00000000
,
00010100
00000000
00000000
00000000
00001000
00100000
00010000
10000000
01000000
00000000
00000000
00000000
10010000
00000000
00000000
00000000
,
01000000
00001000
00000000
01001000
00000000
00000000
00011000
00000000
00000000
00000000
00001000
00000000
00100000
00000000
00001000
00000000
,
00000100
00000000
00000010
00001000
00000000
00000001
00000010
00000000
00000010
00000000
00000010
00000000
00000010
00000100
00000000
00010000
,
00000000
00000010
00000100
00000000
00001000
00000000
00000000
00000000
00010000
00100000
01000000
00010000
10000000
00000000
00000000
00000000
,
10010000
00000000
00000000
00000000
00100000
10000000
00000000
11000000
00000000
00000000
00110000
00000000
00000000
00000000
00100000
00000000
,
01000000
00000000
00010000
00000000
00001000
00000100
00000010
00001000
00000000
00000001
00001000
00000010
00000000
00000001
00000010
00000100
,
00000010
00000100
00000010
00000100
00000010
00000100
00000010
00000100
00000010
00000100
00000010
00000000
00000001
00000000
00000000
00000000
,
00000110
00000000
00000000
00000000
00001000
00000001
00000100
00000010
00001000
00000000
00000000
00000000
00001010
00000000
00000000
00000000
,
00000100
00010000
00000000
00011000
00000000
00000000
00101000
00000000
00000000
00000000
00010000
00000000
00100000
00000000
01000000
00000000
,
10000000
00000000
01000000
00010000
00000000
00001000
00010000
00000000
00010000
00000000
00010000
00000000
00010000
00000100
00000000
00001000
,
00000000
00000010
00000100
00000000
00000001
00000000
00000000
00000000
00000100
00000010
00000100
00001000
00010000
00000000
00000000
00000000
,
00101000
00000000
00000000
00000000
00010000
00100000
00000000
01100000
00000000
00000000
11000000
00000000
00000000
00000000
10000000
00000000
,
01000000
00000000
00010000
00000000
00001000
00010000
00001000
00000100
00000000
00000010
00001000
00000001
00000000
00000010
00000100
00000001
,
00000100
00000001
00000100
00000001
00000100
00000001
00000100
00000001
00000100
00000001
00000100
00000001
00000100
00000000
00000000
00000000
,
00000110
00000000
00000000
00000001
00000100
00000000
00000010
00000000
00010010
00000000
00000000
00010000
00000000
00001000
00100000
00000000
,
00010000
01000000
00000000
01000000
00100000
00000000
00000000
10000000
00000000
00010000
00100000
00000000
01000000
10000000
00000000
10000000
,
00200000
00000000
00000000
00000000
00000000
00000000
00000000
00000000
00000000
00000000
00000000
00000000
01000000
00300000
00000000
00000000
00000000
00000000
00000000
00000000
00001000
00000000
00000000
00000000
00100000
00000000
00000000
00000000
01000000
00000000
00000000
00000000
00010000
00000000
00000000
00000000
00002000
00000000
00000000
00000000
00000000
00000000
00000000
00000000
00000000
00000000
00000000
00000000
00000000
00000000
00000000
00000000
00000000
00000000
00000000
00000000
00000000
00000000
00000000
00000000
00000000
00000000
00000000
00000000
,
00000000
00000000
00003020
00000000
00000000
00000000
00000000
00000031
00000010
00000100
00000000
00010000
00000000
00001000
01000000
00100000
,
10000000
00010000
10000000
01000000
00100000
00010000
20000000
00000000
00000000
00000000
00000000
00000000
00000000
00000000
00000000
00000000
,
30100000
01000000
00001000
00010000
00001000
00100000
00010000
00100000
00001000
00010000
00000100
00001000
00000010
00000100
00000010
00001000
,
00000100
00000020
00000000
00000000
00000000
00000000
00000031
00000010
00000100
00010000
00001000
01000000
00100000
00010000
00001000
00100000
,
01000000
10000000
00010000
01000000
00100000
00010000
00001000
00100000
00002000
00000000
00000000
00000000
00000000
00000000
00000000
00000000
,
00013000
00000000
00000100
00001000
00000100
00001000
00000010
00000000
00000100
00000001
00000100
00000001
00000010
00000000
00000100
00010000
,
00000100
00010000
00001000
00000000
01000000
00010000
01000000
00010000
00100000
00000000
01000000
10000000
01000000
10000000
00010000
00000000
,
00100000
00010000
00100000
00010000
01000000
00000000
00100000
00010000
00100000
00010000
00002000
00000000
00000000
00000000
00000000
00000000
,
00013000
00000100
00001000
00000010
00000100
00000001
00000010
00000100
00001000
00000100
00010000
00000010
00001000
00000000
00001000
00000010
,
00000100
00001000
00010000
00000000
00010000
00100000
01000000
10000000
01000000
00010000
10000000
00010000
00100000
01000000
00100000
00010000
,
10000000
02000000
00000000
03000000
00200000
00000000
00000000
00000000
00000000
00000000
00302000
00000000
00000000
00000000
00000000
00000000
,
00013000
00000000
00000010
00001000
00000001
00000100
00000010
00000000
00001010
00000000
00001100
00000000
00010100
00000000
00001000
00100000
,
00010000
10000000
01000000
00000000
00110000
00000000
01010000
00000000
10100000
00000000
10000000
00100000
00010000
00001000
00010000
00000000
,
00011000
00000000
00011000
00000000
00001000
00010000
00000100
00000010
00000100
00001000
00000001
00000100
00001000
00010000
00100000
10000000
,
00010000
00000000
00000000
00000000
10010000
00000000
00000000
00000000
10000000
01000000
10000000
01000000
10000000
00000000
00000000
11000000
,
00000000
00000000
01100000
00000000
00000000
00101000
00000000
00000000
00011000
00000000
00000000
00000000
00010100
00000000
00000000
00000000
,
00001000
00000100
00001000
00000100
00001000
00000000
00000100
00000000
00000001
00000000
00000100
00000000
00010000
00000000
00001000
00000000
,
00011000
00000000
00000000
00000000
00110000
00000000
00000000
00000000
00010000
10000000
00010000
10000000
00010000
00000000
01000000
00000000
,
00100000
00000000
00000000
00000000
00000000
00000000
00000000
00000000
10000000
00000000
00000000
00000000
00000000
00000000
00000000
00000000
01000000
00000000
00000000
00000000
00000000
00000000
00000000
00000000
00010000
00000000
00000000
00000000
00000000
00000000
00000000
00000000
01000000
00000000
00000000
00000000
00000000
10000000
00000000
00000000
00000000
00000000
01000000
00000000
00000000
00000000
00000000
00000000
00100000
00000000
00000000
00000000
00000000
00010000
00000000
00000000
00000000
00000000
00100000
00000000
00000000
00000000
00000000
00000000
,
01000000
00000000
00000000
00000000
00000000
10000000
00000000
00000000
00000000
00000000
01000000
00000000
00000000
00000000
00000000
00000000
00100000
00000000
00000000
00000000
00000000
00010000
00000000
00000000
00000000
00000000
00100000
00000000
00000000
00000000
00000000
00000000
00001000
00000000
00000000
00000000
00000000
00010000
00000000
00000000
00000000
00000000
00001000
00000000
00000000
00000000
00000000
00000000
00010000
00000000
00000000
00000000
00000000
00000100
00000000
00000000
00000000
00000000
00010000
00000000
00000000
00000000
00000000
00000000
,
00000100
00000000
00000000
00000000
00000000
00001000
00000000
00000000
00000000
00000000
00000100
00000000
00000000
00000000
00000000
00000000
00000010
00000000
00000000
00000000
00000000
00000100
00000000
00000000
00000000
00000000
00000010
00000000
00000000
00000000
00000000
00000000
00000001
00000000
00000000
00000000
00000000
00000010
00000000
00000000
00000000
00000000
00000001
00000000
00000000
00000000
00000000
00000000
00001000
00000000
00000000
00000000
00000000
00000010
00000000
00000000
00000000
00000000
00001000
00000000
00000000
00000000
00000000
00000000
,
00000010
00000000
00000000
00000000
00000000
00000100
00000000
00000000
00000000
00000000
00000001
00000000
00000000
00000000
00000000
00000000
00000100
00000000
00000000
00000000
00000000
00001000
00000000
00000000
00000000
00000000
00010000
00000000
00000000
00000000
00000000
00000000
00002000
00000000
00000000
00000000
00000000
00000000
00000000
00000000
00000000
00000000
00000000
00000000
00000000
00000000
00000000
00000000
00000000
00000000
00000000
00000000
00000000
00000000
00000000
00000000
00000000
00000000
00000000
00000000
00000000
00000000
00000000
00000000
,
00000000
00000000
00000000
00003000
00000000
00000000
00000000
00000000
,
00100000
00010000
10000000
01000000
00100000
00000000
00000000
00000000
00000000
00000000
00000000
00000000
00010000
01000000
00000000
01000000
,
00000000
01000000
00100000
00000000
10000000
00000000
10000000
00000000
10010000
00000000
00000000
00000000
10010000
00000000
00000000
00000000
,
00100000
01000000
00001000
00010000
00001000
00000000
00000000
00000000
00011000
00000000
00000000
00000000
00010000
00000100
00000000
00010100
,
00000000
00000000
00001100
00000000
00000000
00000000
00000010
00000000
00000001
00000000
00000100
00000000
00001000
00000000
00000100
00000010
,
00000000
00010000
00001000
00000000
00001000
00000000
00001000
00000000
00001000
00100000
00000000
01000000
00000000
00100000
00010000
00000000
,
10000000
00000000
00000000
00000000
01000000
00010000
00001000
00010000
00000100
00000000
00000000
00000000
00010100
00000000
00000000
00000000
,
00001000
00000010
00000000
00001010
00000000
00000000
00000101
00000000
00000000
00000000
00000001
00000000
00000010
00000000
00000100
00000000
,
00010000
00001000
00100000
00010000
00000000
01000000
00100000
10000000
00000000
00010000
01000000
00100000
01000000
00100000
01000000
00100000
,
01000000
00100000
01000000
00100000
01000000
00100000
01000000
00100000
10000000
00000000
00000000
00000000
10010000
00000000
01000000
00001000
,
00010000
00001000
00010000
00000000
00000000
00000000
00000000
00000000
,
00001000
00000000
00000000
00000000
00000000
00000000
00000000
00000000
00000000
00000000
00000100
00000000
00000000
00000000
00000000
00000000
00000000
00000000
00000000
00000000
00000000
00001000
00000000
00000000
00000000
00000000
00000000
00000000
00000000
00000000
00000000
00000000
00010000
00000000
00000000
00000000
00000000
00000000
00000000
00000000
00000000
00000000
00000100
00000000
00000000
00000000
00000000
00000000
00000000
00000000
00000000
00000000
00000000
00010000
00000000
00000000
00000000
00000000
00000000
00000000
00000000
00000000
00000000
00000000
,
00100000
00000000
00000000
00000000
00000000
01000000
00000000
00000000
00000000
00000000
00000000
00000000
00001000
00000000
00000000
00000000
00000000
00000000
00000000
00000000
00000000
00000000
00000000
00000000
00010000
00000000
00000000
00000000
00000000
00000000
00000000
00000000
,
00000000
00000000
00000000
00000100
00000010
00000000
00000000
00001001
;
