
//----- song ID: come -----
#TITLE:Come Back;
#ARTIST:Gein;
#BANNER:Come Back.png;
#BACKGROUND:Come Back-bg.png;
#CDTITLE:./CDTitles/DDR UNIVERSE3.png;
#MUSIC:Come Back.ogg;
#OFFSET:-0.001;
#SAMPLESTART:28.028;
#SAMPLELENGTH:15;
#BPMS:0=137;
#NOTES:
     dance-single:
     :
     Beginner:
     1:
     :
0000
0000
0000
0000
,
0000
0000
0000
0000
,
0000
0000
0000
0000
,
0000
0000
0000
0000
,
1000
0000
0000
0000
,
0001
0000
0000
0000
,
0010
0000
0000
0000
,
0100
0000
0000
0000
,
1000
0000
0000
0000
,
0001
0000
0000
0000
,
0100
0000
0000
0000
,
0100
0000
0000
0000
,
0010
0000
0000
0000
,
1000
0000
0000
0000
,
0001
0000
0000
0000
,
0000
0000
0000
0000
,
0010
0000
0000
0000
,
0100
0000
0000
0000
,
1000
0000
0000
0000
,
0001
0000
0000
0000
,
0100
0000
0000
0000
,
0010
0000
0000
0000
,
1000
0000
0000
0000
,
1000
0000
0000
0000
,
0001
0000
0000
0000
,
0001
0000
0000
0000
,
0010
0000
0000
0000
,
0010
0000
0000
0000
,
0100
0000
0000
0000
,
1000
0000
0000
0000
,
0001
0000
0000
0000
,
0000
0000
0000
0000
,
0100
0000
0000
0000
,
0010
0000
0000
0000
,
0010
0000
0000
0000
,
0010
0000
0000
0000
,
1000
0000
0000
0000
,
0100
0000
0000
0000
,
0100
0000
0000
0000
,
0100
0000
0000
0000
,
0010
0000
0000
0000
,
0001
0000
0000
0000
,
1000
0000
0000
0000
,
0010
0000
0000
0000
,
0100
0000
0000
0000
,
0001
0000
0000
0000
,
1000
0000
0000
0000
,
0000
0000
0000
0000
,
0001
0000
0000
0000
,
0100
0000
0000
0000
,
1000
0000
0000
0000
,
0010
0000
0000
0000
,
0001
0000
0000
0000
,
0010
0000
0000
0000
,
1000
0000
0000
0000
,
0100
0000
0000
0000
,
0001
0000
0000
0000
,
1000
0000
0000
0000
,
0100
0000
0000
0000
,
0010
0000
0000
0000
,
0001
0000
0000
0000
,
1000
0000
0000
0000
,
0100
0000
0000
0000
,
0010
0000
0000
0000
;
#NOTES:
     dance-single:
     :
     Easy:
     3:
     :
0000
0000
0000
0000
,
0000
0000
0000
0000
,
0000
0000
0000
0000
,
0000
0000
0000
0000
,
1000
0010
0100
0000
,
0001
0010
0100
0000
,
1000
0000
0001
0000
,
1000
0000
0001
0000
,
0010
0100
0010
0000
,
0100
1000
0001
0000
,
0100
0000
0010
0000
,
0100
0000
0010
0000
,
1000
0001
0100
0000
,
0010
1000
0001
0010
,
0100
0000
0100
0100
,
2000
0000
0000
3000
,
0001
0000
0100
0000
,
0010
0000
1000
0001
,
1000
0000
0100
0000
,
0010
0000
0001
0000
,
1000
0000
0010
0000
,
0100
0000
0001
1000
,
0001
0000
0010
0000
,
0100
0000
1000
0000
,
0001
0000
0100
0000
,
1000
0000
0100
0010
,
0100
0000
0001
0000
,
1000
0000
0100
0000
,
0010
0000
0010
0000
,
0001
0000
0001
0000
,
1000
0000
0000
0000
,
0000
0000
0000
0001
,
0100
0000
0010
0000
,
0010
0000
1000
0000
,
0001
0000
0001
0000
,
0010
0000
0010
0000
,
0100
0000
1000
0000
,
0001
0000
0001
0000
,
0100
0000
0010
0000
,
0010
0000
1000
0000
,
0001
0000
0000
0000
,
0010
0000
0100
0000
,
1000
0000
0000
0000
,
0010
0000
1000
0000
,
0001
0000
0000
0000
,
0010
0000
0000
0000
,
0100
0000
0000
0000
,
1000
0000
0000
0001
,
0100
0000
0010
0000
,
1000
0000
1000
0000
,
0001
0000
0010
0000
,
0100
0000
0100
0000
,
0010
0000
0001
0000
,
0001
0000
1000
0000
,
0010
0000
0010
0000
,
0100
0000
0100
0000
,
0001
0000
1000
0000
,
0100
0000
0010
0000
,
0001
0000
0010
0000
,
0100
0000
1000
0001
,
1000
0000
0010
0000
,
0100
0000
0001
0000
,
0100
0000
0010
0000
,
1000
0000
0001
1000
;
#NOTES:
     dance-single:
     :
     Medium:
     5:
     :
0000
0000
0000
0000
,
0000
0000
0000
0000
,
0000
0000
0000
0000
,
0000
0000
0000
0000
,
0001
1000
0010
0000
0100
0000
0001
0010
,
0000
0000
0100
1000
0000
1000
0000
0001
,
0200
0301
0002
1003
,
2000
3100
0200
0310
,
0001
1000
0010
0000
0010
0000
0100
0001
,
0000
0000
0001
1000
0000
1000
0000
0010
,
2000
3100
0200
0310
,
0020
0031
0002
1003
,
0010
1000
0100
0000
0010
0000
0001
1000
,
0000
0000
0001
0100
0000
0100
0000
0010
,
1000
0000
0001
0000
1000
0001
1000
0001
,
0100
0010
0100
0010
0200
0000
0000
0000
,
0302
0000
1003
0000
0100
0010
0100
0000
,
0010
0000
0001
0000
1000
0010
0000
1000
,
0010
0100
0001
1000
,
0100
0010
0001
0010
,
0200
0000
1300
0000
0001
0100
0001
0000
,
1000
0000
0010
0000
0100
0001
0000
1000
,
0001
0010
0100
1000
,
0100
0010
0001
1000
,
0020
0000
1030
0000
0001
1000
0100
0000
,
0010
0000
0001
0000
0010
0100
0000
0100
,
0010
0001
1000
0001
,
0100
1000
0100
0001
,
0020
0000
0130
0000
1000
0001
1000
0000
,
0010
0000
0100
0000
0001
1000
0000
0001
,
0020
0000
0000
0000
,
0000
0000
0000
0130
,
1000
0000
0010
0100
0000
0100
0001
0000
,
1000
0000
0001
1000
0100
0000
0020
0000
,
0031
0000
1000
0100
0000
0100
0010
0000
,
0001
0000
1000
0010
1000
0000
0002
0000
,
0103
0000
0010
1000
0000
0001
0010
0000
,
0100
0000
1000
0100
1000
0000
0002
0000
,
0013
0000
0100
1000
0000
1000
0010
0000
,
0100
0000
0001
1000
0001
0000
1000
0000
,
0100
0010
0100
0000
0010
0000
0001
0000
,
1000
0000
0010
0100
0000
0100
0002
0000
,
1003
0000
0001
1000
0010
0000
0100
0000
,
0001
1000
0000
1000
0001
0000
0200
0000
,
0310
0000
1000
0001
1000
0000
0100
0000
,
0010
0000
0001
0010
0000
0010
0200
0000
,
2300
0000
0000
0000
,
0000
0000
0000
3010
,
0100
0001
0100
0000
0101
0000
0001
0000
,
1000
0001
1000
0000
1001
0000
0001
0000
,
0010
0100
1000
0000
1100
0000
0010
0000
,
0001
1000
0001
0100
,
0010
0000
1000
0001
0100
0000
0001
0000
,
0010
0100
1100
2000
,
3001
0100
0101
0001
,
1000
0100
0010
0001
,
0010
0100
1000
0000
1001
0000
0001
0000
,
0100
0010
1000
0000
1001
0000
0002
0000
,
0013
0000
0100
1000
0001
0000
0100
0000
,
0010
1000
0001
0010
,
0100
0000
1000
0001
0100
0000
0010
0000
,
1000
0010
0110
0200
,
0301
0010
0100
1000
,
0100
0000
0001
0000
0100
0000
1000
0001
;
#NOTES:
     dance-single:
     :
     Hard:
     7:
     :
0000
0000
0000
0000
,
0000
0000
0000
0000
,
0000
0000
0000
0000
,
0000
0000
0000
0000
,
0001
0100
1000
0100
0010
1000
0001
1000
,
0000
0001
0010
0100
0000
1000
0000
0001
,
0200
0010
0001
1300
,
0020
1000
0001
0130
,
1000
0100
0001
0100
0010
0001
1000
0001
,
0000
0100
0010
1000
0000
0001
0000
0100
,
0020
1000
0100
1030
,
0002
0010
0100
1003
,
0001
0010
1000
0010
0100
1000
0001
0100
,
0000
0010
1000
0001
0000
0001
0000
0010
,
0100
0000
0010
0000
0001
1000
0001
1000
,
0001
0010
0100
1000
0002
0000
0000
0000
,
0013
0000
0100
0000
1000
0000
0000
0001
0000
0000
0100
0000
0010
0000
1000
0000
,
0000
1000
0010
0100
0000
0100
0000
0001
,
1000
0000
0000
0100
0000
0000
0010
0000
0000
0000
0001
0000
0000
0000
1000
0000
,
0000
0100
0000
0001
0000
0100
0000
1000
,
0001
0000
0100
0000
0010
0000
0000
1000
0000
0000
0001
0000
0100
0000
0010
0000
,
0000
1000
0100
0001
0000
0100
0000
0010
,
0001
0000
0000
0100
0000
0000
1000
0000
0000
0000
0100
0000
0000
0000
0010
0000
,
0000
0001
0000
0010
0000
1000
0000
0001
,
0100
0000
0010
0000
1000
0000
0000
0100
0000
0000
0010
0000
0001
0000
0010
0000
,
0000
0010
0100
1000
0000
0001
0000
0100
,
0010
0000
0000
1000
0000
0000
0001
0000
0000
0000
1000
0000
0000
0000
0010
0000
,
0000
0100
0000
0001
0000
0010
0000
0100
,
1000
0000
0001
0000
0100
0000
0000
1000
0000
0000
0100
0000
0001
0000
0010
0000
,
0000
0010
0100
1000
0000
0100
0000
0010
,
0001
0000
0000
0001
0000
0000
0100
0000
0000
0000
1000
0000
0000
0000
0100
0000
,
0000
0010
0000
0001
0000
0010
0110
0000
,
1000
0000
0010
0000
0100
0000
0000
0001
0010
0000
0100
0000
1000
0000
0000
1000
,
0100
0000
0000
0000
0010
0000
0000
0001
1000
0000
0010
0000
0200
0000
0000
0000
,
0301
0000
0000
0000
1000
0000
0000
0010
0100
0000
0001
0000
0000
1000
0000
0000
,
0001
0000
0000
0010
0000
0000
0100
0000
0000
1000
0000
0000
0002
0000
0000
0000
,
1003
0000
0000
0000
0001
0000
0000
0010
0100
0000
0100
0000
1000
0000
0001
0000
,
0100
0000
0000
0010
1000
0000
0001
0000
0100
0000
0000
0000
0020
0000
0000
0000
,
0130
0000
0000
0100
1000
0000
0001
0000
0100
0000
0010
0000
0000
0010
0000
0000
,
1000
0000
0000
1000
0000
0000
0001
0000
0000
0001
0000
0000
0020
0000
0000
0000
,
0130
0000
1000
0000
0010
0000
0000
0100
0001
0000
1000
0000
0010
0000
0000
0000
,
1000
0000
0000
1000
0100
0000
0000
0010
0001
0000
0100
0000
0002
0000
0000
0000
,
0013
0000
0000
0010
0100
0000
1000
0000
0001
0000
0100
0000
0000
0001
0000
0000
,
1000
0000
0000
0100
0000
0000
0010
0000
0000
0001
0000
0000
2000
0000
0000
0000
,
3001
0000
0000
0010
0100
0000
1000
0000
0001
0000
0000
0100
0010
0000
0000
0000
,
1000
0000
0000
1000
0001
0000
0000
0001
0100
0000
0001
0000
0200
0000
0000
0000
,
0320
0000
0000
0000
0000
0000
0000
0000
0000
0000
1030
0000
0000
1000
0000
0000
,
0001
0000
0000
0001
0000
0000
0010
0000
0000
0010
0000
0000
1001
0000
0000
0000
,
0001
0010
0100
0000
1000
0100
0000
0100
,
0010
0001
1001
0200
,
0310
0000
0000
0000
1000
0000
0000
0000
0001
0000
0100
0000
0000
0100
0000
0000
,
0010
0000
0000
0010
0000
0000
1000
0000
0000
1000
0000
0000
0100
0000
0010
0000
,
0100
0000
0000
1000
0000
0000
0001
0000
0001
0000
1000
0000
0000
0000
0100
0000
,
0010
0000
0001
0100
0101
0000
0200
0000
,
0310
0000
0000
0000
1000
0000
0000
0000
1000
0000
0001
0000
0000
0001
0000
0000
,
0010
0000
0000
0010
0000
0000
0100
0000
0000
0100
0000
0000
1000
0000
0001
0000
,
0100
0010
1000
0010
0001
0010
0000
0100
,
0001
1000
0100
0001
0100
0000
0020
0000
,
0031
0000
0100
0000
1000
0000
0100
0000
0010
0000
1000
0000
0000
1000
0000
0000
,
0001
0000
0000
0001
0000
0000
0010
0000
0000
0010
0000
0000
0100
0000
1000
0000
,
0001
0010
1000
0010
0001
1000
0000
1000
,
0001
0100
1000
0100
0010
0000
0002
0000
,
0013
0000
1000
0000
0001
0000
0100
0000
1000
0000
0100
0000
0000
0100
0000
0000
,
0001
0000
0000
0001
0000
0000
0010
0000
0000
0010
0000
0000
0100
0000
2000
0000
,
3000
0000
0000
0000
;
#NOTES:
     dance-single:
     :
     Challenge:
     9:
     :
0000
0000
0000
0000
,
0000
0000
0000
0000
,
0000
0000
0000
0000
,
0000
0000
0000
0000
,
1000
0010
0100
0000
0001
0000
1000
0000
0100
0000
1000
0000
0001
0000
1000
0000
,
0000
0100
0010
0001
0000
0001
0000
1000
,
0001
0100
0001
0000
1000
0100
0010
0000
,
0010
0001
1000
0000
0010
0100
1001
0000
,
0001
0010
0100
0000
1000
0000
0100
0000
0010
0000
0100
0000
1000
0000
0100
0000
,
0000
0010
0001
1000
0000
1000
0000
0010
,
0100
0001
1000
0000
0010
1000
0100
0000
,
0100
0010
0001
0000
1000
0010
0101
0000
,
0001
1000
0010
0000
0100
0000
0001
0000
1000
0000
0010
0000
0100
0000
0001
0000
,
0000
1000
0100
0010
0000
0010
0000
0001
,
1000
0000
0001
0000
1000
0001
1000
0001
,
1000
0001
1000
0001
0100
0010
0100
0010
2000
0000
0000
0000
0000
0000
0000
0000
,
3100
0010
0001
0000
1000
0000
0001
1000
0000
1000
0001
0000
0100
0000
0010
0000
,
0000
1000
0001
0010
0000
0010
0000
0100
,
1000
0000
0000
1000
0001
0000
0100
0010
0000
0010
1000
0000
0001
0000
0010
0100
,
0000
0100
1000
0000
0001
0000
0010
0100
0000
1000
0001
0000
0100
0000
0010
0000
,
1000
0001
0010
0000
0100
0000
1000
0001
0000
1000
0010
0000
0100
0000
0001
0000
,
0000
1000
0010
0100
0000
0100
0000
0001
,
0010
0000
0000
0001
1000
0000
0100
1000
0000
0100
1000
0000
0010
0000
0100
0001
,
0000
1000
0001
0000
0010
0000
0100
0010
0000
0010
0001
0000
1000
0000
0010
0000
,
0100
0001
1000
0000
0010
0000
0100
0001
0000
0001
0100
0000
0010
0000
1000
0000
,
0000
0001
0010
0100
0000
0100
0000
1000
,
0001
0000
0000
0001
1000
0000
0010
0100
0000
0100
0001
0000
1000
0000
0100
0010
,
0000
0001
1000
0000
0010
0000
0100
0001
0000
0001
1000
0000
0100
0000
0010
0000
,
0100
1000
0001
0000
0100
0000
0001
1000
0000
1000
0010
0000
1000
0000
0100
0000
,
0000
0100
0010
0001
0000
0001
0000
1000
,
0010
0000
0000
0010
0000
0000
0100
0000
0000
0000
0001
0000
0000
0000
1000
0000
,
0000
0100
0000
0001
0000
0100
1001
0000
,
0001
0100
0010
0000
1000
0000
0001
1000
0000
1000
0100
0000
0010
0000
0001
1000
,
0001
0000
0000
0100
0010
0000
1000
0001
0000
0001
0010
0000
0200
0000
0000
0000
,
1300
0000
0000
0010
1000
0000
0001
0100
0000
0001
1000
0000
0100
0010
0000
0001
,
1000
0000
0010
0100
0000
0001
1000
0000
1000
0100
0000
0010
0002
0000
1000
0000
,
1003
0000
0000
1000
0001
0000
0010
0100
0000
0100
0010
0000
0001
0000
1000
0010
,
0100
0000
0000
0001
1000
0000
0010
1000
0000
0001
0010
0000
0200
0000
0000
0000
,
0310
0000
0000
0010
0001
0000
1000
0010
0000
0010
0100
0000
0001
1000
0000
1000
,
0100
0000
0100
0010
0000
0010
0001
0000
0001
1000
0000
1000
0010
0000
0000
0000
,
0100
0001
1000
0000
0100
0000
1000
0001
0000
0001
1000
0000
0000
0000
0100
0000
,
0010
0000
0000
0001
1000
0000
0100
0010
0000
0001
0010
0000
0002
0000
0000
0000
,
0103
0000
0000
0010
1000
0000
0001
0100
0000
0100
0010
0000
1000
0001
0000
0100
,
0001
0000
1000
0100
0000
1000
0001
0000
0100
0010
0000
1000
0002
0000
1000
0000
,
1003
0000
0000
0100
0010
0000
0001
0010
0000
0100
1000
0000
0001
0000
0100
0001
,
0100
0000
0000
0010
1000
0000
0001
1000
0000
1000
0100
0000
0010
0000
0001
0000
,
2000
0000
0000
0000
0000
0000
3000
0000
0000
0000
0001
0000
0000
0001
0000
0000
,
0010
0000
0000
0010
0000
0000
0100
0000
0000
0100
0000
0000
1001
0000
0000
0000
,
1000
0001
0100
0000
0010
0000
0000
0000
1010
0000
1000
0000
0000
0000
0001
0000
,
0100
0001
0011
0020
,
0130
0000
0000
0000
1000
0000
0000
0000
1001
0000
0001
0000
0000
0001
0000
0000
,
0100
0000
0000
0100
0000
0000
0010
0000
0000
0010
0000
0000
1000
0000
0001
0000
,
1000
0000
0001
0100
0000
0001
1000
0000
1001
0000
0001
0000
0010
0001
0010
0000
,
0100
0000
1000
0001
0000
0001
1000
0000
1010
0000
0000
0000
0020
0000
0000
0000
,
0130
0000
0001
0000
1000
0010
1000
0000
1010
0000
0001
0000
0000
0100
0010
0000
,
0100
0010
0000
0001
0010
0000
0001
0010
0000
1000
0010
0000
1000
0010
0100
0000
,
0001
0010
0100
0000
1000
0000
0001
1000
0001
0000
0100
0000
0000
0000
0010
0000
,
1000
0000
0001
0000
0010
0100
0010
0000
0100
0000
0000
0000
2000
0000
0000
0000
,
3001
0000
0100
0000
0001
1000
0001
0000
1000
0000
0100
0000
0000
0100
0000
0000
,
0010
0000
0000
0010
0000
0000
0001
0000
0000
0001
0000
0000
1000
0000
0010
0000
,
1000
0000
0001
0000
0100
0010
0100
0000
0001
0000
1000
0000
0000
0000
0100
0000
,
0010
0000
0001
0000
1000
0100
1000
0000
0001
0000
0000
0000
0200
0000
0000
0000
,
0310
0000
1000
0000
0001
0100
0001
0000
1000
0000
0010
0000
0000
0010
0000
0000
,
0100
0000
0000
0100
0000
0000
0001
0000
0000
0001
0000
0000
1000
0000
0200
0000
,
0300
0000
0000
0000
;
#NOTES:
     dance-double:
     :
     Beginner:
     1:
     :
00000000
00000000
00000000
00000000
,
00000000
00000000
00000000
00000000
,
00000000
00000000
00000000
00000000
,
00000000
00000000
00000000
00000000
,
10000000
00000000
00000000
00000000
,
01000000
00000000
00000000
00000000
,
00100000
00000000
00000000
00000000
,
00001000
00000000
00000000
00000000
,
00010000
00000000
00000000
00000000
,
00000010
00000000
00000000
00000000
,
00000100
00000000
00000000
00000000
,
00000001
00000000
00000000
00000000
,
00000010
00000000
00000000
00000000
,
00000100
00000000
00000000
00000000
,
00010000
00000000
00001000
00000000
,
00011000
00000000
00000000
00000000
,
00010000
00000000
00000000
00000000
,
00001000
00000000
00000000
00000000
,
00100000
00000000
00000000
00000000
,
00010000
00000000
00000000
00000000
,
10000000
00000000
00000000
00000000
,
01000000
00000000
00000000
00000000
,
00010000
00000000
00000000
00000000
,
00001000
00000000
00000000
00000000
,
00000100
00000000
00000000
00000000
,
00000001
00000000
00000000
00000000
,
00000010
00000000
00000000
00000000
,
00000100
00000000
00000000
00000000
,
00010000
00000000
00000000
00000000
,
00001000
00000000
00010000
00000000
,
00011000
00000000
00000000
00000000
,
00000000
00000000
00000000
00000000
,
00001000
00000000
00000000
00000000
,
01000000
00000000
00000000
00000000
,
00100000
00000000
00000000
00000000
,
10000000
00000000
00000000
00000000
,
01000000
00000000
00000000
00000000
,
00100000
00000000
00000000
00000000
,
00001000
00000000
00000000
00000000
,
00010000
00000000
00000000
00000000
,
00000010
00000000
00001000
00000000
,
00000010
00000000
00000000
00000000
,
00000100
00000000
00000001
00000000
,
00000100
00000000
00000000
00000000
,
00000001
00000000
00000000
00000000
,
00000010
00000000
00000000
00000000
,
00000110
00000000
00000000
00000000
,
00000000
00000000
00000000
00000000
,
00001000
00000000
00001000
00000000
,
00010000
00000000
00000000
00000000
,
00001000
00000000
00001000
00000000
,
01000000
00000000
00000000
00000000
,
00100000
00000000
00100000
00000000
,
10000000
00000000
00000000
00000000
,
01000000
00000000
01000000
00000000
,
00100000
00000000
00000000
00000000
,
00001000
00000000
00010000
00000000
,
00001000
00000000
00000000
00000000
,
00010000
00000000
00000100
00000000
,
00001000
00000000
00000000
00000000
,
00000001
00000000
00001000
00000000
,
00000001
00000000
00000100
00000000
,
00000010
00000000
00000010
00000000
,
00001000
00000000
00001000
00000000
;
#NOTES:
     dance-double:
     :
     Easy:
     3:
     :
00000000
00000000
00000000
00000000
,
00000000
00000000
00000000
00000000
,
00000000
00000000
00000000
00000000
,
00000000
00000000
00000000
00000000
,
10000000
01000000
00100000
00000000
,
00001000
00000000
00001000
00000000
,
00010000
00000000
00000010
00000000
,
00000100
00000000
00000001
00000000
,
00000010
00000100
00000010
00000000
,
00000001
00000000
00001000
00000000
,
00000010
00000000
00010000
00000000
,
00001000
00000000
01000000
00000000
,
00010000
10000000
00010000
00000000
,
00100000
00000000
00100000
00000000
,
01000000
00000000
01000000
01000000
,
20000000
00000000
00000000
30000000
,
10000000
00000000
00100000
00000000
,
01000000
00000000
01000000
01000000
,
00001000
00000000
00001000
00000000
,
00010000
00000000
00000010
00000000
,
00000100
00000000
00000001
00000000
,
00000010
00000000
00000100
00000100
,
00010000
00000000
00001000
00000000
,
00100000
00000000
00010000
00000000
,
10000000
00000000
10000000
00000000
,
00100000
00000000
01000000
01000000
,
00010000
00000000
00100000
00000000
,
00001000
00000000
00010000
00000000
,
00000100
00000000
00000100
00000000
,
00000010
00000000
00000010
00000000
,
00000002
00000000
00000000
00000003
,
00000000
00000000
00000000
00000010
,
00000100
00000000
00001000
00000000
,
00000001
00000000
00001000
00000000
,
00000100
00000000
00010000
00000000
,
00001000
00000000
01000000
00000000
,
00100000
00000000
10000000
00000000
,
01000000
00000000
01000000
00000000
,
00100000
00000000
00010000
00000000
,
00100000
00000000
00001000
00010000
,
00001000
00000000
00010000
00010000
,
00000010
00000000
00000100
00000000
,
00000001
00000000
00000000
00000000
,
00000010
00000000
00000100
00000000
,
00010000
00000000
00001000
00001000
,
00100000
00000000
00010000
00000000
,
02000000
00000000
00000000
03000000
,
00000000
00000000
00000000
00100000
,
10000000
00000000
10000000
00000000
,
01000000
00000000
01000000
00000000
,
00010000
00000000
00010000
00000000
,
00001000
00000000
00001000
00000000
,
00010000
00000000
00000010
00000000
,
00001000
00000000
00001000
00000000
,
00000001
00000000
00000010
00000000
,
00000100
00000000
00000100
00000000
,
00010000
00000000
00001000
00100000
,
00010000
00000000
01000000
00000000
,
00100000
00000000
10000000
00100000
,
01000000
00000000
00010000
00000000
,
00100000
00000000
00001000
00000000
,
00010000
00000000
00000010
00001000
,
00000001
00000000
00001000
00000000
,
00000100
00000000
00000010
00000001
;
#NOTES:
     dance-double:
     :
     Medium:
     5:
     :
00000000
00000000
00000000
00000000
,
00000000
00000000
00000000
00000000
,
00000000
00000000
00000000
00000000
,
00000000
00000000
00000000
00000000
,
00000001
00000010
00000100
00000000
00001000
00000000
00000010
00010000
,
00000000
00000000
00001000
00010000
00000000
00010000
00000000
00001000
,
00100000
00010000
01000000
10000000
,
01000000
00100000
00010000
00100000
,
10000000
01000000
00010000
00000000
01000000
00000000
00100000
00001000
,
00000000
00000000
00010000
00001000
00000000
00001000
00000000
00010000
,
00000010
00001000
00000001
00000100
,
00001000
00010000
00100000
10000000
,
00010000
00100000
00001000
00000000
00010000
00000000
00000010
00001000
,
00000000
00000000
00000001
00000010
00000000
00000010
00000000
00000100
,
00010000
00000000
00001000
00000000
00010000
00001000
00010000
00001000
,
00100000
00010000
00100000
00010000
00200000
00000000
00000000
00000000
,
01300000
00000000
10000000
00010000
10000000
00000000
00100000
00000000
,
01000000
00000000
00001000
00010000
00001000
00000000
00010000
00000010
,
00001000
00000001
00000010
00001000
,
00000010
00000001
00000100
00001000
,
00010000
00000000
00001000
00010000
00001000
00000000
01000000
00000000
,
00100000
00000000
10000000
00100000
10000000
00000000
00010000
01000000
,
00010000
00100000
00001000
00010000
,
00000100
00000010
00000001
00000010
,
00000100
00000000
00010000
00001000
00010000
00000000
00001000
00000000
,
01000000
00000000
00100000
10000000
00000000
00100000
01000000
00000000
,
00010000
10000000
01000000
00010000
,
00001000
00010000
00000010
00000100
,
00000001
00000000
00001000
00000001
00001000
00000000
00000100
00000000
,
00000010
00000000
00001000
00000000
00010000
00001000
00000000
00010000
,
00002000
00000000
00000000
00000000
,
00000000
00000000
00000000
00103000
,
00010000
00100000
01000000
00000000
10000000
00010000
00000000
01000000
,
00001000
00010000
00000100
00000020
,
00000031
00000000
00000010
00000000
00000100
00001000
00000000
00001000
,
00000100
00000000
00000100
00010000
00000000
00010000
00002000
00000000
,
01003000
00000000
00100000
00000000
10000000
00010000
00000000
00010000
,
01000000
00001000
00010000
00000200
,
00000310
00000000
00000001
00000000
00000010
00001000
00000000
00001000
,
00010000
00000000
00010000
00100000
00000000
00100000
10000000
00000000
,
00010000
01000000
00100000
00000000
10000000
00010000
00000000
00010000
,
01000000
00001000
00010000
00000020
,
00001030
00000000
00000001
00000000
00000100
00001000
00000000
00001000
,
00010000
00000000
00010000
00100000
00000000
00100000
10000000
00000000
,
01000000
00000000
00100000
00000000
00001000
00010000
00000000
00000100
,
00010000
00000000
00000010
00000000
00001000
00000001
00000020
00000000
,
00000230
00000000
00000000
00000000
,
00000000
00000000
00000000
00010300
,
00001000
00010000
00001000
00000000
00011000
00000000
00000000
00000000
,
01000000
00010000
01000000
00000000
01010000
00000000
00000000
00000000
,
00100000
10000000
00010000
00000000
10010000
00000000
00000000
00000000
,
00100000
00001000
00010000
00000010
,
00000100
00000000
00000001
00001000
00000100
00000000
00000010
00000000
,
00001000
00010000
00001000
00000000
00011000
00000000
00020000
00000000
,
00031000
01000000
01010000
00010000
,
10000000
00100000
00010000
00100000
,
10000000
01000000
00200000
00000000
00301000
00000000
00010000
00000000
,
00000020
00001000
00000130
00000200
,
00000302
00000010
00001003
00000100
,
00010000
00001000
01000000
00200000
,
20300000
01000000
30100000
01000000
,
00002000
00010000
00013000
00000020
,
00002030
00000100
00003001
00000100
,
00001000
00000000
00010000
00000000
00100000
00000000
10000000
00010000
;
#NOTES:
     dance-double:
     :
     Hard:
     7:
     :
00000000
00000000
00000000
00000000
,
00000000
00000000
00000000
00000000
,
00000000
00000000
00000000
00000000
,
00000000
00000000
00000000
00000000
,
10000000
01000000
00010000
01000000
10000000
00100000
01000000
00010000
,
00000000
00100000
00001000
00010000
00000000
00000100
00000000
00000010
,
00000002
00000103
00000020
00001030
,
00000200
00010300
00002000
01003000
,
00010000
10000000
00100000
00010000
00100000
10000000
00010000
01000000
,
00000000
00100000
00010000
00001000
00000000
00010000
00000000
00000100
,
00002000
00003100
00000020
00000031
,
00000200
00001300
00020000
00130000
,
10000000
00100000
00010000
00100000
00010000
00001000
00010000
00001000
,
00000000
00010000
00000010
00001000
00000000
00001000
00000000
00000001
,
00000010
00000000
00000100
00000000
00001000
00000001
00001000
00000001
,
00000010
00001000
00010000
00000010
00002000
00000000
00000000
00000000
,
00003100
00000000
00010000
00000000
00001000
00000000
00000000
00100000
00010000
00000000
10000000
00000000
00100000
00000000
01000000
00000000
,
00000000
00010000
01000000
00100000
00000000
00100000
00000000
10000000
,
00100000
00000000
00000000
00100000
00000000
00000000
00010000
00000000
00000000
00000000
00001000
00000000
00000000
00000000
00000010
00000000
,
00000000
00000001
00000000
00001000
00000000
00000100
00000000
00000010
,
00000001
00000000
00000100
00000000
00001000
00000000
00000000
00001000
00000100
00000000
00000010
00000000
00010000
00000000
00001000
00000000
,
00000000
00001000
00100000
00010000
00000000
00010000
00000000
00100000
,
01000000
00000000
00000000
01000000
00000000
00000000
10000000
00000000
00000000
00000000
00100000
00000000
00000000
00000000
00010000
00000000
,
00000000
00001000
00000000
00010000
00000000
00000100
00000000
00000010
,
00000001
00000000
00001000
00000000
00000100
00000000
00000000
00010000
00001000
00000000
01000000
00000000
00010000
00000000
10000000
00000000
,
00000000
10000000
01000000
00010000
00000000
01000000
00000000
00100000
,
00001000
00000000
00000000
00010000
00000000
00000000
00000010
00000000
00000000
00000000
00001000
00000000
00000000
00000000
00000001
00000000
,
00000000
00000010
00000000
00000100
00000000
00001000
00000000
00000010
,
00010000
00000000
00001000
00000000
00100000
00000000
00000000
00010000
10000000
00000000
01000000
00000000
00010000
00000000
00001000
00000000
,
00000000
00100000
00001000
00010000
00000000
00000100
00000000
00001000
,
00000001
00000000
00000000
00000001
00000000
00000000
00000010
00000000
00000000
00000000
00001000
00000000
00000000
00000000
00010000
00000000
,
00000000
00100000
00000000
10000000
00000000
01000000
10010000
00000000
,
00010000
00000000
01000000
00000000
10000000
00000000
00000000
10000000
01000000
00000000
00100000
00000000
00000000
00000000
00010000
00000000
,
00001000
00000000
00000000
00000000
00010000
00000000
00000000
00010000
00000100
00000000
00000010
00000000
00000002
00000000
00000000
00000000
,
00000013
00000000
00000000
00000000
00000100
00000000
00000000
00010000
00001000
00000000
00100000
00000000
00000000
00010000
00000000
00000000
,
10000000
00000000
00000000
00100000
00000000
00000000
01000000
00000000
00000000
00010000
00000000
00000000
20000000
00000000
00000000
00000000
,
30010000
00000000
00000000
00000000
00100000
00000000
00000000
00100000
00010000
00000000
01000000
00000000
00100000
00000000
00010000
00000000
,
00001000
00000000
00000000
00001000
00010000
00000000
00000100
00000000
00000010
00000000
00000000
00000000
00002000
00000000
00000000
00000000
,
00003010
00000000
00000000
00000001
00001000
00000000
00000010
00000000
00000100
00000000
00001000
00000000
00000000
00001000
00000000
00000000
,
00010000
00000000
00000000
00010000
00000000
00000000
01000000
00000000
00000000
01000000
00000000
00000000
20000000
00000000
00000000
00000000
,
30010000
00000000
01000000
00000000
00100000
00000000
00000000
00100000
10000000
00000000
01000000
00000000
00000000
00000000
00010000
00000000
,
00001000
00000000
00000000
00001000
00010000
00000000
00000000
00000010
00001000
00000000
00000100
00000000
00000002
00000000
00000000
00000000
,
00000103
00000000
00000000
00000100
00000010
00000000
00000001
00000000
00000100
00000000
00001000
00000000
00000000
00010000
00000000
00000000
,
00100000
00000000
00000000
10000000
00000000
00000000
00010000
00000000
00000000
01000000
00000000
00000000
20000000
00000000
00000000
00000000
,
31000000
00000000
00000000
00100000
10000000
00000000
00100000
00000000
01000000
00000000
00001000
00000000
00000000
00000000
00001000
00000000
,
00010000
00000000
00000000
00010000
00000100
00000000
00000000
00000100
00001000
00000000
00000001
00000000
00000020
00000000
00000000
00000000
,
00000230
00000000
00000000
00000000
00000000
00000000
00000000
00000000
00000000
00000000
00000310
00000000
00000000
00000010
00000000
00000000
,
00001000
00000000
00000000
00001000
00000000
00000000
00010000
00000000
00000000
00010000
00000000
00000000
00011000
00000000
00000000
00000000
,
00001000
01000000
00100000
00000000
10100000
00000000
00000000
00100000
,
01000000
00001000
00011000
00020000
,
00030100
00000000
00000000
00000000
00000010
00000000
00000000
00000000
00000001
00000000
00001000
00000000
00000000
00001000
00000000
00000000
,
00000010
00000000
00000000
00000010
00000000
00000000
00010000
00000000
00000000
00010000
00000000
00000000
00001000
00000000
01000000
00000000
,
00100000
00000000
00000000
10000000
00000000
00000000
01000000
00000000
00100000
00000000
00001000
00000000
00000000
00000000
00001000
00000000
,
00010000
00000010
00001010
00002000
,
00003001
00000000
00000000
00000000
00000010
00000000
00000000
00000000
00000100
00000000
00000010
00000000
00000000
00000010
00000000
00000000
,
00001000
00000000
00000000
00001000
00000000
00000000
00010000
00000000
00000000
00010000
00000000
00000000
01000000
00000000
10000000
00000000
,
00010000
00100000
01000000
00100000
00001000
00100000
00000000
00001000
,
00010000
00100000
00010000
00001000
00010000
00000000
00000200
00000000
,
00001300
00000000
00000010
00000000
00001000
00000000
00000001
00000000
00001000
00000000
00000100
00000000
00000000
00000100
00000000
00000000
,
00000001
00000000
00000000
00000001
00000000
00000000
00000100
00000000
00000000
00000100
00000000
00000000
00010000
00000000
00001000
00000000
,
01000000
00100000
00010000
00100000
10000000
00100000
00000000
01000000
,
00010000
01000000
10000000
01000000
00010000
00000000
00200000
00000000
,
00301000
00000000
00010000
00000000
00000100
00000000
00010000
00000000
00000010
00000000
00001000
00000000
00000000
00001000
00000000
00000000
,
00000100
00000000
00000000
00000100
00000000
00000000
00000010
00000000
00000000
00000010
00000000
00000000
00000001
00000000
00000200
00000000
,
00000300
00000000
00000000
00000000
;
#NOTES:
     dance-double:
     :
     Challenge:
     9:
     :
00000000
00000000
00000000
00000000
,
00000000
00000000
00000000
00000000
,
00000000
00000000
00000000
00000000
,
00000000
00000000
00000000
00000000
,
00000001
00000100
00001000
00000000
00000100
00000000
00000010
00000000
00001000
00000000
00000001
00000000
00000100
00000000
00001000
00000000
,
00000000
00010000
00001000
00100000
00000000
00100000
00000000
00010000
,
10000000
01000000
00100000
00000000
00100000
00001000
00010000
00000000
,
00001000
00000000
00010000
00000010
00010000
00000000
00000000
00000000
00000100
00000000
00000010
00000001
00000010
00000000
00000100
00000000
,
00001000
00000001
00000100
00000000
00000010
00000000
00001000
00000000
00000100
00000000
00010000
00000000
00001000
00000000
00100000
00000000
,
00000000
00001000
00010000
01000000
00000000
10000000
00000000
00100000
,
01000000
00000000
00001000
00010000
00001000
00000000
00000000
00000000
00010000
00000000
00000010
00001000
00000010
00000000
00000000
00000000
,
00000100
00000000
00000001
00001000
00000001
00000000
00000000
00000000
00000010
00000000
00000100
00001000
00000001
00000000
00000000
00000000
,
00000100
00001000
00010000
00000000
00001000
00000000
00100000
00000000
00010000
00000000
01000000
00000000
10000000
00000000
01000000
00000000
,
00000000
01000000
00100000
00010000
00000000
00010000
00000000
00001000
,
00010000
00000000
00001000
00000000
00010000
00001000
00010000
00001000
,
00010000
00000100
00010000
00000100
00001000
00000100
00001000
00000100
00000020
00000000
00000000
00000000
00000000
00000000
00000000
00000000
,
00000031
00001000
00000010
00000000
00000100
00000000
00000001
00001000
00000000
00001000
00000001
00000000
00000100
00000000
00000010
00000000
,
00000000
00000100
00001000
00010000
00000000
00010000
00000000
00001000
,
01000000
00000000
00000000
01000000
00100000
00000000
10000000
00010000
00000000
00010000
01000000
00000000
00100000
00000000
00010000
00001000
,
00000000
00001000
00010000
00000000
00000100
00000000
00000010
00000001
00000000
00000001
00001000
00000000
00000010
00000000
00000100
00000000
,
00000001
00000010
00000100
00000000
00001000
00000000
00000100
00000001
00000000
00000100
00000010
00000000
00001000
00000000
00010000
00000000
,
00000000
00001000
00100000
00010000
00000000
01000000
00000000
10000000
,
01000000
00000000
00000000
01000000
00010000
00000000
00100000
00001000
00000000
00010000
00001000
00000000
00010000
00000000
00000100
00000010
,
00000000
00000001
00000100
00000000
00000010
00000000
00010000
00001000
00000000
00100000
00010000
00000000
00100000
00000000
01000000
00000000
,
10000000
00100000
01000000
00000000
00100000
00000000
01000000
00001000
00000000
00001000
00010000
00000000
00100000
00000000
00010000
00000000
,
00000000
00001000
00010000
00000100
00000000
00000100
00000000
00000010
,
00000001
00000000
00000000
00001000
00000100
00000000
00000001
00000100
00000000
00000100
00010000
00000000
00001000
00000000
01000000
00010000
,
00000000
00010000
10000000
00000000
00100000
00000000
00010000
00100000
00000000
00100000
01000000
00000000
00001000
00000000
00010000
00000000
,
00001000
00010000
00000100
00000000
00001000
00000000
00000100
00000010
00000000
00000010
00000001
00000000
00000100
00000000
00001000
00000000
,
00000000
00010000
01000000
10000000
00000000
10000000
00000000
00100000
,
01000000
00000000
00000000
01000000
00000000
00000000
00010000
00000000
00000000
00000000
00100000
00000000
00000000
00000000
00001000
00000000
,
00000000
00010000
00000000
00000100
00000000
00000010
00001001
00000000
,
00000001
00000010
00000100
00000000
00001000
00000000
00000001
00001000
00000000
00000100
00010000
00000000
00001000
00000000
01000000
00010000
,
01000000
00000000
00000000
00100000
10000000
00000000
00010000
01000000
00000000
00010000
00100000
00000000
02000000
00000000
00000000
00000000
,
13000000
00000000
00000000
10000000
01000000
00000000
00100000
00001000
00000000
00010000
00001000
00000000
00010000
00000100
00000000
00001000
,
00000010
00000000
00001000
00000001
00000000
00000001
00000010
00000000
00000100
00001000
00000000
00000010
00020000
00000000
00001000
00000000
,
00031000
00000000
00000000
00001000
00100000
00000000
01000000
10000000
00000000
10000000
00100000
00000000
01000000
00000000
00100000
00010000
,
00001000
00000000
00000000
00001000
00010000
00000000
00000100
00000010
00000000
00001000
00000010
00000000
00000002
00000000
00000000
00000000
,
00001003
00000000
00000000
00000010
00010000
00000000
00000100
00010000
00000000
00010000
00001000
00000000
01000000
00100000
00000000
10000000
,
01000000
00000000
01000000
00010000
00000000
00010000
00001000
00000000
00001000
00000100
00000000
00000100
00000001
00000000
00000000
00000000
,
00000100
00000010
00001000
00000000
00000100
00000000
00010000
00001000
00000000
00001000
00010000
00000000
00000000
00000000
00001000
00000000
,
01000000
00000000
00000000
00100000
10000000
00000000
00010000
01000000
00000000
01000000
00001000
00000000
00020000
00000000
00000000
00000000
,
00030100
00000000
00000000
00000100
00000010
00000000
00000001
00001000
00000000
00000100
00000010
00000000
00001000
00010000
00000000
00001000
,
01000000
00000000
00100000
00010000
00000000
10000000
01000000
00000000
00010000
10000000
00000000
10000000
00020000
00000000
10000000
00000000
,
10030000
00000000
00000000
01000000
00100000
00000000
00001000
00010000
00000000
00001000
00010000
00000000
00000010
00000000
00001000
00000001
,
00000010
00000000
00000000
00000010
00001000
00000000
00010000
00000010
00000000
00000010
00000100
00000000
00001000
00000000
00010000
00000000
,
00200000
00000000
00000000
00000000
00000000
00000000
00300000
00000000
00000000
00000000
10000000
00000000
00000000
10000000
00000000
00000000
,
01000000
00000000
00000000
01000000
00000000
00000000
00100000
00000000
00000000
00100000
00000000
00000000
10010000
00000000
00000000
00000000
,
00100000
00001000
00010000
00000000
00001000
00000000
00000000
00000000
00010010
00000000
00001000
00000000
00000000
00000000
00000001
00000000
,
00000010
00000100
00001001
00002000
,
00003100
00000000
00000000
00000000
00010000
00000000
00000000
00000000
01001000
00000000
00010000
00000000
00000000
00010000
00000000
00000000
,
01000000
00000000
00000000
01000000
00000000
00000000
00100000
00000000
00000000
00100000
00000000
00000000
10000000
00000000
01000000
00000000
,
00100000
00000000
00001000
00010000
00000000
00010000
00001000
00000000
00011000
00000000
00010000
00000000
00000100
00001000
00000100
00000000
,
00001000
00000000
00000010
00001000
00000000
00000001
00000100
00000000
00001010
00000000
00000000
00000000
00000200
00000000
00000000
00000000
,
00000301
00000000
00000100
00000000
00001000
00010000
00001000
00000000
00011000
00000000
00010000
00000000
00000000
00001000
00100000
00000000
,
00010000
00100000
00000000
00010000
00100000
00000000
01000000
00100000
00000000
01000000
00100000
00000000
10000000
00100000
01000000
00000000
,
00100000
00010000
00100000
00000000
00001000
00000000
00010000
00001000
00010000
00000000
00001000
00000000
00000000
00000000
00010000
00000000
,
00000010
00000000
00001000
00000000
00010000
00001000
00010000
00000000
00001000
00000000
00000000
00000000
00000020
00000000
00000000
00000000
,
00001030
00000000
00000001
00000000
00000010
00000100
00000010
00000000
00000001
00000000
00000100
00000000
00000000
00000100
00000000
00000000
,
00001000
00000000
00000000
00001000
00000000
00000000
00010000
00000000
00000000
00010000
00000000
00000000
01000000
00000000
10000000
00000000
,
00100000
00000000
01000000
00000000
10000000
01000000
10000000
00000000
01000000
00000000
00010000
00000000
00000000
00000000
01000000
00000000
,
00001000
00000000
00010000
00000000
00000100
00001000
00000100
00000000
00000010
00000000
00000000
00000002
00000000
00000000
00000000
00000000
,
00000013
00000000
00000100
00000000
00010000
00001000
00010000
00000000
00001000
00000000
00100000
00000000
00000000
00100000
00000000
00000000
,
10000000
00000000
00000000
10000000
00000000
00000000
00010000
00000000
00000000
00010000
00000000
00000000
01000000
00000000
20000000
00000000
,
30000000
00000000
00000000
00000000
;
