#TITLE:Celebration;
#ARTIST:Wavegroup;
#BANNER:Celebration.png;
#BACKGROUND:Celebration-bg.png;
#LYRICSPATH:Celebration.lrc;
#CDTITLE:./CDTITLES/DanceDanceRevolution UNIVERSE3.png;
#MUSIC:Celebration.ogg;
#SAMPLESTART:25.722;
#SAMPLELENGTH:15;
#DISPLAYBPM:121;
#BPMS:0=121.01,12=121.42,28=121.83,36=121.11,52=121.62,68=121.83,84=121.01,100=121.21,116=121.83,132=122.24,148=121.01,164=120.91,180=121.31,196=121.52,212=121.39;

//---------------dance-single - ----------------
#NOTES:
     dance-single:
     :
     Beginner:
     1:
     :
0000
0000
0000
0000
,
0000
0000
0000
0000
,
0000
0000
0000
0000
,
0000
0000
0000
0000
,
0000
0000
0000
0000
,
1000
0000
0000
1000
,
1000
0000
0000
0001
,
0001
0000
0000
0000
,
0100
0000
0010
0000
,
0100
0100
0000
0000
,
0001
0000
1000
0000
,
0001
0000
0000
0001
,
0000
0000
0000
0000
,
1000
1000
0000
0000
,
0001
0000
0100
0000
,
0010
0000
0000
0010
,
0000
0000
0000
0000
,
1000
0000
0001
0000
,
1001
0000
0000
0000
,
0100
0000
0010
0000
,
0110
0000
0000
0000
,
0001
0001
0000
1000
,
1000
0000
0000
0000
,
0100
0000
0010
0000
,
0001
0000
0000
0000
,
1001
0000
0000
1001
,
0000
0000
0000
0000
,
1000
0000
0100
0000
,
0010
0000
0001
0000
,
0110
0000
0000
0110
,
0000
0000
0000
0000
,
0001
0000
0100
0000
,
0010
0000
1000
0000
,
0001
0000
0000
0000
,
1000
0000
0000
0000
,
0001
0000
0000
0000
,
0100
0000
0000
0000
,
0010
0010
0010
0000
,
0100
0100
0100
0000
,
0110
0000
0010
0000
,
0001
0000
0000
1000
,
1000
0000
0000
0000
,
0001
0000
0000
0000
,
1000
0000
0100
0000
,
0010
0000
0000
0001
,
0001
0000
0000
0000
,
1000
0000
0000
0000
,
0010
0010
0000
0000
,
1000
0000
0001
0000
,
1001
0000
0000
1001
,
0000
0000
0000
0000
,
1000
1000
0000
0000
,
0100
0000
0010
0000
,
0110
0000
0000
0110
,
0110
0000
0000
0000
;

//---------------dance-single - ----------------
#NOTES:
     dance-single:
     :
     Easy:
     4:
     :
0000
0000
0000
0000
,
0000
0000
0000
0000
,
0000
0000
0000
0000
,
0000
0000
0000
0000
,
0000
0000
0000
0000
,
0100
0010
0100
0010
,
0110
0000
0000
1000
,
0001
0000
0000
0001
,
1000
0100
0010
0001
,
1000
1001
0000
0001
,
0100
0010
0100
0110
,
0000
0010
1000
0001
,
0010
0000
0000
0010
,
0001
1001
0000
1000
,
0100
0010
0001
1001
,
0000
0001
1000
0010
,
0100
0000
0000
0100
,
0001
0000
1000
0000
,
1001
0000
0000
1001
,
1000
0100
0010
0001
,
0100
0000
0000
0100
,
0001
1000
0000
0001
,
1000
0100
0100
0000
,
1000
0001
0100
0010
,
1000
0001
1001
0000
,
1000
0000
0000
1000
,
0001
0000
0000
0001
,
1000
0100
0001
0100
,
1000
1000
1000
0000
,
0100
0000
0000
0100
,
0010
0000
0000
0010
,
0001
0100
1000
0100
,
0001
0001
0001
0000
,
1000
0000
0001
0000
,
0100
0000
0010
0000
,
1000
0000
0100
0000
,
0010
0000
0001
0000
,
1000
1000
1000
1000
,
0001
0001
0001
1001
,
0000
1000
0100
0010
,
0001
1000
0000
1001
,
1001
0000
0000
1001
,
1000
0100
0010
0000
,
0001
1001
0000
1000
,
0001
0100
0010
0110
,
0000
0010
0100
0001
,
1000
0000
0000
1000
,
1000
0110
0000
0010
,
0001
1000
0001
0100
,
0100
0000
0000
0100
,
0010
1000
0100
0010
,
0001
1001
0000
0001
,
0100
0010
1000
1001
,
0000
1000
0100
0010
,
0001
0000
0001
0000
;

//---------------dance-single - ----------------
#NOTES:
     dance-single:
     :
     Medium:
     5:
     :
0000
0000
0000
0000
,
0000
0000
0000
0000
,
0000
0000
0000
0000
,
0000
0000
0000
0000
,
0000
0000
0000
0000
,
1000
0001
1000
0001
,
1000
0100
0010
0001
0000
0000
1001
0000
,
1001
0001
0100
1000
,
0100
0010
0100
0010
0100
0010
0000
0000
,
0010
0010
0000
1000
,
0100
0000
0010
0000
0001
0000
1000
1000
,
0000
0001
1000
0100
,
0010
0001
0010
0001
0010
0000
0000
0000
,
0001
1000
0000
0001
,
0100
0000
0010
0000
1000
0000
0001
0001
,
0000
1000
0100
0001
,
0100
0010
0100
0010
0100
0000
1000
0000
,
0001
0100
0010
1000
,
0011
0000
0011
0100
,
1000
1000
0001
1000
,
0110
0000
0110
0001
,
0010
0000
0000
0000
0010
0000
0001
1000
,
0001
0000
0000
0100
0000
0000
0000
0000
,
0010
1000
0100
0001
,
1000
0001
1000
0001
0000
0100
0010
0100
,
0010
0000
0000
1000
,
0001
0000
0000
1000
0000
0000
0000
0000
,
1000
0001
1100
0101
,
0010
1000
1001
0000
,
0100
0000
0000
1000
,
0010
0000
0000
0100
0000
0000
0000
0000
,
0100
0010
1010
0011
,
1000
0001
1001
0000
,
1000
0000
0000
0001
0001
0000
0000
0100
,
0100
0000
0010
0010
0010
0000
0000
0000
,
1000
0100
0010
0001
1000
0000
0000
0000
,
0001
1000
0001
1000
,
0001
0001
0101
0101
,
1000
0000
1000
0000
1100
0000
1100
1100
,
0000
1000
1000
0001
0001
0000
0100
0000
,
0010
0000
0010
1001
,
1001
0010
1000
0100
,
0010
0001
0010
0001
0010
0001
0000
0000
,
0001
1000
0000
0100
,
0010
0001
1000
0110
,
0110
0010
1000
0001
,
1000
0000
0000
1000
,
0001
0001
0000
0010
,
0100
0000
1000
0000
0001
0000
0100
0100
,
0000
0010
1000
0001
,
1000
0100
0110
0001
,
0010
1001
0000
0010
,
0100
0000
0001
0000
1000
0000
0001
0001
,
0000
0100
0010
1000
,
1001
0000
1001
0000
;

//---------------dance-single - ----------------
#NOTES:
     dance-single:
     :
     Hard:
     7:
     :
0000
0000
0000
0000
,
0000
0000
0000
0000
,
0000
0000
0000
0000
,
0000
0000
0000
0000
,
0000
0000
0000
0000
,
1000
0001
0100
0010
,
1000
0100
0010
0001
0000
0000
1001
0000
,
1001
0100
0010
1000
0001
0000
0100
0000
,
0001
0000
0000
1000
0000
0000
0110
0000
0000
0000
0000
0000
1000
0000
0000
0000
,
0100
1000
0000
0100
,
0010
0000
0001
0000
0100
0000
0010
0010
,
0000
1000
1000
0001
0001
0000
0100
0000
,
0010
0000
0000
0100
0000
0000
1001
0000
0000
0000
0000
0000
0001
0000
0000
0000
,
0100
0001
0000
1000
,
0100
0000
0010
0000
0001
0000
1000
1000
,
0000
0001
0001
0100
0100
0000
0001
0000
,
1000
0000
0000
0010
0000
0000
0101
0000
0000
0000
0000
0000
1000
0000
1000
0000
,
0001
0100
1000
0100
0001
0000
1000
0000
,
0100
0000
1000
0000
1000
0000
1000
0001
,
0100
0010
1000
0000
0001
0000
0110
0000
,
1001
0000
0100
0000
0010
1000
0100
1000
,
0001
0000
0000
0001
0000
0000
0000
0000
0000
0000
0000
0000
1000
0000
0100
0000
,
0010
0000
0000
0100
0000
0000
1001
0000
0000
0000
0000
0000
0001
0000
0000
0000
,
1000
0100
1000
0000
0100
0000
0110
0000
,
0010
0001
0100
0010
0000
1000
0100
0010
,
0001
0000
0000
1000
,
0010
0000
0000
0100
0000
0000
0000
0000
,
0100
0010
0100
0000
0001
1000
0001
0000
,
1000
0010
0001
0010
0000
0100
0010
0000
,
1000
0000
0000
0001
,
0100
0000
0000
0010
0000
0000
0000
0000
,
1000
0010
1000
0000
0001
0100
0001
0000
,
1000
0010
0001
0010
0000
0110
0110
0000
,
1001
0000
0000
1000
0100
0000
0000
1000
,
0001
0000
0100
0001
0010
0000
1100
0000
,
0001
0000
1000
0000
0001
0000
1000
0010
0000
0000
0000
0000
0000
0000
0000
0000
,
1000
0010
0100
0001
,
1100
1010
0011
0101
,
1100
0000
1001
0000
0110
0000
0010
0010
,
0000
0001
0001
1000
1000
0000
0100
0000
,
0001
0000
0000
0100
0000
0000
1010
0000
0000
0000
0000
0000
0011
0000
0000
0000
,
1100
0100
1000
0010
1000
0000
0001
0000
,
0010
0001
0100
0001
0010
0000
1001
0000
,
0000
0001
0001
0100
0100
0000
0001
0000
,
1000
0000
0000
0100
0000
0000
0011
0000
0000
0000
0000
0000
0110
0000
0000
0000
,
0110
1000
0001
0100
0001
0000
0100
0000
,
0010
0000
0000
0100
0000
0000
1001
0000
0000
0000
0000
0000
1000
0000
0000
0000
,
0001
0100
0000
0010
,
1000
0000
0001
0000
0010
0000
0100
0100
,
0000
1000
1000
0100
0100
0000
1000
0000
,
0001
0000
0101
0000
1010
0000
0001
1000
,
0000
0100
0100
0010
0010
0000
0001
0000
,
1000
0000
0101
0000
1100
0000
0010
0100
,
0000
0001
0001
1000
1000
0000
0100
0000
,
0010
0000
0000
0001
0000
0000
1100
0000
0000
0000
0000
0000
0000
0000
0000
0000
;

//---------------dance-double - ----------------
#NOTES:
     dance-double:
     :
     Beginner:
     1:
     :
00000000
00000000
00000000
00000000
,
00000000
00000000
00000000
00000000
,
00000000
00000000
00000000
00000000
,
00000000
00000000
00000000
00000000
,
00000000
00000000
00000000
00000000
,
10000000
00000000
00000000
10000000
,
10000000
00000000
00000000
01000000
,
01000000
00000000
00000000
00000000
,
00100000
00000000
00001000
00000000
,
00010000
00010000
00000000
00000000
,
00000100
00000000
00001000
00000000
,
00000010
00000000
00000000
00000010
,
00000000
00000000
00000000
00000000
,
00001000
00001000
00000000
00000000
,
00000001
00000000
00000100
00000000
,
00000010
00000000
00000000
00000010
,
00000000
00000000
00000000
00000000
,
00010000
00000000
00001000
00000000
,
00011000
00000000
00000000
00000000
,
01000000
00000000
00100000
00000000
,
01100000
00000000
00000000
00000000
,
00010000
00010000
00000000
10000000
,
10000000
00000000
00000000
00000000
,
01000000
00000000
00010000
00000000
,
00001000
00000000
00000000
00000000
,
00011000
00000000
00000000
00011000
,
00000000
00000000
00000000
00000000
,
00010000
00000000
00001000
00000000
,
00000100
00000000
00000001
00000000
,
00001001
00000000
00000000
00001001
,
00000000
00000000
00000000
00000000
,
00000001
00000000
00000010
00000000
,
00001000
00000000
00010000
00000000
,
00001000
00000000
00000000
00000000
,
01000000
00000000
00000000
00000000
,
00010000
00000000
00000000
00000000
,
10000000
00000000
00000000
00000000
,
00100000
00100000
00100000
00000000
,
01000000
01000000
01000000
00000000
,
01100000
00000000
00010000
00000000
,
01000000
00000000
00000000
00001000
,
00001000
00000000
00000000
00000000
,
00010000
00000000
00000000
00000000
,
00000100
00000000
00000010
00000000
,
00000001
00000000
00000000
00001000
,
00001000
00000000
00000000
00000000
,
00000001
00000000
00000000
00000000
,
00000100
00000100
00000000
00000000
,
00001000
00000000
00010000
00000000
,
00011000
00000000
00000000
00011000
,
00000000
00000000
00000000
00000000
,
00001000
00001000
00000000
00000000
,
01000000
00000000
00100000
00000000
,
01100000
00000000
00000000
01100000
,
01100000
00000000
00000000
00000000
;

//---------------dance-double - ----------------
#NOTES:
     dance-double:
     :
     Easy:
     4:
     :
00000000
00000000
00000000
00000000
,
00000000
00000000
00000000
00000000
,
00000000
00000000
00000000
00000000
,
00000000
00000000
00000000
00000000
,
00000000
00000000
00000000
00000000
,
00010000
00001000
00010000
00001000
,
00011000
00000000
00000000
00010000
,
00000010
00000000
00000000
00000010
,
00001000
00000001
00000100
00000010
,
00000100
00000110
00000000
00000010
,
00010000
00001000
00010000
00011000
,
00000000
00001000
00100000
00010000
,
10000000
00000000
00000000
10000000
,
00010000
10010000
00000000
10000000
,
01000000
00010000
00001000
00011000
,
00000000
00010000
00000100
00001000
,
00000010
00000000
00000000
00000010
,
00000001
00000000
00001000
00000000
,
00001001
00000000
00000000
00001001
,
00000001
00000100
00000010
00010000
,
00001000
00000000
00000000
00001000
,
00010000
00001000
00000000
00100000
,
00010000
01000000
01000000
00000000
,
00010000
10000000
01000000
00100000
,
00001000
00010000
00011000
00000000
,
00010000
00000000
00000000
00010000
,
00000100
00000000
00000000
00000100
,
00001000
00000010
00000100
00000001
,
00000010
00001000
00010000
00000000
,
00001000
00000000
00000000
00001000
,
00100000
00000000
00000000
00100000
,
00010000
01000000
00100000
10000000
,
01000000
00010000
00001000
00000000
,
00010000
00000000
00000100
00000000
,
00001000
00000000
00000001
00000000
,
00000100
00000000
00000010
00000000
,
00010000
00000000
00001000
00000000
,
01000000
01000000
01000000
01000000
,
00100000
00100000
00100000
01100000
,
00000000
00100000
10000000
01000000
,
00010000
00001000
00000000
00011000
,
00011000
00000000
00000000
00011000
,
00001000
00000100
00000010
00000000
,
00000100
00000110
00000000
00000100
,
00000010
00001000
00000001
00001001
,
00000000
00001000
00000100
00010000
,
00001000
00000000
00000000
00001000
,
00010000
00011000
00000000
00001000
,
00100000
00010000
01000000
00100000
,
00100000
00000000
00000000
00100000
,
10000000
01000000
00010000
00001000
,
00010000
00011000
00000000
00000100
,
00001000
00000001
00000100
00001001
,
00000000
00000001
00000100
00001000
,
00010000
00000000
00010000
00000000
;

//---------------dance-double - ----------------
#NOTES:
     dance-double:
     :
     Medium:
     5:
     :
00000000
00000000
00000000
00000000
,
00000000
00000000
00000000
00000000
,
00000000
00000000
00000000
00000000
,
00000000
00000000
00000000
00000000
,
00000000
00000000
00000000
00000000
,
00100000
10000000
01000000
00010000
,
00001000
00000100
00000001
00000010
00000000
00000000
00001001
00000000
,
00001001
00000100
00001000
00010000
,
00001000
00010000
00001000
00010000
00001000
00010000
00000000
00000000
,
00001000
00100000
00000000
00010000
,
01000000
00000000
00100000
00000000
10000000
00000000
00010000
00010000
,
00000000
10000000
01000000
00010000
,
00001000
00010000
00001000
00010000
00001000
00000000
00000000
00000000
,
00010000
00000100
00000000
00000010
,
00000001
00000000
00000100
00000000
00001000
00000000
00010000
00010000
,
00000000
01000000
00100000
00010000
,
10000000
00010000
10000000
00010000
10000000
00000000
00010000
00000000
,
10000000
01000000
00100000
00001000
,
00011000
00000000
00011000
00010000
,
00000100
00000100
00000010
00000100
,
00001001
00000000
00001001
00000001
,
00001000
00000000
00000000
00000000
00001000
00000000
00000100
00010000
,
00001000
00000000
00000000
00010000
00000000
00000000
00000000
00000000
,
00100000
00010000
01000000
10000000
,
01000000
00100000
01000000
00100000
00000000
10000000
01000000
00010000
,
00001000
00000000
00000000
00010000
,
00000010
00000000
00000000
00001000
00000000
00000000
00000000
00000000
,
00000001
00000100
00001010
00001100
,
00010000
00001000
00011000
00000000
,
00100000
00000000
00000000
00010000
,
10000000
00000000
00000000
00010000
00000000
00000000
00000000
00000000
,
00100000
10000000
11000000
01010000
,
00001000
00010000
00011000
00000000
,
00000100
00000000
00000000
00001000
00001000
00000000
00000000
00000001
,
00000001
00000000
00000100
00000100
00000100
00000000
00000000
00000000
,
00000010
00001000
00000100
00010000
00001000
00000000
00000000
00000000
,
00100000
00010000
01000000
10000000
,
00100000
00100000
10010000
10010000
,
01000000
00000000
01000000
00000000
00110000
00000000
00011000
00011000
,
00000000
00000100
00000100
00001000
00001000
00000000
00000001
00000000
,
00001000
00000000
00001000
00000110
,
00000110
00000001
00000100
00000010
,
00001000
00000100
00001000
00000100
00001000
00000100
00000000
00000000
,
00010000
00001000
00000000
01000000
,
00010000
10000000
01000000
00110000
,
00110000
10000000
01000000
00010000
,
00001000
00000000
00000000
00001000
,
00010000
00000100
00000000
00001000
,
00000010
00000000
00001000
00000000
00000001
00000000
00000010
00000010
,
00000000
00000001
00001000
00000100
,
00010000
00001000
00011000
00100000
,
00010000
10100000
00000000
00010000
,
01000000
00000000
00100000
00000000
10000000
00000000
01000000
01000000
,
00000000
00010000
00001000
00010000
,
00011000
00000000
00011000
00000000
;

//---------------dance-double - ----------------
#NOTES:
     dance-double:
     :
     Hard:
     7:
     :
00000000
00000000
00000000
00000000
,
00000000
00000000
00000000
00000000
,
00000000
00000000
00000000
00000000
,
00000000
00000000
00000000
00000000
,
00000000
00000000
00000000
00000000
,
10000000
01000000
00100000
00010000
,
01000000
00001000
00010000
00000100
00000000
00000000
00011000
00000000
,
00011000
00001000
00010000
00000100
00000010
00000000
00000001
00000000
,
00001000
00000000
00000000
00000010
00000000
00000000
00001001
00000000
00000000
00000000
00000000
00000000
00001000
00000000
00000000
00000000
,
00000001
00001000
00000000
00000010
,
00000100
00000000
00001000
00000000
00010000
00000000
00001000
00001000
,
00000000
01000000
01000000
00010000
00010000
00000000
10000000
00000000
,
00100000
00000000
00000000
01000000
00000000
00000000
10010000
00000000
00000000
00000000
00000000
00000000
10000000
00000000
00000000
00000000
,
01000000
00100000
00000000
01000000
,
00100000
00000000
00001000
00000000
00011000
00000000
00010000
00010000
,
00000000
00000010
00000010
00001000
00001000
00000000
00000001
00000000
,
00000100
00000000
00000000
00000001
00000000
00000000
00001010
00000000
00000000
00000000
00000000
00000000
00000001
00000000
00000001
00000000
,
00000100
00001000
00010000
00001000
00010000
00000000
01000000
00000000
,
00100000
00000000
00010000
00000000
00010000
00000000
10000000
00010000
,
01000000
00100000
10000000
00000000
01000000
00000000
00100000
00000000
,
00110000
00000000
00001000
00000000
00010000
00001000
00000100
00000001
,
00001000
00000000
00000000
00001000
00000000
00000000
00000000
00000000
00000000
00000000
00000000
00000000
00000001
00000000
00000100
00000000
,
00000010
00000000
00000000
00001000
00000000
00000000
00010100
00000000
00000000
00000000
00000000
00000000
00001000
00000000
00000000
00000000
,
00100000
00010000
00100000
00000000
01000000
00000000
10010000
00000000
,
00100000
10000000
01000000
00100000
00000000
01000000
00010000
00001000
,
00010000
00000000
00000000
00001000
,
00000010
00000000
00000000
00001000
00000000
00000000
00000000
00000000
,
00000001
00000100
00000001
00000000
00001000
00000010
00001000
00000000
,
00000100
00010000
00001000
00010000
00000000
00001000
01000000
00000000
,
00010000
00000000
00000000
10000000
,
01000000
00000000
00000000
00100000
00000000
00000000
00000000
00000000
,
00001000
00100000
00001000
00000000
00010000
00000010
00010000
00000000
,
00001000
00000100
00000010
00000100
00000000
00000110
00000110
00000000
,
00000101
00000000
00000000
00001000
00000001
00000000
00000000
00000001
,
00000100
00000000
00000100
00000010
00010000
00000000
00011000
00000000
,
00001000
00000000
01000000
00000000
00001000
00000000
01000000
00010000
00000000
00000000
00000000
00000000
00000000
00000000
00000000
00000000
,
01000000
00010000
00100000
01000000
,
11000000
10100000
00110000
00011000
,
00001010
00000000
00000011
00000000
00001001
00000000
00000010
00000010
,
00000000
00000001
00000001
00000100
00000100
00000000
00000010
00000000
,
00010000
00000000
00000000
00001000
00000000
00000000
00011000
00000000
00000000
00000000
00000000
00000000
00101000
00000000
00000000
00000000
,
01010000
01000000
00100000
10000000
01000000
00000000
00100000
00000000
,
00010000
10000000
01000000
10000000
00100000
00000000
01010000
00000000
,
00000000
00001000
00001000
00010000
00010000
00000000
00001000
00000000
,
00000100
00000000
00000000
00000010
00000000
00000000
00001001
00000000
00000000
00000000
00000000
00000000
00000101
00000000
00000000
00000000
,
00000101
00000001
00001000
00000100
00001000
00000000
00000010
00000000
,
00010000
00000000
00000000
00001000
00000000
00000000
00011000
00000000
00000000
00000000
00000000
00000000
00001000
00000000
00000000
00000000
,
01000000
00100000
00000000
10000000
,
01000000
00000000
00010000
00000000
00001000
00000000
00010000
00010000
,
00000000
00000010
00000010
00001000
00001000
00000000
00000001
00000000
,
00000101
00000000
00001010
00000000
00010100
00000000
00001000
00010000
,
00000000
00001000
00001000
01000000
01000000
00000000
00010000
00000000
,
00100000
00000000
11000000
00000000
11000000
00000000
00010000
10000000
,
00000000
00010000
00010000
01000000
01000000
00000000
00001000
00000000
,
00010000
00000000
00000000
00001000
00000000
00000000
00011000
00000000
00000000
00000000
00000000
00000000
00000000
00000000
00000000
00000000
;
