
//----- song ID: camo -----
#TITLE:Caught In The Moment;
#ARTIST:Entona;
#BANNER:Caught In The Moment.png;
#BACKGROUND:Caught In The Moment-bg.png;
#CDTITLE:./CDTitles/DDR UNIVERSE3.png;
#MUSIC:Caught In The Moment.ogg;
#OFFSET:-0.001;
#SAMPLESTART:43.614;
#SAMPLELENGTH:15;
#BPMS:0=130;
#NOTES:
     dance-single:
     :
     Beginner:
     1:
     :
0000
0000
0000
0000
,
0000
0000
0000
0000
,
0000
0000
0000
0000
,
0000
0000
0000
0000
,
1000
0000
0000
0000
,
0001
0000
0000
0000
,
1000
0000
0000
0000
,
0001
0000
0000
0000
,
1001
0000
0000
0000
,
0000
0000
0000
0000
,
1000
0000
0000
0000
,
0100
0000
0000
0000
,
0010
0000
0000
0000
,
0001
0000
0000
0000
,
1000
0000
0000
0000
,
0001
0000
0000
0000
,
0100
0000
0000
0000
,
0010
0000
0000
0000
,
1000
0000
0000
0000
,
0001
0000
0000
0000
,
1000
0000
0000
0000
,
0100
0000
0000
0000
,
0010
0000
0000
0000
,
0001
0000
0000
0000
,
1000
0000
0000
0000
,
0001
0000
0000
0000
,
1000
0000
0000
0000
,
0001
0000
0000
0000
,
0100
0000
0000
0000
,
0010
0000
0000
0000
,
0110
0000
0000
0000
,
0000
0000
0000
0000
,
1000
0000
0000
0000
,
0001
0000
0000
0000
,
0100
0000
0000
0000
,
0010
0000
0000
0000
,
1000
0000
0000
0000
,
0001
0000
0000
0000
,
1001
0000
0000
0000
,
1001
0000
0000
0000
,
1000
0000
0000
0000
,
0100
0000
0000
0000
,
0010
0000
0000
0000
,
0001
0000
0000
0000
,
1000
0000
0000
0000
,
0001
0000
0000
0000
,
0100
0000
0000
0000
,
0010
0000
0000
0000
,
0110
0000
0000
0000
;
#NOTES:
     dance-single:
     :
     Easy:
     2:
     :
0000
0000
0000
0000
,
0000
0000
0000
0000
,
0000
0000
0000
0000
,
0000
0000
0000
0000
,
1000
0000
0000
0001
,
1000
0100
0000
1000
,
0020
0000
0000
0030
,
0000
0100
0010
0100
,
0110
0000
0000
0000
,
0000
0000
0000
1000
,
0001
0000
1000
0000
,
1001
0000
0000
1000
,
0100
0000
0010
0000
,
0110
0000
0000
0001
,
0010
0000
0001
0000
,
1001
0000
0000
0000
,
1000
0000
0100
0000
,
0010
0000
0001
0000
,
0100
0000
0010
0000
,
0110
0000
0000
1000
,
0001
0000
0100
0000
,
0010
0000
1000
0000
,
0100
0000
0010
0000
,
1001
0000
0000
0000
,
2000
0000
0000
3000
,
0002
0000
0000
0003
,
0200
0000
0000
0300
,
0020
0000
0000
0030
,
1000
0000
0001
0000
,
1000
0000
0100
0000
,
0020
0000
0000
0030
,
0000
0000
0000
0000
,
0002
0000
0000
0003
,
0200
0000
0000
0300
,
0020
0000
0000
0030
,
2000
0000
0000
3000
,
0001
0000
1000
0000
,
0100
0000
0010
0000
,
0110
0000
0000
0000
,
1001
0000
0000
0000
,
1000
0000
0000
0001
,
0100
0001
0000
1000
,
0200
0000
0000
0300
,
1000
1000
0001
0001
,
0010
0000
0000
0001
,
0100
0010
0000
1000
,
0002
0000
0000
0003
,
1000
1000
0100
0100
,
0010
0000
0000
0000
;
#NOTES:
     dance-single:
     :
     Medium:
     5:
     :
0000
0000
0000
0000
,
0000
0000
0000
0000
,
0000
0000
0000
0000
,
0000
0000
0000
0000
,
1001
0000
0000
1000
,
0100
0000
0000
0000
0001
0000
0000
0000
0100
0000
1000
0000
0001
0000
0010
0002
,
0000
0000
0000
0003
,
0000
1000
0001
0100
0000
0001
1000
0200
,
0000
0000
0000
0300
,
0000
0000
0000
1000
,
0001
0000
0100
0001
0100
0000
0010
0000
,
1000
0000
0100
1000
0100
0000
0000
0000
,
0010
0000
0001
1000
0001
0000
0100
0000
,
0010
0000
1000
0010
1000
0000
0000
0000
,
0001
0000
1000
0100
1000
0000
0001
0000
,
0100
0000
0010
1000
0010
0000
0000
0000
,
1001
0000
1000
0100
1000
0000
0000
0000
,
1010
0000
0001
0100
0001
0000
0000
0000
,
0110
0000
0010
1000
0010
0000
0000
0000
,
1100
0000
0100
0010
0100
0000
0000
0000
,
0011
0000
1000
0010
1000
0000
0000
0000
,
0101
0000
0010
1000
0010
0000
0000
0000
,
1001
0000
0010
0100
0010
0000
0000
0000
,
0001
0000
0000
0000
0000
1000
0100
0010
,
0002
0000
0000
0000
0003
1000
0001
0100
,
0000
0001
0000
0000
0000
1000
0010
0200
,
0000
0000
0000
0000
0300
0001
0010
0100
,
0000
1000
0000
0000
0000
0001
0100
1000
,
0000
0100
0001
0010
0000
0000
0001
0100
,
0010
1000
0001
1000
0000
0001
0100
0020
,
0000
0000
0000
0000
,
0000
0000
0030
0000
0000
1000
0001
0020
,
0000
0000
0000
0000
0030
0001
0100
0010
,
0000
1001
0000
0000
0000
1000
0100
0002
,
0000
0000
0000
0000
0003
0100
1000
0010
,
0000
0110
0000
0000
0000
0001
0100
0010
,
0000
1000
0100
0010
0000
0000
0001
0100
,
0010
1000
0100
0010
0000
0100
1000
0002
,
0000
0000
0000
0003
,
1001
0000
0000
0000
,
0101
0000
0000
1000
,
0100
0000
0000
0000
0010
0000
0000
0000
0001
0000
1000
0000
0010
0000
0100
0002
,
0000
0000
0000
0003
,
1100
0000
0101
0000
0001
0100
0010
0000
,
1000
0000
0000
0001
0000
0000
1000
0000
,
0001
0000
0000
0000
0100
0000
0000
0000
0010
0000
1000
0000
0001
0000
0100
0020
,
0000
0000
0000
0000
0000
0000
0030
1000
,
0000
0001
1000
0001
0000
0000
1000
0000
,
1001
0000
0000
0000
;
#NOTES:
     dance-single:
     :
     Hard:
     7:
     :
0000
0000
0000
0000
,
0000
0000
0000
0000
,
0000
0000
0000
0000
,
0000
0000
0000
0000
,
0001
0000
0000
0000
0100
0000
0000
0000
0010
0000
0000
0000
1000
0001
0000
0000
,
0001
1000
0000
0000
1000
0001
0000
0000
0001
0000
0010
0000
0100
0000
1000
0020
,
0000
0000
0000
0030
,
0000
1000
0100
0001
0000
0001
0100
1000
,
0000
0001
0000
1001
0000
0000
0000
0000
,
0000
0000
0000
0000
0000
0001
0100
0010
,
0100
0000
0000
0110
0000
0010
1000
0100
,
0000
0000
1000
0000
0100
0000
1000
0001
0000
0100
0000
0001
1000
0000
0010
0000
,
1000
0000
0000
1001
0000
1000
0100
0010
,
0001
0000
0000
1100
0000
0001
0100
0010
,
1000
0000
0000
0011
0000
1000
0100
0001
,
0000
0000
0100
0000
1000
0000
0010
1000
0000
0001
0000
0010
0001
0000
1000
0000
,
0010
0000
0000
0101
0000
0010
1000
0100
,
0001
0000
0000
1100
0000
0010
0001
0100
,
1000
0000
0000
1001
0000
0001
0100
1000
,
0000
0000
0100
0000
0001
0000
0010
0100
0000
0010
0000
0001
0010
0000
0100
0000
,
1000
0000
0000
1010
0000
0010
1000
0001
,
1000
0000
0000
0101
0000
0100
0001
1000
,
0001
0000
0000
0011
0000
0100
1000
0100
,
0010
0000
0000
0000
,
0002
0000
0000
0000
0000
0103
0010
2000
,
0000
3200
0000
0300
0000
1000
0100
0020
,
0000
0000
0000
0000
0000
0031
1000
0200
,
0000
2300
0000
3000
0000
0001
0100
1000
,
0000
0100
0001
0010
0000
0000
0001
0100
,
0010
1000
0001
0100
0000
0001
1000
0200
,
0000
0000
0000
1000
0000
0000
0000
0010
,
0000
0000
0000
0301
0000
0010
0001
0100
,
0000
0001
0100
0010
0000
1000
0100
0010
,
0000
0100
1000
0010
0000
1000
0100
0001
,
0000
0100
0010
0001
0000
0010
0001
1000
,
0000
0001
1000
0010
0000
1000
0100
0001
,
0000
0100
1000
0010
0000
0000
1000
0100
,
0010
0001
1000
0100
0000
1000
0001
0020
,
0000
0000
0000
0001
0000
0000
0000
0130
,
0000
0001
0100
0010
0000
0110
0000
0000
,
1001
0000
0000
0000
0000
0000
1100
0000
0000
0000
0000
0000
0001
0100
0000
0000
,
0100
0010
0000
0000
0010
1000
0000
0000
1000
0000
0100
0000
0010
0000
0001
2000
,
0000
0000
0000
3000
,
0100
1000
0000
0001
0000
0100
0001
0000
0010
0000
0000
0000
0100
0000
1000
0000
,
0000
0000
0000
0000
0000
0000
0101
0000
0000
0000
0000
0000
0010
1000
0000
0000
,
1000
0001
0000
0000
0001
0100
0000
0000
0010
0000
1000
0000
0001
0000
0100
0002
,
0000
0000
0000
0000
0000
0000
0003
1000
,
0000
0010
0100
0001
0000
0000
1000
0000
,
1001
0000
0000
0000
;
#NOTES:
     dance-double:
     :
     Beginner:
     0:
     :
00000000
00000000
00000000
00000000
,
00000000
00000000
00000000
00000000
,
00000000
00000000
00000000
00000000
,
00000000
00000000
00000000
00000000
,
10000000
00000000
00000000
00000000
,
00010000
00000000
00000000
00000000
,
01000000
00000000
00000000
00000000
,
00001000
00000000
00000000
00000000
,
00011000
00000000
00000000
00000000
,
00000000
00000000
00000000
00000000
,
00010000
00000000
00000000
00000000
,
00000100
00000000
00000000
00000000
,
00000010
00000000
00000000
00000000
,
00000001
00000000
00000000
00000000
,
00001000
00000000
00000000
00000000
,
00000100
00000000
00000000
00000000
,
00000010
00000000
00000000
00000000
,
00000001
00000000
00000000
00000000
,
00000100
00000000
00000000
00000000
,
00001000
00000000
00000000
00000000
,
00010000
00000000
00000000
00000000
,
01000000
00000000
00000000
00000000
,
10000000
00000000
00000000
00000000
,
00100000
00000000
00000000
00000000
,
01000000
00000000
00000000
00000000
,
00010000
00000000
00000000
00000000
,
00100000
00000000
00000000
00000000
,
00001000
00000000
00000000
00000000
,
00010000
00000000
00000000
00000000
,
00000010
00000000
00000000
00000000
,
00000110
00000000
00000000
00000000
,
00000000
00000000
00000000
00000000
,
00001000
00000000
00000000
00000000
,
00000001
00000000
00000000
00000000
,
00000100
00000000
00000000
00000000
,
00001000
00000000
00000000
00000000
,
00010000
00000000
00000000
00000000
,
01000000
00000000
00000000
00000000
,
01100000
00000000
00000000
00000000
,
01100000
00000000
00000000
00000000
,
00100000
00000000
00000000
00000000
,
00010000
00000000
00000000
00000000
,
10000000
00000000
00000000
00000000
,
01000000
00000000
00000000
00000000
,
00010000
00000000
00000000
00000000
,
00001000
00000000
00000000
00000000
,
00010000
00000000
00000000
00000000
,
00001000
00000000
00000000
00000000
,
00011000
00000000
00000000
00000000
;
#NOTES:
     dance-double:
     :
     Easy:
     2:
     :
00000000
00000000
00000000
00000000
,
00000000
00000000
00000000
00000000
,
00000000
00000000
00000000
00000000
,
00000000
00000000
00000000
00000000
,
10000000
00000000
00000000
00010000
,
01000000
00001000
00000000
00010000
,
00002000
00000000
00000000
00003000
,
00000000
00010000
00000100
00000010
,
00000110
00000000
00000000
00000000
,
00000000
00000000
00000000
00000001
,
00001000
00000000
00000001
00000000
,
00001001
00000000
00000000
00000100
,
00001000
00000000
00010000
00000000
,
00011000
00000000
00000000
00001000
,
00100000
00000000
01000000
00000000
,
01100000
00000000
00000000
00000000
,
10000000
00000000
01000000
00000000
,
00010000
00000000
00001000
00000000
,
00000100
00000000
00000001
00000000
,
00000010
00000000
00000000
00000010
,
00000001
00000000
00000100
00000000
,
00001000
00000000
00010000
00000000
,
01000000
00000000
10000000
00000000
,
10010000
00000000
00000000
00000000
,
00200000
00000000
00000000
00300000
,
00002000
00000000
00000000
00003000
,
00020000
00000000
00000000
00030000
,
00000020
00000000
00000000
00000030
,
00001000
00000000
00000001
00000000
,
00001000
00000000
00000100
00000000
,
00000020
00000000
00000000
00000030
,
00000000
00000000
00000000
00000000
,
00000200
00000000
00000000
00000300
,
00020000
00000000
00000000
00030000
,
00002000
00000000
00000000
00003000
,
02000000
00000000
00000000
03000000
,
00010000
00000000
10000000
00000000
,
01000000
00000000
00100000
00000000
,
00010000
00000000
00000000
00000000
,
00011000
00000000
00000000
00000000
,
00010000
00000000
00000000
00000100
,
00001000
00000100
00000000
00000010
,
00000002
00000000
00000000
00000003
,
00001000
00001000
00000010
00000010
,
00000100
00000000
00000000
00000001
,
00001000
00000100
00000000
00010000
,
00002000
00000000
00000000
00003000
,
01000000
01000000
00100000
00100000
,
10000000
00000000
00000000
00000000
;
#NOTES:
     dance-double:
     :
     Medium:
     5:
     :
00000000
00000000
00000000
00000000
,
00000000
00000000
00000000
00000000
,
00000000
00000000
00000000
00000000
,
00000000
00000000
00000000
00000000
,
00011000
00000000
00000000
00001000
,
00010000
00000000
00000000
00000000
01000000
00000000
00000000
00000000
10000000
00000000
00100000
00000000
01000000
00000000
00001000
00020000
,
00000000
00000000
00000000
00030000
,
00000000
00001000
00010000
00000100
00000000
00001000
00000010
00000200
,
00000000
00000000
00000000
00000300
,
00000000
00000000
00000000
00000001
,
00001000
00000000
00000100
00000010
00000100
00000000
00001000
00000000
,
00000010
00000000
00010000
00001000
00010000
00000000
00000000
00000000
,
00001000
00000000
01000000
00010000
01000000
00000000
00100000
00000000
,
10000000
00000000
00010000
10000000
00010000
00000000
00000000
00000000
,
10000000
00000000
01000000
00100000
01000000
00000000
00010000
00000000
,
00001000
00000000
00000010
00000100
00000010
00000000
00000000
00000000
,
00000110
00000000
00000001
00001000
00000001
00000000
00000000
00000000
,
00001010
00000000
00010000
00000100
00010000
00000000
00000000
00000000
,
00011000
00000000
00100000
00010000
00100000
00000000
00000000
00000000
,
01010000
00000000
00100000
10000000
00100000
00000000
00000000
00000000
,
10010000
00000000
00100000
01000000
00100000
00000000
00000000
00000000
,
00110000
00000000
00001000
01000000
00001000
00000000
00000000
00000000
,
00011000
00000000
00010000
00000100
00010000
00000000
00000000
00000000
,
00000100
00000000
00000000
00000000
00000000
00001000
00000010
00000100
,
00000002
00000000
00000000
00000000
00000003
00001000
00000001
00000100
,
00000000
00000010
00000000
00000000
00000000
00010000
00001000
00020000
,
00000000
00000000
00000000
00000000
00030000
00001000
00100000
01000000
,
00000000
10000000
00000000
00000000
00000000
00010000
01000000
10000000
,
00000000
01000000
00010000
00100000
00000000
00000000
00001000
00010000
,
00000100
00001000
00000010
00000100
00000000
00000001
00001000
00000200
,
00000000
00000000
00000000
00000000
,
00000000
00000000
00000300
00000000
00000000
00000010
00000001
00000200
,
00000000
00000000
00000000
00000000
00000300
00000010
00001000
00000100
,
00000000
00011000
00000000
00000000
00000000
00010000
00001000
02000000
,
00000000
00000000
00000000
00000000
03000000
00010000
00100000
01000000
,
00000000
10010000
00000000
00000000
00000000
00100000
10000000
01000000
,
00000000
10000000
01000000
00010000
00000000
00000000
01000000
00010000
,
00001000
00010000
00001000
00000100
00000000
00000010
00001000
00000002
,
00000000
00000000
00000000
00000003
,
00001001
00000000
00000000
00000000
,
00000110
00000000
00000000
00001000
,
00000100
00000000
00000000
00000000
00000010
00000000
00000000
00000000
00000001
00000000
00000100
00000000
00001000
00000000
00010000
00002000
,
00000000
00000000
00000000
00003000
,
00011000
00000000
01010000
00000000
00100000
10000000
01000000
00000000
,
10000000
00000000
00000000
00010000
00000000
00000000
01000000
00000000
,
00001000
00000000
00000000
00000000
00010000
00000000
00000000
00000000
00001000
00000000
00010000
00000000
00000100
00000000
00001000
00000020
,
00000000
00000000
00000000
00000000
00000000
00000000
00000030
00001000
,
00000000
00000001
00001000
00000001
00000000
00000000
00001000
00000000
,
00001001
00000000
00000000
00000000
;
#NOTES:
     dance-double:
     :
     Hard:
     7:
     :
00000000
00000000
00000000
00000000
,
00000000
00000000
00000000
00000000
,
00000000
00000000
00000000
00000000
,
00000000
00000000
00000000
00000000
,
10000000
00000000
00000000
00000000
01000000
00000000
00000000
00000000
00100000
00000000
00000000
00000000
00001000
00010000
00000000
00000000
,
00010000
00001000
00000000
00000000
00001000
00010000
00000000
00000000
00010000
00000000
00000100
00000000
00001000
00000000
00000010
00000200
,
00000000
00000000
00000000
00000300
,
00000000
00000001
00000100
00001000
00000000
00000100
00001000
00010000
,
00000000
00001000
00000000
00011000
00000000
00000000
00000000
00000000
,
00000000
00000000
00000000
00000000
00000000
00001000
01000000
00100000
,
10000000
00000000
00000000
10010000
00000000
00100000
10000000
01000000
,
00000000
00000000
00100000
00000000
00010000
00000000
01000000
00001000
00000000
00010000
00000000
00001000
00010000
00000000
00000100
00000000
,
00000010
00000000
00000000
00001001
00000000
00000001
00000100
00000010
,
00010000
00000000
00000000
00011000
00000000
00001000
01000000
00100000
,
10000000
00000000
00000000
10010000
00000000
10000000
01000000
00010000
,
00000000
00000000
01000000
00000000
00100000
00000000
00001000
00010000
00000000
00001000
00000000
00010000
00001000
00000000
00010000
00000000
,
00000100
00000000
00000000
00000110
00000000
00000010
00000001
00000100
,
00001000
00000000
00000000
00011000
00000000
00010000
01000000
10000000
,
00100000
00000000
00000000
01100000
00000000
10000000
00010000
01000000
,
00000000
00000000
00001000
00000000
00010000
00000000
00000010
00001000
00000000
00000001
00000000
00000010
00000100
00000000
00001000
00000000
,
00000010
00000000
00000000
00000101
00000000
00000100
00000010
00001000
,
00000100
00000000
00000000
00011000
00000000
01000000
00010000
00100000
,
01000000
00000000
00000000
11000000
00000000
00100000
00010000
01000000
,
00001000
00000000
00000000
00000000
,
00020000
00000000
00000000
00000000
00000000
00030100
00000010
00000002
,
00000000
00002003
00000000
00003000
00000000
00000010
00000100
00002000
,
00000000
00000000
00000000
00000000
00000000
00013000
00001000
00200000
,
00000000
00320000
00000000
00030000
00000000
10000000
00100000
00010000
,
00000000
00100000
00010000
00001000
00000000
00000000
00010000
00001000
,
00000010
00000001
00000100
00000001
00000000
00001000
00000010
00000200
,
00000000
00000000
00000000
00000001
00000000
00000000
00000000
00000010
,
00000000
00000000
00000000
00001300
00000000
00010000
00001000
01000000
,
00000000
00010000
01000000
00100000
00000000
10000000
01000000
00010000
,
00000000
01000000
00010000
00001000
00000000
00010000
00001000
00000010
,
00000000
00001000
00000010
00000001
00000000
00000010
00000001
00000100
,
00000000
00000001
00000100
00000010
00000000
00000100
00000010
00001000
,
00000000
00000010
00001000
00000100
00000000
00000000
00001000
00000010
,
00010000
00001000
01000000
00010000
00000000
00100000
00010000
20000000
,
00000000
00000000
00000000
00010000
00000000
00000000
00000000
31000000
,
00000000
00100000
00010000
01000000
00000000
00110000
00000000
00000000
,
00011000
00000000
00000000
00000000
00000000
00000000
00001100
00000000
00000000
00000000
00000000
00000000
00000010
00001000
00000000
00000000
,
00001000
00000001
00000000
00000000
00000001
00000100
00000000
00000000
00000100
00000000
00000010
00000000
00001000
00000000
00000100
00020000
,
00000000
00000000
00000000
00030000
,
00001000
00010000
00000000
00001000
00000000
00010000
00001000
00000000
00100000
00000000
00000000
00000000
00010000
00000000
01000000
00000000
,
00000000
00000000
00000000
00000000
00000000
00000000
10100000
00000000
00000000
00000000
00000000
00000000
10000000
01000000
00000000
00000000
,
01000000
00010000
00000000
00000000
00010000
00001000
00000000
00000000
00010000
00000000
00000100
00000000
00001000
00000000
00000010
00000200
,
00000000
00000000
00000000
00000000
00000000
00000000
00000300
00000001
,
00000000
00000010
00000001
00000100
00000000
00000000
00000010
00000000
,
00001100
00000000
00000000
00000000
;
