
//----- song ID: canh -----
#TITLE:Canned Heat;
#ARTIST:Jamiroquai;
#BANNER:Canned Heat.png;
#BACKGROUND:Canned Heat-bg.png;
#CDTITLE:./CDTitles/DDR UNIVERSE3.png;
#MUSIC:Canned Heat.ogg;
#OFFSET:-0.311;
#SAMPLESTART:56.533;
#SAMPLELENGTH:15;
#DISPLAYBPM:128;
#BPMS:0=128.248,17=128.205,32=127.886,48=127.773,64=128.228,80=127.943,112=127.886,128=128.571,144=127.66,152=128.285,184=127.716,216=127.962;
#NOTES:
     dance-single:
     :
     Beginner:
     1:
     :
0000
0000
0000
0000
,
0000
0000
0000
0000
,
0000
0000
0000
0000
,
0000
0000
0000
0000
,
1000
0000
0000
0000
,
0001
0000
0000
0000
,
0010
0000
0000
0000
,
0100
0000
0000
0000
,
0010
0000
0000
0000
,
0001
0000
0000
0000
,
1000
0000
0000
0000
,
0010
0000
0000
0000
,
0100
0000
0000
0000
,
0001
0000
0000
0000
,
1001
0000
0000
0000
,
0100
0000
0100
0000
,
0100
0000
0000
0000
,
0010
0000
0010
0000
,
0010
0000
0000
0000
,
0001
0000
0001
0000
,
0001
0000
0000
0000
,
1000
0000
1000
0000
,
1001
0000
0000
0000
,
0100
0000
0100
0000
,
0100
0000
0000
0000
,
0010
0000
0010
0000
,
0010
0000
0000
0000
,
1000
0000
1000
0000
,
1000
0000
0000
0000
,
0001
0000
0001
0000
,
1001
0000
0000
0000
,
1000
0000
0000
0000
,
1001
0000
0000
0000
,
0001
0000
0000
0000
,
0110
0000
0000
0000
,
0010
0000
0000
0000
,
1000
0000
0000
0000
,
0001
0000
0000
0000
,
0200
0000
0000
0300
,
0100
0000
0100
0000
,
0020
0000
0000
0030
,
0010
0000
0010
0000
,
2000
0000
0000
3000
,
1000
0000
1000
0000
,
0001
0000
0001
0000
,
0002
0000
0000
0003
,
0001
0000
0000
0000
,
0010
0000
0000
0000
,
0100
0000
0000
0000
,
1000
0000
0000
0000
,
0010
0000
0000
0000
,
0100
0000
0000
0000
,
0001
0000
0000
0000
,
0010
0000
0000
0000
,
0100
0000
0000
0000
;
#NOTES:
     dance-single:
     :
     Easy:
     4:
     :
0000
0000
0000
0000
,
0000
0000
0000
0000
,
0000
0000
0000
0000
,
0000
0000
0000
0000
,
1000
0100
1000
0000
,
0001
0100
0001
0000
,
0020
0000
0030
0000
,
0200
0000
0300
0000
,
2000
0000
3000
0000
,
0002
0000
0003
0000
,
0100
0000
0010
0000
,
1000
0001
1000
0001
,
0100
0000
0010
0000
,
1000
0000
0001
0000
,
1001
0000
0100
0000
,
0010
0000
0100
0000
,
1000
0000
0001
0000
,
1000
0000
0001
0000
,
0100
0000
0010
0000
,
0100
0000
0010
0000
,
1000
0000
0001
0000
,
0010
0010
0100
0100
,
1000
0000
0010
0000
,
0100
0000
0001
0000
,
1000
0000
0100
0000
,
0010
0000
0001
0000
,
0100
0000
0010
0000
,
1000
0000
0001
0000
,
1000
0000
0001
0000
,
0100
0100
0100
0100
,
0010
1001
0000
0000
,
1000
0100
0010
0001
,
0100
1001
0000
0000
,
1000
0010
1000
0001
,
0010
0000
0001
1000
,
0001
0100
0010
1000
,
0100
1000
0001
0000
,
0100
0000
0010
0000
,
1000
0000
0001
0000
,
0010
0001
0100
1000
,
0010
0000
0100
0000
,
0010
1000
0100
0001
,
0010
0000
0100
0000
,
0001
0000
1000
0000
,
0010
0000
0100
0000
,
0001
0000
1000
0001
,
0100
1001
0000
0000
,
0010
1000
0100
0001
,
0010
1001
0000
0000
,
0010
0001
0100
1000
,
0010
1001
0000
0000
,
0010
0100
0010
1000
,
0001
0010
0100
0000
,
1000
0000
0001
0000
,
0100
0000
0000
0000
;
#NOTES:
     dance-single:
     :
     Medium:
     5:
     :
0000
0000
0000
0000
,
0000
0000
0000
0000
,
0000
0000
0000
0000
,
0000
0000
0000
0000
0000
0000
0000
1000
,
0000
1100
0001
0101
,
1000
1010
0001
0011
,
1000
0010
0100
0000
,
0001
0010
0100
0010
,
0001
0100
0010
0000
,
1000
0100
0010
0001
,
2000
0000
0000
3002
0000
0000
1003
0000
,
0010
0000
1000
0000
0001
0000
1000
0100
,
0020
0000
0000
0000
,
0030
0000
0000
0000
,
0011
0100
1000
0010
,
1000
0001
0020
0030
,
0100
0010
0001
0100
,
1000
0100
0002
0003
,
1000
0100
0010
0001
,
1000
0010
0200
0300
,
0010
1000
0001
1000
,
1100
1001
0101
1001
,
0100
0010
1000
0001
,
1000
0010
0200
0300
,
0010
1000
0001
0010
,
1000
0010
0002
0003
,
1000
0010
1000
0100
,
0010
0000
0001
0000
0000
1000
0000
0000
,
0010
0100
0010
1000
,
0100
0100
0100
0100
,
1000
0000
1001
0000
0000
0001
0010
0100
,
1000
0010
0100
0001
,
1000
0000
1001
0000
0000
0001
1000
0100
,
0010
0001
0100
0010
,
0100
0001
1000
0100
,
0010
0000
0100
0000
1000
0000
0001
0100
,
0000
0010
0000
0100
0000
0001
0010
0100
,
1000
0010
0100
0010
,
1000
0000
0000
0100
0000
0000
0010
0000
,
0001
1000
0001
0010
,
0100
0000
0000
0010
0000
0000
0001
0000
,
1000
0010
0100
0010
,
1000
0000
0000
0001
0000
0000
0000
1000
,
0100
0000
0000
1000
0001
0000
0100
0000
,
0010
0100
0001
1000
,
0001
0010
1100
0101
,
1000
1001
0000
0001
,
0100
0010
1000
0100
,
1000
1001
0000
0001
,
0010
0100
1000
0001
,
0100
0110
0000
0010
,
1000
0001
1000
0001
,
0100
0110
0000
0010
,
0100
0001
1000
0001
,
1000
0000
0000
0000
;
#NOTES:
     dance-single:
     :
     Hard:
     8:
     :
0000
0000
0000
0000
,
0000
0000
0000
0000
,
0000
0000
0000
0000
,
0000
0000
0000
0000
0000
0000
0000
0001
,
0000
0010
0100
0000
1000
0000
0001
0000
,
0100
0010
1000
0000
0001
0000
1000
0001
,
0000
0000
1000
0000
1000
0000
0010
0100
0000
0000
0000
0000
0000
0000
0010
0000
,
0000
0000
0100
0000
0100
0000
0001
1000
0000
0000
0100
0000
0010
0001
0010
0000
,
0000
0000
0100
0000
0100
0000
1000
0001
0000
0000
0000
0000
0000
0000
0100
0000
,
0000
0000
0010
0000
0010
0000
0100
0001
0000
0000
1000
0000
0100
0010
0000
0000
,
0001
0010
0100
1000
0000
0000
0010
0010
,
1000
0000
0001
0001
0010
0000
0100
0100
,
1000
0100
0010
0001
,
0010
0000
0100
0000
1000
0010
0100
0001
,
0010
0001
1000
0001
0010
0100
0010
0001
,
1000
0000
0010
0000
1000
0000
0100
0000
0010
0000
0000
0001
0000
0000
1000
0000
,
0000
0001
1000
0001
0100
0010
1000
0100
,
0010
0000
0001
0000
0100
0000
0010
0000
1000
0000
0000
0001
0000
0000
0100
0000
,
0000
0001
0010
0100
1000
0010
1000
0100
,
0010
0000
0001
0000
0100
0000
1000
0000
0100
0000
0000
0001
0000
0000
1000
0000
,
0000
0100
0010
0100
1000
0010
1000
0001
,
0010
0001
0100
1000
,
0010
0100
0010
1000
0001
0010
0100
1000
,
0010
0000
0001
0000
0010
0000
1000
0000
0001
0000
0000
0010
0000
0000
0100
0000
,
0000
1000
0010
1000
0001
0010
0100
0010
,
0001
0000
0100
0000
0010
0000
0001
0000
0010
0000
0000
1000
0000
0000
0001
0000
,
0000
0010
0100
1000
0010
0100
0001
0010
,
0100
1000
0002
0000
0000
0103
0000
0000
,
0000
0010
1000
0010
0001
0010
1000
0001
,
0100
0100
0100
0100
,
0010
0000
1001
0000
0000
1000
0001
0010
,
0200
0000
1000
0000
0001
0000
1000
1000
,
1300
0000
1001
0000
0000
0001
1000
0100
,
0020
0000
0001
0000
1000
0000
0001
0001
,
0031
0000
0000
2000
0000
3002
0000
0103
,
0010
1000
0010
0100
0010
1000
0001
0010
,
0000
0100
0000
1000
0000
0010
1000
0100
,
0001
0100
1000
0010
0100
0001
1000
0000
,
0010
0100
0010
1000
0001
1000
0100
0010
,
0011
0000
1100
0000
1010
0000
0101
0001
,
1000
0100
0010
0001
1000
0001
0100
0010
,
1010
0000
0101
0000
0011
0000
1100
1000
,
0010
0100
0001
0010
0001
1000
0100
0010
,
0001
0000
0000
1000
0001
1000
0010
0000
,
1000
0010
1000
0000
0001
0010
0001
0000
,
0100
0010
0100
0000
0001
0000
1000
0000
1001
0000
0000
0000
1001
0000
0000
0000
,
0100
0000
0000
0000
0000
0000
0000
0000
0000
0000
0000
0000
0000
0000
0000
0000
2002
0000
0000
0000
0000
0000
0000
0000
0000
0000
0000
0000
0000
0000
0000
0000
0000
0000
0000
0000
0000
0000
0000
0000
0000
0000
0000
0000
0000
0000
0000
3000
0003
0000
0000
0000
0000
0000
0000
0000
0000
0000
0000
0000
0000
0000
0000
0000
,
0100
0010
0001
1000
0001
0100
0010
1000
,
0100
2002
0000
3003
,
0100
0010
1000
0100
0001
0100
0010
0001
,
0100
2002
0000
3003
,
0100
0010
1000
0100
1000
0001
0100
0020
,
0000
2030
0000
3002
0000
0003
0000
0000
,
0010
0100
1001
0110
,
1001
0000
0000
0000
;
#NOTES:
     dance-single:
     :
     Challenge:
     9:
     :
0000
0000
0000
0000
,
0000
0000
0000
0000
,
0000
0000
0000
0000
,
0000
0000
0000
0000
0000
0000
0000
1000
,
0000
0001
0010
0000
0100
1000
0001
0000
,
0100
0010
1000
0000
0100
0010
0001
1000
,
0000
0000
0001
0000
1000
0000
0001
0100
0000
0000
0000
0000
0000
0000
0010
0000
,
0000
0000
0100
0000
0010
0000
1000
0001
0000
0000
0010
0000
0100
1000
0010
0000
,
0000
0000
1000
0000
0001
0000
1000
0100
0000
0000
0000
0000
0000
0000
0010
0000
,
0000
0000
0001
0000
0010
0000
0001
1000
0000
0000
0010
0000
0100
0001
0000
0000
,
1000
0100
0010
0001
0100
1000
0100
0010
,
1000
0001
0010
1000
0010
0100
1000
0001
,
0010
0100
1000
0010
0100
1000
0100
0001
,
1000
0010
1000
0100
0010
0001
1000
0000
,
0101
0000
0010
0000
1000
0000
0100
0000
0001
0000
0100
0000
1000
0000
0010
0100
,
0000
0100
0001
0000
1000
0000
0001
0000
0101
0000
0000
0110
0000
0000
1010
0000
,
0000
1000
0001
1000
0100
0000
0010
0000
0001
0000
0100
0000
0010
1000
0000
0001
,
0000
1000
0000
0100
0000
0000
1000
0000
1010
0000
0000
0110
0000
0000
0101
0000
,
0000
0000
0001
0000
0010
0000
1000
0000
0010
0000
0001
0000
0100
0000
0010
1000
,
0000
1000
0001
0000
0010
0000
0100
0000
1100
0000
0000
1001
0000
0000
0011
0000
,
0000
0001
0010
0100
1000
0000
0010
0000
0100
0000
0010
0000
1000
0000
0001
0000
,
0011
1010
0101
1100
,
0000
0000
0010
0000
0001
0000
1000
0000
0010
0000
0100
0000
0010
1000
0000
0001
,
0000
1000
0100
0000
0010
0000
0001
0000
0011
0000
0000
1100
0000
0000
1010
0000
,
0000
0000
0001
0010
0001
0100
0000
0010
0000
1000
0001
1000
0100
0000
0010
0000
,
0001
0000
0100
0000
0010
0000
1000
0000
1100
0000
0000
0011
0000
0000
0101
0000
,
0000
0000
1000
0000
0010
0000
1000
0000
0100
0000
0010
0000
0001
0100
0000
0100
,
0010
1000
0001
0000
0000
0110
0000
0000
,
0000
1000
0010
1000
0100
0010
0001
1000
,
0100
0100
0100
0100
,
1000
0000
1001
0000
0000
0001
0010
0100
,
0010
0001
0000
1000
0000
0001
0000
0100
0000
0000
0010
1000
0000
0000
0001
0000
,
0010
0000
0110
0000
0000
0000
0100
1000
,
0001
0000
0000
1000
0000
0000
0100
0000
0010
0001
0000
0100
0000
0000
0010
0000
,
1000
0000
0000
0000
0000
0000
0001
1000
0010
0000
1000
0001
0010
0000
0100
0000
,
1000
0010
0001
0010
1000
0001
0010
0100
,
0000
1000
0000
0001
0000
0010
0001
0100
,
1000
0000
0100
0000
0010
0000
1000
0000
0100
0000
0010
0000
0001
1000
0000
0000
,
0020
1000
1030
0200
0001
0301
0100
1000
,
0020
0001
0032
0010
0023
1000
2030
0010
,
3020
0100
0130
0002
0010
0013
1000
0010
,
0002
0100
0203
1000
2300
0100
3200
0001
,
0302
0010
0013
0200
1000
1300
0010
0100
,
0010
1000
0001
1000
0100
0001
0100
0010
,
0001
1000
0010
0100
0010
1000
0001
0010
,
0100
1000
0001
0000
0100
0000
0010
1000
1100
0000
0001
0000
0101
0000
0010
0100
,
1000
0000
0001
0000
0011
0000
0000
0000
0100
1000
0100
0000
0010
0000
0001
1000
,
0001
0000
0100
0000
1000
0000
0100
0000
0001
0000
0010
0000
0100
0000
1000
0001
,
0010
0000
0100
0000
1100
0000
0000
0000
0010
0001
0010
0000
0100
0000
1000
0010
,
1000
0000
0001
0000
0010
0000
0001
0000
0100
0000
0010
0000
1000
0000
0001
1000
,
0010
0000
0100
0000
0101
0000
0000
0000
0010
1000
0010
0000
0100
0000
0001
0010
,
0001
0000
1000
0000
0010
0000
1000
0000
0100
0000
0010
0000
0001
0000
1000
0001
,
0100
0000
0010
0000
1010
0000
0000
0000
0100
0001
0100
0000
0010
0000
1000
0100
,
1000
0000
0001
0000
0100
0000
0001
0000
0010
0000
1000
0000
0010
0000
0001
1000
,
0100
0000
0000
0000
;
#NOTES:
     dance-double:
     :
     Beginner:
     1:
     :
00000000
00000000
00000000
00000000
,
00000000
00000000
00000000
00000000
,
00000000
00000000
00000000
00000000
,
00000000
00000000
00000000
00000000
,
00000010
00000000
00000000
00000000
,
00000001
00000000
00000000
00000000
,
00000100
00000000
00000000
00000000
,
00001000
00000000
00000000
00000000
,
00010000
00000000
00000000
00000000
,
01000000
00000000
00000000
00000000
,
10000000
00000000
00000000
00000000
,
00010000
00000000
00000000
00000000
,
01000000
00000000
00000000
00000000
,
00100000
00000000
00000000
00000000
,
10010000
00000000
00000000
00000000
,
01000000
00000000
01000000
00000000
,
01000000
00000000
00000000
00000000
,
00010000
00000000
00010000
00000000
,
00010000
00000000
00000000
00000000
,
00001000
00000000
00001000
00000000
,
00001000
00000000
00000000
00000000
,
00000100
00000000
00000100
00000000
,
00001001
00000000
00000000
00000000
,
00000010
00000000
00000010
00000000
,
00000010
00000000
00000000
00000000
,
00001000
00000000
00001000
00000000
,
00001000
00000000
00000000
00000000
,
00010000
00000000
00010000
00000000
,
00010000
00000000
00000000
00000000
,
00100000
00000000
00100000
00000000
,
10010000
00000000
00000000
00000000
,
01000000
00000000
00000000
00000000
,
01100000
00000000
00000000
00000000
,
00010000
00000000
00000000
00000000
,
00011000
00000000
00000000
00000000
,
00000100
00000000
00000000
00000000
,
00000001
00000000
00000000
00000000
,
00000010
00000000
00000000
00000000
,
00000200
00000000
00000000
00000300
,
00000100
00000000
00000100
00000000
,
00020000
00000000
00000000
00030000
,
00010000
00000000
00010000
00000000
,
00002000
00000000
00000000
00003000
,
00001000
00000000
00001000
00000000
,
00010000
00000000
00010000
00000000
,
00000200
00000000
00000000
00000300
,
00000100
00000000
00000000
00000000
,
00010000
00000000
00000000
00000000
,
00001000
00000000
00000000
00000000
,
01000000
00000000
00000000
00000000
,
00100000
00000000
00000000
00000000
,
10000000
00000000
00000000
00000000
,
00010000
00000000
00000000
00000000
,
00100000
00000000
00000000
00000000
,
00001000
00000000
00000000
00000000
;
#NOTES:
     dance-double:
     :
     Easy:
     4:
     :
00000000
00000000
00000000
00000000
,
00000000
00000000
00000000
00000000
,
00000000
00000000
00000000
00000000
,
00000000
00000000
00000000
00000000
,
00000001
00000100
00000001
00000000
,
00000100
00001000
00000100
00000000
,
00000020
00000000
00000030
00000000
,
00020000
00000000
00030000
00000000
,
00002000
00000000
00003000
00000000
,
00200000
00000000
00300000
00000000
,
01000000
00000000
10000000
00000000
,
00100000
01000000
00100000
01000000
,
00001000
00000000
00010000
00000000
,
00000010
00000000
00000100
00000000
,
00001001
00000000
00000001
00000000
,
00000010
00000000
00000100
00000000
,
00010000
00000000
00001000
00000000
,
01000000
00000000
00100000
00000000
,
10000000
00000000
01000000
00000000
,
00010000
00000000
00001000
00000000
,
00000100
00000000
00000001
00000000
,
00001000
00001000
00000001
00000001
,
00000010
00000000
00001000
00000000
,
00010000
00000000
00001000
00000000
,
00100000
00000000
00010000
00000000
,
10000000
00000000
00100000
00000000
,
01000000
00000000
00001000
00000000
,
00010000
00000000
00000100
00000000
,
00001000
00000000
00000001
00000000
,
00000100
00000100
00000100
00000100
,
00000010
00001001
00000000
00000000
,
00000001
00000010
00000100
00010000
,
00001000
00011000
00000000
00000000
,
00010000
00001000
00100000
00010000
,
01000000
00000000
00100000
10000000
,
01000000
10000000
00100000
00010000
,
00001000
00010000
00001000
00000000
,
00000010
00000000
00000001
00000000
,
00001000
00000000
00000001
00000000
,
00000100
00000010
00010000
00001000
,
01000000
00000000
00010000
00000000
,
10000000
00100000
01000000
00010000
,
00100000
00000000
01000000
00000000
,
10000000
00000000
00100000
00000000
,
01000000
00000000
00001000
00000000
,
00010000
00000000
00000100
00000010
,
00000100
00001001
00000000
00000000
,
00000010
00000001
00000100
00001000
,
00010000
00011000
00000000
00000000
,
00001000
00010000
01000000
10000000
,
00100000
10010000
00000000
00000000
,
00100000
01000000
00100000
10000000
,
00010000
10000000
01000000
00000000
,
00010000
00000000
00001000
00000000
,
00010000
00000000
00000000
00000000
;
#NOTES:
     dance-double:
     :
     Medium:
     6:
     :
00000000
00000000
00000000
00000000
,
00000000
00000000
00000000
00000000
,
00000000
00000000
00000000
00000000
,
00000000
00000000
00000000
00000000
00000000
00000000
00000000
00100000
,
00000000
10100000
01000000
01001000
,
00000100
00010100
00001000
00001010
,
00000001
00000100
00001000
00000000
,
00010000
00000100
00010000
00001000
,
01000000
00100000
10000000
00000000
,
00010000
00100000
01000000
10000000
,
00200000
00000000
00000000
00320000
00000000
00000000
00031000
00000000
,
00100000
00000000
00001000
00000000
00010000
00000000
00000010
00001000
,
00000200
00000000
00000000
00000000
,
00000300
00000000
00000000
00000000
,
00000110
00000010
00000001
00000100
,
00001000
00010000
00002000
00003000
,
00100000
00010000
10000000
00100000
,
10000000
01000000
00020000
00030000
,
00001000
00000100
00000001
00000010
,
00001000
00010000
00000020
00000030
,
00010000
00001000
00100000
00001000
,
00011000
01001000
00011000
00010100
,
00000010
00000001
00001000
00000001
,
00000100
00001000
00020000
00030000
,
01000000
10000000
00100000
01000000
,
00001000
00100000
00020000
00030000
,
10000000
01000000
00100000
00001000
,
00010000
00000000
00000010
00000000
00000000
00000100
00000000
00000000
,
00000001
00000010
00000100
00001000
,
00000100
00000100
00000100
00000100
,
00000010
00000000
00000011
00000000
00000000
00000001
00000100
00000001
,
00000010
00001000
00010000
00001000
,
00100000
00000000
00110000
00000000
00000000
00010000
10000000
00010000
,
01000000
00100000
10000000
00010000
,
00100000
00001000
00010000
00100000
,
10000000
00000000
01000000
00000000
00010000
00000000
00001000
00010000
,
00000000
00000100
00000000
00000010
00000000
00000001
00000100
00000010
,
00001000
00000001
00000100
00001000
,
00010000
00000000
00000000
00001000
00000000
00000000
00010000
00000000
,
00000100
00010000
00001000
01000000
,
00100000
00000000
00000000
10000000
00000000
00000000
00010000
00000000
,
01000000
00100000
10000000
00100000
,
00010000
00000000
00000000
00001000
00000000
00000000
00000000
00010000
,
00000010
00000000
00000000
00010000
00000100
00000000
00000010
00000000
,
00000001
00001000
00000001
00000100
,
00000010
00010000
00010100
01001000
,
00100000
10010000
00000000
01000000
,
00100000
00010000
10000000
01000000
,
00010000
00011000
00000000
00001000
,
00000100
00000001
00000010
00000100
,
00010000
00011000
00000000
00001000
,
01000000
00010000
00100000
01000000
,
10000000
10010000
00000000
00010000
,
10000000
01000000
00010000
00001000
,
00000100
00000000
00000000
00000000
;
#NOTES:
     dance-double:
     :
     Hard:
     8:
     :
00000000
00000000
00000000
00000000
,
00000000
00000000
00000000
00000000
,
00000000
00000000
00000000
00000000
,
00000000
00000000
00000000
00000000
00000000
00000000
00000000
10000000
,
00000000
00100000
01000000
00000000
00001000
00000000
00010000
00000000
,
00100000
10000000
01000000
00000000
00010000
00000000
00001000
00010000
,
00000000
00000000
00000100
00000000
00000100
00000000
00000001
00001000
00000000
00000000
00000000
00000000
00000000
00000000
00000001
00000000
,
00000000
00000000
00000100
00000000
00000100
00000000
00000010
00010000
00000000
00000000
00001000
00000000
00100000
01000000
00100000
00000000
,
00000000
00000000
00001000
00000000
00001000
00000000
01000000
00010000
00000000
00000000
00000000
00000000
00000000
00000000
00100000
00000000
,
00000000
00000000
01000000
00000000
01000000
00000000
10000000
00010000
00000000
00000000
01000000
00000000
00100000
10000000
00000000
00000000
,
01000000
00010000
00001000
00010000
00000000
00000000
00000100
00000100
,
00000010
00000000
00000001
00000001
00000100
00000000
00000010
00000010
,
00010000
00000100
00000010
00000100
,
00010000
00000000
00001000
00000000
01000000
00100000
10000000
01000000
,
00100000
00001000
00010000
00000000
00001000
01000000
00100000
00000000
,
01000000
00000000
00001000
00000000
00010000
00000000
00000100
00000000
00000010
00000000
00000000
00000001
00000000
00000000
00001000
00000000
,
00000000
00000001
00000100
00000000
00000010
00010000
00001000
00000000
,
00010000
00000000
00001000
00000000
00100000
00000000
00010000
00000000
01000000
00000000
00000000
00010000
00000000
00000000
10000000
00000000
,
00000000
00100000
01000000
00000000
00100000
10000000
01000000
00000000
,
00010000
00000000
00001000
00000000
00010000
00000000
00000100
00000000
00000010
00000000
00000000
00000001
00000000
00000000
00000100
00000000
,
00000000
00001000
00010000
00000100
00010000
00001000
01000000
00100000
,
10000000
01000000
00010000
00001000
,
00000100
00000001
00000010
00000000
00000100
00001000
00000010
00000000
,
00000100
00000000
00000010
00000000
00010000
00000000
00000100
00000000
00001000
00000000
00000000
00000001
00000000
00000000
00000100
00000000
,
00000000
00001000
00010000
00000000
00000100
00010000
00001000
00000000
,
00010000
00000000
00001000
00000000
01000000
00000000
00100000
00000000
10000000
00000000
00000000
00010000
00000000
00000000
00100000
00000000
,
00000000
01000000
00100000
00000000
00001000
00010000
00100000
00000000
,
00010000
00001000
00000020
00000000
00000000
00000031
00000000
00000000
,
00000000
00000100
00001000
00010000
00000100
00010000
00001000
00010000
,
01000000
01000000
01000000
01000000
,
10000000
00000000
10010000
00000000
00000000
00100000
10000000
01000000
,
00010000
00000000
00001000
00000000
00000100
00000000
00000001
00000010
,
00001000
00000000
00011000
00000000
00000000
00000100
00000010
00000001
,
00001000
00000000
00000010
00000000
00010000
00000000
00000100
00000010
,
00000100
00000000
00000000
00020000
00000000
00032000
00000000
00003100
,
00000001
00000010
00000100
00010000
00001000
00100000
00001000
00010000
,
00000000
00100000
00000000
10000000
00000000
01000000
00100000
00001000
,
01000000
10000000
01000000
00010000
00100000
00001000
01000000
00000000
,
00100000
10000000
00010000
00100000
01000000
00010000
01000000
10000000
,
10100000
00000000
01001000
00000000
00010100
00000000
00000011
00000001
,
00000100
00001000
00000100
00000010
00010000
00001000
00000010
00000001
,
00000101
00000000
00010010
00000000
00101000
00000000
11000000
10000000
,
00100000
00010000
00001000
00100000
00001000
01000000
00100000
10000000
,
01000000
00000000
00000000
10000000
00100000
10000000
01000000
00000000
,
00010000
00001000
01000000
00000000
00001000
00010000
00000100
00000000
,
00000010
00000001
00000010
00000000
00000100
00000000
00010000
00000000
00011000
00000000
00000000
00000000
00011000
00000000
00000000
00000000
,
00100000
00000000
00000000
00000000
00000000
00000000
00000000
00000000
00000000
00000000
00000000
00000000
00000000
00000000
00000000
00000000
20020000
00000000
00000000
00000000
00000000
00000000
00000000
00000000
00000000
00000000
00000000
00000000
00000000
00000000
00000000
00000000
00000000
00000000
00000000
00000000
00000000
00000000
00000000
00000000
00000000
00000000
00000000
00000000
00000000
00000000
00000000
30000000
00030000
00000000
00000000
00000000
00000000
00000000
00000000
00000000
00000000
00000000
00000000
00000000
00000000
00000000
00000000
00000000
,
01000000
00010000
00001000
00000100
00000001
00000010
00001000
00010000
,
00100000
20020000
00000000
30030000
,
00100000
00010000
00001000
00000010
00000001
00000100
00001000
00010000
,
01000000
20020000
00000000
30030000
,
01000000
00010000
00001000
00000100
00000001
00000010
00000100
00020000
,
00000000
00032000
00000000
02003000
00000000
03000000
00000000
00000000
,
00100000
10000000
11000000
01010000
,
00011000
00000000
00000000
00000000
;
#NOTES:
     dance-double:
     :
     Challenge:
     9:
     :
00000000
00000000
00000000
00000000
,
00000000
00000000
00000000
00000000
,
00000000
00000000
00000000
00000000
,
00000000
00000000
00000000
00000000
00000000
00000000
00000000
00000001
,
00000000
00000100
00000010
00000000
00010000
00001000
00100000
00000000
,
01000000
10000000
00010000
00000000
01000000
00100000
10000000
00010000
,
00000000
00000000
01000000
00000000
00001000
00000000
00010000
00000100
00000000
00000000
00000000
00000000
00000000
00000000
00000010
00000000
,
00000000
00000000
00000001
00000000
00000100
00000000
00001000
00010000
00000000
00000000
00001000
00000000
00100000
00010000
01000000
00000000
,
00000000
00000000
10000000
00000000
01000000
00000000
00001000
00010000
00000000
00000000
00000000
00000000
00000000
00000000
00100000
00000000
,
00000000
00000000
10000000
00000000
01000000
00000000
00100000
00001000
00000000
00000000
00010000
00000000
00000010
00000100
00000000
00000000
,
00000001
00000010
00000100
00010000
00000010
00000100
00001000
00000100
,
00000001
00000010
00000100
00010000
01000000
00100000
00001000
01000000
,
00100000
10000000
00010000
01000000
00100000
10000000
01000000
00001000
,
00000100
00000010
00000001
00000100
00000010
00010000
00001000
00000000
,
00011000
00000000
00010000
00000000
00001000
00000000
01000000
00000000
00100000
00000000
10000000
00000000
01000000
00000000
00100000
00001000
,
00000000
00001000
01000000
00000000
00001000
00000000
00010000
00000000
00002000
00000000
00000000
00000100
00000000
00000000
00013000
00000000
,
00000000
01000000
10000000
00100000
01000000
00000000
00001000
00000000
00010000
00000000
00000100
00000000
00000010
00000001
00000000
00001000
,
00000000
00000001
00000000
00000100
00000000
00000000
00001000
00000000
00020000
00000000
00000000
01000000
00000000
00000000
00031000
00000000
,
00000000
00000000
01000000
00000000
00100000
00000000
01000000
00000000
00001000
00000000
00100000
00000000
01000000
00000000
10000000
00100000
,
00000000
00100000
01000000
00000000
00001000
00000000
00010000
00000000
00000200
00000000
00000000
00000001
00000000
00000000
00001300
00000000
,
00000000
00000001
00000100
00000010
00010000
00000000
00001000
00000000
00100000
00000000
00010000
00000000
01000000
00000000
00100000
00000000
,
10100000
00101000
00010010
00000011
,
00000010
00000000
00000100
00000000
00010000
00000000
00001000
00000000
01000000
00000000
00010000
00000000
10000000
01000000
00000000
00010000
,
00000000
00001000
01000000
00000000
00100000
00000000
10000000
00000000
11000000
00000000
00000000
01100000
00000000
00000000
00101000
00000000
,
00000000
00000000
00010000
00001000
00010000
00000010
00000000
00000100
00000000
00000001
00000010
00000100
00001000
00000000
00000001
00000000
,
00000010
00000000
00001000
00000000
00010000
00000000
00000010
00000000
00001010
00000000
00000000
00001001
00000000
00000000
00000101
00000000
,
00000000
00000000
00000100
00000000
00000010
00000000
00010000
00000000
00100000
00000000
10000000
00000000
01000000
00100000
00000000
00100000
,
00001000
01000000
00100000
00000000
00000000
00011000
00000000
00000000
,
00000000
00000010
00000001
00001000
00000010
00000001
00000010
00010000
,
00000100
00000100
00000100
00000100
,
00010000
00000000
00011000
00000000
00000000
00001000
01000000
00010000
,
10000000
00010000
00000000
00100000
00000000
01000000
00000000
10000000
00000000
00000000
00100000
01000000
00000000
00000000
00100000
00000000
,
00010000
00000000
00011000
00000000
00000000
00000000
00001000
00000010
,
00000001
00000000
00000000
00000100
00000000
00000000
00000010
00000000
00010000
00000100
00000000
00001000
00000000
00000000
00000001
00000000
,
00000100
00000000
00000000
00000000
00000000
00000000
00001000
00010000
00000010
00000000
00010000
00001000
00100000
00000000
00010000
00000000
,
01000000
10000000
01000000
00001000
00100000
00010000
01000000
00001000
,
00000000
00010000
00000000
00000100
00000000
00000010
00000001
00000100
,
00001000
00010000
00000100
00010000
00001000
00010000
01000000
00000000
,
10000000
01000000
00100000
00001000
00010000
00100000
10000000
00010000
,
01000000
00001000
00011000
00000100
00000010
00000001
00000101
00001000
,
00000100
00000010
00001000
00010000
00000010
00000100
00000001
00000010
,
00000100
00010000
00011000
01000000
00100000
10000000
11000000
00010000
,
01000000
00100000
00010000
00100000
10000000
00010000
00100000
00001000
,
01000000
00100000
01000000
00010000
00100000
00001000
00010000
00000010
,
00001000
00000100
00000001
00000100
00000010
00000001
00000100
00001000
,
00010000
00001000
00010000
00000000
00000100
00000000
00000010
00000001
00000101
00000000
00001000
00000000
00001100
00000000
00000010
00000001
,
00000100
00000000
00001000
00000000
00011000
00000000
00000000
00000000
00000100
00000010
00000001
00000000
00000100
00000000
00001000
00010000
,
00000100
00000000
00010000
00000000
00001000
00000000
01000000
00000000
00100000
00000000
10000000
00000000
00010000
00000000
00100000
01000000
,
10000000
00000000
01000000
00000000
01100000
00000000
00000000
00000000
00001000
00010000
00000010
00000000
00001000
00000000
00000001
00000010
,
00000100
00000000
00010000
00000000
00001000
00000000
00000010
00000000
00001000
00000000
00010000
00000000
00100000
00000000
10000000
01000000
,
00100000
00000000
00001000
00000000
00011000
00000000
00000000
00000000
00000100
00000010
00000001
00000000
00001000
00000000
00000001
00000100
,
00001000
00000000
00000100
00000000
00000001
00000000
00000010
00000000
00000100
00000000
00010000
00000000
00001000
00000000
00010000
00000010
,
00000100
00000000
00000001
00000000
00001001
00000000
00000000
00000000
00000100
00010000
00001000
00000000
01000000
00000000
00100000
10000000
,
01000000
00000000
00010000
00000000
01000000
00000000
10000000
00000000
00100000
00000000
00010000
00000000
00001000
00000000
01000000
00001000
,
00010000
00000000
00000000
00000000
;
