
//----- song ID: como -----
#TITLE:CONTROL (The Attic remix);
#ARTIST:90 GROOVERS;
#BANNER:CONTROL (The Attic remix).png;
#BACKGROUND:CONTROL (The Attic remix)-bg.png;
#CDTITLE:./CDTitles/DDR UNIVERSE3.png;
#MUSIC:CONTROL (The Attic remix).ogg;
#OFFSET:-0.093;
#SAMPLESTART:3.569;
#SAMPLELENGTH:15;
#BPMS:0=138;
#NOTES:
     dance-single:
     :
     Beginner:
     1:
     :
0000
0000
0000
0000
,
0000
0000
0000
0000
,
0010
0010
0000
0000
,
0100
0000
0000
0000
,
0001
0001
0000
0000
,
1000
0000
1000
0000
,
0100
0100
0000
0000
,
0010
0000
0000
0000
,
0001
0001
0000
0000
,
1000
0000
0010
0000
,
0200
0000
0000
0300
,
0000
0000
0000
0000
,
0020
0000
0000
0030
,
0000
0000
0000
0000
,
0200
0000
0000
0300
,
0000
0000
0000
0000
,
0002
0000
0000
0003
,
0000
0000
0000
0000
,
1001
0000
0000
0000
,
1000
1000
1000
0000
,
1001
0000
0000
0000
,
0001
0001
0001
0000
,
0110
0000
0000
0000
,
0100
0100
0100
0000
,
0110
0000
0000
0000
,
0010
0010
0010
0000
,
0020
0000
0000
0030
,
0000
0000
0000
0000
,
0200
0000
0000
0300
,
0000
0000
0000
0000
,
0010
0010
0000
0000
,
0100
0100
0000
0000
,
0001
0001
0000
0000
,
1000
1000
0000
0000
,
1001
0000
0000
0000
,
0001
0001
0001
0000
,
1001
0000
0000
0000
,
1000
1000
1000
0000
,
0110
0000
0000
0000
,
0010
0010
0010
0000
,
0110
0000
0000
0000
,
0100
0100
0100
0000
,
0001
0000
0001
0000
,
1000
0000
1000
0000
,
0001
0000
0001
0000
,
0010
0010
0010
0000
,
0001
0000
0001
0000
,
0100
0000
0100
0000
,
0010
0000
0010
0000
,
1000
1000
1000
0000
,
0020
0000
0000
0030
,
0000
0000
0000
0000
,
0200
0000
0000
0300
,
0000
0000
0000
0000
,
0020
0000
0000
0030
,
0000
0000
0000
0000
,
2000
0000
0000
3000
,
1000
0000
1000
0000
;
#NOTES:
     dance-single:
     :
     Easy:
     3:
     :
0000
0000
0000
0000
,
0000
0000
0000
0000
,
0010
0000
0010
0010
,
1000
0000
0100
0000
,
1000
0000
0001
0000
,
0100
0100
0001
0000
,
1000
0000
1000
1000
,
0001
0000
0100
0000
,
0001
0000
1000
0000
,
0001
0001
1000
1000
,
1001
0000
0000
0000
,
0100
0010
0100
0010
,
0110
0000
0000
0000
,
0001
0010
0100
1000
,
1001
0000
0000
0000
,
0001
0010
0001
0000
,
0001
1000
0010
0100
,
0100
0100
0100
0000
,
0110
0000
1000
0001
,
1000
0010
0100
0000
,
0001
0001
1000
0010
,
1000
0010
1000
0000
,
1001
0000
0001
0001
,
0010
0100
1000
0000
,
1000
0001
1000
0001
,
0010
0100
0010
0000
,
0110
0000
0000
0000
,
1000
0001
1000
0001
,
1001
0000
0000
0000
,
0002
0003
0200
0300
,
0110
0000
0000
0000
,
0001
1000
0001
1000
,
1001
0000
0000
0000
,
0100
0100
0010
0010
,
0110
0000
0001
1000
,
0001
0010
0100
0000
,
0001
0001
1000
0010
,
1000
0010
1000
0000
,
0110
0000
1000
1000
,
0001
0100
0010
0000
,
0010
1000
0100
0010
,
0001
0010
0100
0000
,
2000
0000
3000
0000
,
0002
0000
0003
0000
,
0010
1000
0100
1000
,
0001
0001
1000
0000
,
0200
0000
0300
0000
,
0020
0000
0030
0000
,
2000
0000
3000
0000
,
0001
0001
1000
0001
,
1001
0000
0000
0000
,
0010
1000
0010
1000
,
0001
0100
0001
0100
,
0010
0000
0010
0010
,
0200
0000
0300
0000
,
0100
0001
0100
0001
,
1000
0001
1000
0001
,
0020
0000
0030
0100
,
0010
0000
0000
0000
;
#NOTES:
     dance-single:
     :
     Medium:
     5:
     :
0000
0000
0000
0000
,
0000
0000
0000
0000
,
1000
0002
0010
0013
,
1000
0020
0100
0130
,
1000
1000
0001
0010
,
0010
0001
0100
0000
0110
0000
0000
0000
,
0010
2000
0100
3100
,
0001
0020
0100
0130
,
1000
0010
0001
1000
,
0020
0230
0320
0230
,
0310
0100
0001
0000
0000
0000
1000
0000
,
0001
0010
0100
0000
0000
0000
0010
0000
,
0100
1000
0010
0000
0000
0000
1000
0000
,
0002
0203
0320
2030
,
3001
0100
0010
0000
0000
0000
1000
0000
,
0010
0100
0001
0000
0000
0000
0010
0000
,
0100
1000
0001
0000
1000
0000
0001
0000
,
1001
0000
0010
0100
,
0010
0000
0010
0000
1000
0100
1000
0000
,
0001
0000
0001
0000
0010
0100
1000
0000
,
0010
0000
1000
0000
0100
0010
0001
0000
,
1000
0000
0001
0000
1000
0001
1000
0000
,
0010
0000
0100
0000
1000
0100
0001
0000
,
0010
0000
0100
0000
0001
0100
1000
0000
,
0010
0100
0001
1000
,
0010
1000
0100
0000
0000
0000
0110
0000
,
1000
0100
1000
0000
0000
0000
0001
0000
,
0010
0001
0010
0000
0000
0000
0100
0000
,
1000
0010
1000
0000
0000
0000
0001
0000
,
2000
3200
0320
0032
,
1003
0100
1000
0000
0010
0000
0010
0000
,
0001
0100
0001
0000
0100
0000
0100
0000
,
0010
1000
0100
0000
0010
0000
0010
0000
,
1001
0000
0000
0000
1000
0001
1000
0000
,
0010
0000
0100
0000
1000
0100
1000
0000
,
0010
0000
0100
0000
0001
0100
0001
0000
,
0010
0000
1000
0000
0001
0100
1000
0000
,
1000
0000
0001
0000
0010
0100
1000
0000
,
0010
0000
0100
0000
0010
1000
0100
0000
,
0010
0000
0100
0000
0010
0001
0100
0000
,
1000
0001
1000
0010
,
0100
0000
0100
0000
0010
0000
0010
0100
,
0001
0000
1000
0000
0001
1000
0100
0000
,
1000
0000
0001
0000
1000
0010
0100
0000
,
1000
0100
0001
0000
1000
0000
0010
0000
,
0100
0010
1001
0000
,
0001
0000
0010
0000
0001
0100
1000
0000
,
0010
0000
1000
0000
0010
1000
0100
0000
,
1000
0000
0001
0000
0010
0001
0100
0000
,
1000
0010
0001
1000
,
2000
0000
3001
0010
,
0200
0000
1300
0010
,
0200
0000
0301
1000
,
0002
0000
0013
0100
,
2000
0000
3001
0100
,
0020
0000
1030
0001
,
2000
0000
3001
0010
,
0100
0010
1000
0001
,
1001
0000
0000
0000
;
#NOTES:
     dance-single:
     :
     Hard:
     7:
     :
0000
0000
0000
0000
,
0000
0000
0000
0000
,
0001
0010
0001
0100
0010
0000
0001
0000
,
1000
0100
0010
0100
1000
0000
0001
0000
,
1000
0100
1000
0000
0010
0000
0100
0001
,
0010
0100
1000
0010
,
1000
0100
1000
0010
0100
0000
1000
0000
,
0001
0010
0100
0010
0100
0000
1000
0000
,
0010
1000
0100
0000
1000
0000
0001
0100
,
1000
0100
0001
1000
,
0001
0010
0001
0010
0000
0100
0000
0010
,
0100
1000
0100
1000
0000
0001
0000
1000
,
0010
0100
0010
0100
0000
0001
0000
0100
,
0020
2030
3002
0203
,
0301
1000
0001
1000
0000
0100
0000
1000
,
0001
0010
0100
1000
0000
0001
0000
1000
,
0001
0100
1000
0010
,
0001
0010
0000
0100
0010
0100
1000
0000
,
0001
0000
0000
0010
0000
0000
1000
0000
0001
0000
0000
0000
1001
0000
0000
0000
,
1000
0000
0000
0100
0000
0000
0010
0000
0100
0000
0000
0000
0110
0000
0000
0000
,
0001
0000
0000
1000
0000
0000
0100
0000
1000
0000
0010
0000
0100
0000
0001
0000
,
2000
0000
0000
0000
3002
0000
0000
0003
1000
0000
0000
0000
1001
0000
0000
0000
,
0001
0000
0000
0100
0000
0000
1000
0000
0100
0000
0000
0000
1100
0000
0000
0000
,
1000
0000
0000
0010
0000
0000
0100
0000
0001
0000
0000
0000
0101
0000
0000
0000
,
0100
0000
0000
0010
0000
0000
1000
0000
0100
0000
0010
0000
0001
0000
1000
0000
,
0100
1000
0010
0001
,
0100
0001
0100
0001
0000
0100
0000
0001
,
1000
0010
1000
0010
0000
0100
0000
0010
,
1000
0001
1000
0001
0000
1000
0000
0010
,
0200
0302
2003
3200
,
0310
0001
0010
0001
0000
0010
0000
0001
,
1000
0010
0100
0001
0000
1000
0000
0001
,
1000
0010
1000
0010
0000
1000
0000
0010
,
1000
0100
0001
0100
1000
0000
1100
0000
,
1000
0000
0000
0010
0000
0000
0001
0000
1000
0000
0000
0000
1001
0000
0000
0000
,
0001
0000
0000
1000
0000
0000
0010
0000
0100
0000
0000
0000
0110
0000
0000
0000
,
1000
0000
0000
0100
0000
0000
0010
0000
0001
0000
1000
0000
0010
0000
1000
0000
,
0200
2300
3010
1010
,
0100
0000
0000
0001
0000
0000
0010
0000
0001
0000
0000
0000
0011
0000
0000
0000
,
0100
0000
0000
1000
0000
0000
0010
0000
0100
0000
0000
0000
0110
0000
0000
0000
,
0001
0000
0000
1000
0000
0000
0010
0000
0100
0000
0001
0000
0010
0000
0001
0000
,
2000
3002
2003
3200
,
1300
0000
0000
0100
0000
0000
0001
0000
1000
0000
0000
0000
0110
0000
0000
0000
,
0001
0000
0000
0010
0000
0000
1000
0000
0010
0000
0100
0000
0100
0000
0000
0000
,
0001
0000
0000
1000
0000
0000
0100
0000
0010
0000
0100
0000
1000
0000
0001
0000
,
0200
0320
1030
1010
,
0001
0000
0000
0100
0000
0000
1000
0000
0001
0000
0000
0000
0110
0000
0000
0000
,
0010
0000
0000
1000
0000
0000
0100
0000
0010
0000
0100
0000
0100
0000
0000
0000
,
1000
0000
0000
0001
0000
0000
1000
0000
0010
0000
1000
0000
0100
0000
0010
0000
,
0002
0203
0320
2030
,
3010
0100
0000
1000
0000
0001
0000
1000
,
0000
0100
0000
0010
0000
0001
0010
0100
,
0000
1000
0000
0100
0000
1000
0010
0100
,
0000
1000
0000
0001
0000
1000
0000
0001
,
0000
0010
0000
0100
0000
0010
0000
0001
,
0000
1000
0000
0001
0000
0100
0001
0010
,
0000
0100
0000
0010
0000
0100
1000
0010
,
0000
0100
0000
0001
0000
0100
0000
0010
,
1000
0000
0000
0000
;
#NOTES:
     dance-double:
     :
     Beginner:
     1:
     :
00000000
00000000
00000000
00000000
,
00000000
00000000
00000000
00000000
,
00000001
00000001
00000000
00000000
,
00000100
00000000
00000000
00000000
,
00000010
00000010
00000000
00000000
,
00010000
00000000
00001000
00000000
,
00010000
00010000
00000000
00000000
,
01000000
00000000
00000000
00000000
,
00100000
00100000
00000000
00000000
,
00010000
00000000
10000000
00000000
,
02000000
00000000
00000000
03000000
,
00000000
00000000
00000000
00000000
,
00020000
00000000
00000000
00030000
,
00000000
00000000
00000000
00000000
,
00002000
00000000
00000000
00003000
,
00000000
00000000
00000000
00000000
,
00000020
00000000
00000000
00000030
,
00000000
00000000
00000000
00000000
,
00000001
00000000
00000000
00000000
,
00000100
00000000
00000010
00000000
,
00000110
00000000
00000000
00000000
,
00010000
00000000
00001000
00000000
,
00011000
00000000
00000000
00000000
,
00100000
00000000
01000000
00000000
,
01100000
00000000
00000000
00000000
,
10000000
00000000
00010000
00000000
,
02000000
00000000
00000000
03000000
,
00000000
00000000
00000000
00000000
,
00002000
00000000
00000000
00003000
,
00000000
00000000
00000000
00000000
,
00010000
00010000
00000000
00000000
,
00001000
00001000
00000000
00000000
,
00000100
00000100
00000000
00000000
,
00000001
00000001
00000000
00000000
,
00001000
00000000
00000000
00000000
,
00000100
00000000
00000010
00000000
,
00000110
00000000
00000000
00000000
,
00010000
00000000
00001000
00000000
,
00011000
00000000
00000000
00000000
,
00100000
00000000
01000000
00000000
,
01100000
00000000
00000000
00000000
,
01000000
01000000
01000000
00000000
,
00100000
00000000
00100000
00000000
,
00010000
00000000
00010000
00000000
,
01000000
00000000
01000000
00000000
,
00001000
00001000
00001000
00000000
,
00010000
00000000
00010000
00000000
,
00001000
00000000
00001000
00000000
,
00000010
00000000
00000010
00000000
,
00000001
00000001
00000001
00000000
,
00002000
00000000
00000000
00003000
,
00000000
00000000
00000000
00000000
,
00000200
00000000
00000000
00000300
,
00000000
00000000
00000000
00000000
,
00020000
00000000
00000000
00030000
,
00000000
00000000
00000000
00000000
,
00002000
00000000
00000000
00003000
,
00010000
00000000
00001000
00000000
;
#NOTES:
     dance-double:
     :
     Easy:
     4:
     :
00000000
00000000
00000000
00000000
,
00000000
00000000
00000000
00000000
,
00000001
00000000
00000100
00001000
,
00010000
00000000
00001000
00010000
,
01000000
00000000
00100000
00010000
,
00200000
00000000
00300000
00000000
,
00010000
00000000
10000000
01000000
,
00100000
00000000
00001000
00010000
,
00000100
00000000
00001000
00000000
,
00000010
00001000
00000001
00001000
,
00001001
00000000
00000000
00000000
,
00000110
00000000
00000000
00000000
,
00011000
00000000
00000000
00000000
,
00001000
00010000
01000000
10000000
,
10010000
00000000
00000000
00000000
,
01100000
00000000
00000000
00000000
,
00011000
00000000
00000000
00000000
,
00010000
00000000
00001000
00000100
,
00000010
00000000
00001000
00001000
,
00000200
00000000
00000310
00000000
,
00000001
00000000
00001000
00000100
,
00020000
00030000
00001000
00000000
,
00100000
00000000
00010000
00010000
,
02000000
00000000
03100000
00000000
,
10000000
00000000
01000000
01000000
,
00100000
00001000
00010000
00000000
,
00011000
00000000
00000000
00000000
,
00000110
00000000
00000000
00000000
,
00022000
00000000
00033000
00000000
,
00011000
00001000
00100000
01000000
,
10010000
00000000
00000000
00000000
,
01100000
00000000
00000000
00000000
,
00022000
00000000
00033000
00000000
,
00000110
00000010
00000100
00000010
,
00000100
00000000
00000001
00000001
,
00000020
00000000
00000030
00000000
,
00000100
00000000
00010000
00000000
,
00001000
01000000
00100000
00000000
,
10000000
00000000
00010000
00010000
,
00200000
00000000
00300000
00000000
,
00001000
00010000
00001000
00010000
,
00020000
00000000
00030000
00000000
,
00000100
00000010
00000001
00001000
,
00000001
00000000
00000100
00000000
,
00000010
00001000
00000100
00010000
,
00001000
00000000
00100000
00000000
,
00001000
01000000
00100000
10000000
,
10000000
01000000
00010000
00000000
,
01000000
00000000
10000000
00100000
,
01000000
00001000
00010000
00001000
,
00010000
00000000
00001000
00010000
,
00000100
00000000
00000010
00000001
,
00000010
00000001
00000000
00000100
,
00001000
00000000
00001000
00010000
,
01000000
00000000
00100000
00010000
,
00100000
00000000
00001000
00010000
,
00001000
00000100
00000000
00000010
,
00001000
00000100
00000001
00000100
,
00001000
00000000
00000000
00000000
;
#NOTES:
     dance-double:
     :
     Medium:
     4:
     :
00000000
00000000
00000000
00000000
,
00000000
00000000
00000000
00000000
,
00010000
00100000
01000000
00100000
,
00001000
00010000
00001000
00000100
,
00000010
00001000
00000100
00000010
,
00000001
00000010
00000001
00000000
00001000
00000000
00000001
00000000
,
00001000
00000100
00000010
00000100
,
00010000
00001000
00010000
01000000
,
00100000
01000000
10000000
00000000
00100000
00000000
01000000
00000000
,
00010000
10000000
00010000
00000000
10000000
00000000
01000000
00000000
,
10000000
01000000
00100000
00010000
,
00001000
00000010
00000100
00000001
,
00000100
00001000
00000100
00000001
,
00000010
00000100
00000010
00000000
00000100
00000000
00001000
00000000
,
00000001
00000100
00000010
00001000
,
00010000
00100000
01000000
10000000
,
00010000
00010000
10000000
10000000
,
01000000
00100000
00000000
00000000
10000000
00000000
01000000
00000000
,
00010000
00001000
00011000
00000000
,
00010000
00000000
00000100
00001000
00000100
00000000
00000000
00000000
,
00000010
00000001
00000100
00000010
,
00001000
00000001
00001000
00000000
,
00000100
00010000
00011000
00000000
,
01000000
00000000
00010000
00100000
00010000
00000000
00000000
00000000
,
00010000
01000000
10000000
01000000
,
00020000
00130000
02000000
03100000
,
00100000
00010000
01000000
10000000
,
01000000
00001000
00100000
00001000
,
00010000
00000100
00000010
00000001
,
00000001
00001000
00000010
00000000
00000100
00000000
00000100
00000000
,
00000010
00001000
00000100
00000001
,
00000100
00001000
00000010
00010000
,
00001000
01000000
00010000
10000000
,
00010000
10000000
00000000
00000000
10000000
01000000
10000000
00000000
,
01000000
00100000
01100000
00000000
,
00001000
00000000
00010000
00001000
00010000
00000000
00000000
00000000
,
00000100
00000010
00000001
00000100
,
00000001
00000010
00000001
00000000
00000100
00000000
00000010
00000000
,
00001000
00000100
00000110
00000000
,
00010000
00000000
00001000
00010000
01000000
00000000
00000000
00000000
,
10000000
00100000
01000000
00010000
,
10000000
01000000
00100000
00000000
,
10000000
01000000
00100000
00001000
,
00010000
00001000
00010000
00000000
00000100
00000000
00000000
00000000
,
00000010
00000001
00000100
00000001
,
00000002
00002003
00003002
00002003
,
00003001
00000100
00000010
00010000
,
00001000
00010000
00001000
00000000
01000000
00000000
00000000
00000000
,
00100000
01000000
00010000
00100000
,
02000000
23000000
32000000
23000000
,
30010000
00000000
00000000
00000000
00100000
00100000
00100000
00000000
,
00001000
00000000
00000000
00000000
00010000
00010000
00010000
00000000
,
00000100
00000000
00000000
00000000
00000010
00000010
00000010
00000000
,
00000100
00000000
00001000
00000010
,
00000100
00000000
00000000
00000000
00000001
00000001
00000001
00000000
,
00001000
00000000
00000000
00000000
00000100
00000100
00000100
00000000
,
00010000
00000000
00000000
00000000
00001000
00001000
00001000
00000000
,
00010000
01000000
00100000
00010000
,
10000000
00000000
00000000
00000000
;
#NOTES:
     dance-double:
     :
     Hard:
     6:
     :
00000000
00000000
00000000
00000000
,
00000000
00000000
00000000
00000000
,
01000000
00000000
00000000
00100000
00000000
00000000
00010000
00000000
01000000
00000000
00000000
00000000
00010000
00000000
00000000
00000000
,
00100000
00000000
00000000
00001000
00000000
00000000
00010000
00000000
00001000
00000000
00000000
00000000
00000000
00000000
00000000
00000000
,
00010000
00000000
00000000
00000100
00000000
00000000
00000010
00000000
00000100
00000000
00000000
00000000
00001000
00000000
00000010
00000000
,
00000100
00000001
00001000
00000000
,
00000001
00000000
00000000
00000010
00000000
00000000
00000100
00000000
00000010
00000000
00000000
00000000
00000001
00000000
00000000
00000000
,
00000100
00000000
00000000
00001000
00000000
00000000
00010000
00000000
00100000
00000000
00000000
00000000
00000000
00000000
00000000
00000000
,
01000000
00000000
00000000
00010000
00000000
00000000
10000000
00000000
01000000
00000000
00000000
00000000
00100000
00000000
00000000
00000000
,
01000000
10000000
00100000
01000000
,
00010000
00100000
00001000
00010000
00000000
00001000
00000000
00010000
,
00000100
00000010
00000100
00001000
00000000
00000010
00000000
00000100
,
00000001
00000010
00000001
00001000
00000000
00000001
00000000
00000100
,
00001000
00000000
00010000
00000000
00100000
00000000
10000000
01000000
,
10000000
00100000
01000000
00010000
00000000
10000000
00000000
01000000
,
00100000
00001000
00010000
00000100
00000000
00001000
00000000
00000010
,
00000100
00000001
00001000
00000010
,
00000100
00000001
00000000
00001000
00000100
00001000
00000100
00000000
,
00001000
00000000
00000010
00000000
00000100
00000001
00000000
00001000
,
00000100
00000000
00010000
00000000
01000000
00100000
00000000
00010000
,
01000000
00100000
01000000
00010000
,
10000000
00000000
00010000
00000000
10000000
01000000
00000000
10000000
,
00100000
00000000
01000000
00000000
00001000
00010000
00000000
00000100
,
00001000
00000000
00000010
00000000
00001000
00000100
00000000
00000010
,
00000001
00000000
00000100
00000000
00000010
00000000
00001000
00000100
,
00001000
00000001
00000100
00010000
,
01000000
00010000
00100000
01000000
00000000
10000000
00000000
00010000
,
10000000
00100000
01000000
00010000
00000000
01000000
00000000
00001000
,
00010000
00000100
00000010
00000001
00000000
00001000
00000000
00000010
,
00001000
00000100
00000010
00000001
,
00000200
00000010
00000010
00000310
,
00000010
00001000
00000100
00010000
00000000
00001000
00000000
01000000
,
00100000
10000000
01000000
00100000
00000000
00010000
00000000
10000000
,
00010000
01000000
00010000
00100000
01000000
10000000
00010000
00000000
,
00100000
00000000
00001000
00000000
00010000
00001000
00000000
00000100
,
00000010
00000000
00001000
00000000
00000100
00000010
00000000
00000100
,
00001000
00000001
00000100
00001000
,
00010000
00000000
00100000
00000000
10000000
00010000
00000000
00100000
,
01000000
00000000
10000000
00000000
00010000
01000000
00000000
00100000
,
10000000
00000000
01000000
00000000
00100000
00001000
00000000
00010000
,
00001000
00000000
00000100
00000000
00000010
00000000
00001000
00000100
,
00001000
00000001
00000010
00000100
,
00001000
00000000
00000001
00000000
00000100
00000010
00000000
00001000
,
00000100
00000000
00010000
00000000
00001000
00100000
00000000
00010000
,
01000000
00100000
01000000
00010000
,
00100000
00000000
01000000
00000000
10000000
00010000
00000000
00100000
,
00001000
00000000
00010000
00000000
00000100
00000010
00000000
00000001
,
00001000
00000000
00000001
00000000
00000100
00000010
00000000
00010000
,
00001000
00000000
00010000
00000000
01000000
00000000
00100000
00010000
,
00100000
00010000
01000000
10000000
,
01000000
00010000
00000000
00100000
00000000
00001000
00000000
00010000
,
00000000
00000100
00000000
00000010
00000000
00000100
00001000
00000010
,
00000000
00000100
00000000
00000001
00000000
00001000
00000100
00010000
,
00000000
00001000
00000000
00100000
00000000
01000000
00000000
10000000
,
00000000
00010000
00000000
10000000
00000000
01000000
00000000
00100000
,
00000000
00001000
00000000
00010000
00000000
00000100
00000010
00000001
,
00000000
00001000
00000000
00000010
00000000
00000100
00000001
00001000
,
00000100
00000010
00000001
00001000
,
00000100
00000000
00000000
00000000
;
