
//----- song ID: badt -----
#TITLE:Bad Taste;
#ARTIST:The Divys;
#BANNER:Bad Taste.png;
#BACKGROUND:Bad Taste-bg.png;
#CDTITLE:./CDTitles/DDR UNIVERSE3.png;
#MUSIC:Bad Taste.ogg;
#OFFSET:-0.424;
#SAMPLESTART:40.774;
#SAMPLELENGTH:15;
#BPMS:0=142;
#BGCHANGES:-1.25=Bad Taste.avi=1=0=0=0;
#NOTES:
     dance-single:
     :
     Beginner:
     1:
     :
0000
0000
0000
0000
,
0000
0000
0000
0000
,
0000
0000
0000
0000
,
0000
0000
0000
0000
,
1000
0000
0100
0000
,
1000
0000
0000
0000
,
0001
0000
0100
0000
,
0001
0000
0000
0000
,
1000
0000
1000
0000
,
0000
0000
0010
0000
,
0100
0000
0100
0000
,
0000
0000
0001
0000
,
1000
0000
1000
0000
,
0000
0000
0100
0000
,
0010
0000
0010
0000
,
0000
0000
0001
0000
,
1000
0000
0000
0000
,
0001
0000
0000
0000
,
0100
0000
0000
0000
,
0010
0000
0010
0000
,
0100
0000
0000
0000
,
0001
0000
0000
0000
,
1000
0000
0000
0000
,
0100
0000
0100
0000
,
1000
0000
0000
0000
,
0001
0000
1000
0000
,
0001
0000
0000
0000
,
1000
0000
0100
0000
,
0010
0000
0000
0000
,
0100
0000
0010
0000
,
0001
0000
0000
0000
,
1000
0000
0000
0000
,
0001
0000
0000
0000
,
1000
0000
0000
0000
,
2002
0000
0000
3003
,
0000
0000
0000
0000
,
1000
0000
0000
0000
,
0001
0000
0000
0000
,
2002
0000
0000
3003
,
0000
0000
0000
0000
,
1000
1000
0000
0000
,
0001
0000
0000
0000
,
0100
0100
0000
0000
,
0010
0000
0000
0000
,
1000
1000
0000
0000
,
0100
0000
0000
0000
,
0010
0010
0000
0000
,
0001
0000
0000
0000
,
1000
0000
0000
0000
,
0100
0000
1000
0000
,
0001
0000
0000
0000
,
0100
0000
0001
0000
,
1000
0000
0000
0000
,
0010
0000
1000
0000
,
0001
0000
1000
0000
,
1001
0000
0000
0000
,
0010
0000
0000
0000
,
0001
0000
0010
0000
,
0100
0000
0000
0000
,
1000
0000
0100
0000
,
0010
0000
0000
0000
,
0100
0000
0010
0000
,
0001
0000
1000
0000
,
1001
0000
0001
0000
,
1001
0000
0000
0000
;
#NOTES:
     dance-single:
     :
     Easy:
     3:
     :
0000
0000
0000
0000
,
0000
0000
0000
0000
,
0000
0000
0000
0000
,
0000
0000
0000
0000
,
1000
0100
1000
0000
,
0001
0100
0001
0000
,
1000
0100
0001
0100
,
0000
1000
0001
0000
,
0100
0001
0010
0000
,
0000
0001
0010
0100
,
1000
0010
0100
0000
,
0000
0001
0001
0000
,
1000
0100
0010
0000
,
0000
0001
0100
1000
,
0100
0001
1000
0000
,
0000
1001
1001
0000
,
1000
1000
0001
0001
,
0100
0001
0010
0000
,
0100
1000
0001
0000
,
0000
1001
1001
0000
,
0001
0001
1000
1000
,
0100
1000
0001
0000
,
1000
0010
0100
0000
,
0000
0110
0110
0000
,
0001
1000
0001
0000
,
1000
0010
1000
0000
,
0000
0001
0100
0000
,
0010
0100
0010
0000
,
0000
1000
0100
0000
,
1000
0001
1000
0000
,
0001
0001
1000
1000
,
2002
0000
0000
3003
,
1000
0000
0100
0000
,
0001
0000
0010
0000
,
2000
0000
0000
3000
,
0002
0000
0000
0003
,
1000
0000
0010
0000
,
0001
0000
0100
0000
,
0002
0000
0000
0003
,
2000
0000
0000
3000
,
1000
1000
0100
0000
,
0000
0010
0001
0000
,
0100
0100
0001
0000
,
0000
1000
0010
0000
,
1000
1000
0001
0000
,
0000
0100
0010
0000
,
0100
0100
0001
0000
,
0000
1000
0001
1000
,
0001
0100
0010
0000
,
1000
0100
0010
0000
,
0000
0100
1000
0000
,
0001
1000
0010
0000
,
0000
0100
0001
0000
,
1000
0001
0010
0000
,
0100
0010
0001
1000
,
2002
0000
0000
3003
,
1000
0001
0100
0000
,
0001
0010
0100
0000
,
0000
0100
1000
0000
,
0100
0001
0100
0000
,
0000
0010
0001
0000
,
1000
0010
0100
0000
,
0001
1000
0010
0100
,
0001
1000
0000
0100
,
0010
0000
0000
0000
;
#NOTES:
     dance-single:
     :
     Medium:
     5:
     :
0000
0000
0000
0000
,
0000
0000
0000
0000
,
0000
0000
0000
0000
,
0000
0000
0000
0000
,
1000
1000
0001
0001
,
0000
1000
0100
0000
0010
0000
0010
0000
,
0001
0001
1000
1000
,
0000
0001
0100
0000
0010
0000
1000
0000
,
0001
1000
0100
0000
,
0000
0010
0000
0001
0100
0001
0000
0100
,
0010
1000
0100
0000
,
0000
1100
0000
1100
0000
0000
0000
0000
,
1000
0001
0010
0000
,
0000
0001
0100
0001
0000
1000
0100
1000
,
0010
0100
0001
0000
,
0000
0101
0000
0101
0000
0000
0000
0000
,
0010
0010
1001
1001
,
1000
0100
0001
0000
0100
1000
0010
0000
,
0000
0000
0100
0001
1000
0000
0001
0010
,
0000
0000
0100
0100
,
1000
1000
0110
0110
,
0001
0010
1000
0000
0010
0001
0100
0000
,
0000
0000
0001
0100
0010
0000
1000
0001
,
0000
1000
0100
1000
0000
0001
0100
0001
,
0010
0000
0010
0000
0110
0000
0000
1000
,
0001
0000
1000
0100
1000
0000
0010
0000
,
0000
0000
0100
0000
0100
0000
0000
0001
,
0100
0000
0010
1000
0001
0000
1001
0000
,
0000
0000
1000
0000
0001
0000
0000
1000
,
0100
0000
1000
0010
1000
0000
0001
0000
,
0100
0100
0001
1000
,
2002
0000
3003
0000
1010
0000
0000
0001
,
0202
0303
2002
3003
,
2020
3030
0220
0330
,
0002
1000
0000
1003
,
2000
0001
0000
3001
,
2200
3300
2002
3003
,
0022
0033
0202
0303
,
0020
0100
0000
0100
,
0000
1000
0000
0130
,
0001
0001
0000
1000
1000
0000
0000
0000
,
0010
0010
0000
0100
0100
0000
0000
0000
,
0001
0001
0000
0010
0010
0000
0000
0000
,
0000
1100
0000
1100
0000
0000
0000
0000
,
1000
0001
0000
0001
1000
0000
0000
0000
,
0001
0100
0000
0100
0001
0000
0000
0000
,
1000
0100
0000
0100
1000
0000
0000
0000
,
0000
0110
0000
0110
0000
0000
0000
0000
,
0001
0100
0001
0000
1000
0000
0100
0000
,
1000
0010
1001
0000
,
1000
0100
1000
0000
0001
0000
0000
0000
,
0100
0001
1010
0000
,
1000
0001
1000
0000
0010
0000
0100
0000
,
0001
0001
1001
0000
,
1100
1100
0101
0101
,
0220
0330
2002
3003
,
0010
0001
1000
0000
0001
0000
0100
0000
,
0001
1000
1010
0000
,
0010
1000
0001
0000
0100
0000
0000
0000
,
0001
0010
0011
0000
,
0001
1000
0100
0000
1000
0000
0010
0000
,
0100
0001
1001
0000
,
1001
1001
0110
0110
,
0101
0000
0101
0000
1000
0100
0000
0100
;
#NOTES:
     dance-single:
     :
     Hard:
     7:
     :
0000
0000
0000
0000
,
0000
0000
0000
0000
,
0000
0000
0000
0000
,
0000
0000
0000
0000
,
1000
1000
0000
0001
0001
0000
0010
0000
,
0000
0001
0100
1000
0100
0000
0110
0000
,
0001
0001
0000
1000
1000
0000
0010
0000
,
0000
1000
0100
0001
0100
0000
0000
0000
,
0010
0001
0100
1001
,
0000
0001
0000
0010
0001
0100
0001
1000
,
0010
1000
0100
0011
,
0000
0001
0000
0001
0000
0000
0100
0000
,
0001
0010
0001
0101
,
0000
0010
1000
0100
0010
0001
0100
0001
,
0010
0100
1000
1100
,
0000
0001
0000
0001
0000
0000
0010
0000
,
0100
0100
0010
0010
,
0001
0010
0001
1000
0100
1000
0001
0000
,
0100
0000
0010
1000
0010
0000
1000
0100
,
0000
0010
0010
0110
,
0100
1000
0001
0100
,
0010
1000
0010
0100
0001
0100
0010
0000
,
1000
0000
0100
1000
0001
0000
0010
0100
,
0000
0000
1000
0000
1001
0000
0000
1000
,
0001
1000
0001
0100
0000
0000
0001
1000
,
0001
1000
0000
0100
0000
0110
0000
0000
,
1000
0100
1000
0010
0100
0000
0000
0001
,
1000
0001
0000
0010
0000
0110
0000
0000
,
0001
1000
0001
1000
0010
0000
1000
0100
,
1000
0001
0000
0100
0000
0110
0000
0000
,
1000
0000
0001
0000
0100
0100
0000
0000
,
1001
1001
1100
0101
,
0002
1003
2000
3010
,
0020
0130
0200
0301
,
0002
0000
1003
0010
0000
0000
0000
0100
,
0000
0010
0100
0002
,
0103
0200
0310
0020
,
1030
2000
3100
0200
,
0320
0001
0000
1000
,
0000
0100
0000
0031
,
1000
1000
0000
0001
0001
0000
0100
0000
,
0001
1000
0100
1000
0001
0000
0010
0000
,
0001
0001
0000
1000
1000
0000
0010
0000
,
0000
1010
0000
0011
0000
0000
1001
0000
,
1000
0001
0000
0001
1000
0000
0100
0000
,
1000
0010
1000
0100
1000
0000
1100
0000
,
0001
1000
0000
1000
0001
0000
0100
0000
,
0000
0101
0000
1100
0000
0000
0000
0010
,
1000
1000
0001
1000
0000
0000
0001
0010
,
0001
0100
0000
0010
0000
1100
0000
0000
,
0100
0010
0010
0001
1000
0000
0000
0001
,
1000
0001
0000
0100
0000
1100
0000
0000
,
0001
1000
1000
0010
1000
0000
0001
0010
,
0100
1000
0000
0001
0000
1010
0000
0000
,
0110
0000
0110
0000
0001
1000
0000
0000
,
1100
0000
0101
0000
1010
0000
0011
0001
,
1000
1000
0010
0100
0000
0000
0010
1000
,
0010
0100
0000
0001
0000
1001
0000
0000
,
1000
0010
0010
1000
0100
0000
0000
0010
,
0001
0100
0000
0010
0000
0110
0000
0000
,
0100
0001
0001
1000
0001
0000
1000
0100
,
1000
0010
0000
0100
0000
0101
0000
0000
,
1010
0000
1010
0000
0100
0001
0000
0000
,
0101
0000
1100
0000
1000
0100
0000
0010
;
#NOTES:
     dance-double:
     :
     Beginner:
     1:
     :
00000000
00000000
00000000
00000000
,
00000000
00000000
00000000
00000000
,
00000000
00000000
00000000
00000000
,
00000000
00000000
00000000
00000000
,
00001000
00000000
00010000
00000000
,
00001000
00000000
00000000
00000000
,
00010000
00000000
01000000
00000000
,
10000000
00000000
00000000
00000000
,
00010000
00000000
00010000
00000000
,
00000000
00000000
00100000
00000000
,
00001000
00000000
00001000
00000000
,
00000000
00000000
00010000
00000000
,
00000010
00000000
00000010
00000000
,
00000000
00000000
00000100
00000000
,
00000001
00000000
00000001
00000000
,
00000000
00000000
00001000
00000000
,
00000100
00000000
00000000
00000000
,
00010000
00000000
00000000
00000000
,
00001000
00000000
00000000
00000000
,
00100000
00000000
00010000
00000000
,
01000000
00000000
00000000
00000000
,
00001000
00000000
00000000
00000000
,
00010000
00000000
00000000
00000000
,
00000010
00000000
00000010
00000000
,
00001000
00000000
00000000
00000000
,
00000001
00000000
00000100
00000000
,
00001000
00000000
00000000
00000000
,
00010000
00000000
01000000
00000000
,
10000000
00000000
00000000
00000000
,
01000000
00000000
00100000
00000000
,
00010000
00000000
00000000
00000000
,
01000000
00000000
00000000
00000000
,
00001000
00000000
00000000
00000000
,
00010000
00000000
00000000
00000000
,
00002000
00000000
00000000
00003000
,
00000000
00000000
00000000
00000000
,
00010000
00000000
00000000
00000000
,
00000010
00000000
00000000
00000000
,
00000200
00000000
00000000
00000300
,
00000000
00000000
00000000
00000000
,
00000001
00000001
00000000
00000000
,
00001000
00000000
00000000
00000000
,
00000010
00000010
00000000
00000000
,
00010000
00000000
00000000
00000000
,
00001000
00001000
00000000
00000000
,
00100000
00000000
00000000
00000000
,
00010000
00010000
00000000
00000000
,
10000000
00000000
00000000
00000000
,
01000000
00000000
00000000
00000000
,
00100000
00000000
00010000
00000000
,
01000000
00000000
00000000
00000000
,
00001000
00000000
00010000
00000000
,
00000100
00000000
00000000
00000000
,
00001000
00000000
00000001
00000000
,
00000100
00000000
00000010
00000000
,
00000220
00000000
00000000
00000330
,
00000110
00000000
00000000
00000000
,
00000001
00000000
00000100
00000000
,
00001000
00000000
00000000
00000000
,
00010000
00000000
01000000
00000000
,
10000000
00000000
00000000
00000000
,
01000000
00000000
00010000
00000000
,
00001000
00000000
00010000
00000000
,
00011000
00000000
00010000
00000000
,
00011000
00000000
00000000
00000000
;
#NOTES:
     dance-double:
     :
     Easy:
     3:
     :
00000000
00000000
00000000
00000000
,
00000000
00000000
00000000
00000000
,
00000000
00000000
00000000
00000000
,
00000000
00000000
00000000
00000000
,
00000010
00000001
00001000
00000000
,
00000100
00010000
00001000
00000000
,
01000000
00010000
10000000
01000000
,
00000000
10000000
10000000
00000000
,
00010000
01000000
00010000
00000000
,
00000000
00100000
00001000
00010000
,
00000010
00001000
00000001
00000000
,
00000000
00000100
00000100
00000000
,
00000001
00000100
00000010
00000000
,
00000000
00010000
00001000
01000000
,
00010000
01000000
00100000
00000000
,
00000000
01100000
01100000
00000000
,
10000000
10000000
01000000
01000000
,
00010000
00001000
00000100
00000000
,
00000001
00001000
00000010
00000000
,
00000000
00000100
00000100
00000000
,
00000001
00000001
00000100
00000100
,
00001000
00010000
01000000
00000000
,
10000000
00100000
01000000
00000000
,
00000000
01100000
01100000
00000000
,
00100000
10000000
00100000
00000000
,
01000000
00010000
01000000
00000000
,
00000000
00001000
00010000
00000000
,
00000010
00001000
00000010
00000000
,
00000000
00000100
00000001
00000000
,
00000100
00000100
00000010
00000000
,
00010000
00010000
00001000
00001000
,
00022000
00000000
00000000
00033000
,
00010000
00000000
01000000
00000000
,
10000000
00000000
01000000
00000000
,
00020000
00000000
00000000
00030000
,
00002000
00000000
00000000
00003000
,
00010000
00000000
00001000
00000000
,
00000010
00000000
00000001
00000000
,
00000200
00000000
00000000
00000300
,
00000020
00000000
00000000
00000030
,
00001000
00001000
00000100
00000000
,
00000000
00010000
00001000
00000000
,
01000000
01000000
00100000
00000000
,
00000000
10000000
00100000
00000000
,
10000000
10000000
01000000
00000000
,
00000000
00010000
00001000
00000000
,
00000100
00000100
00000010
00000000
,
00000000
00000100
00000001
00001000
,
00000001
00000100
00001000
00000000
,
00010000
01000000
10000000
00000000
,
01000000
00100000
00000000
00000000
,
00001000
00010000
00000010
00000000
,
00000000
00001000
00000001
00000000
,
00000100
00001000
00010000
00000000
,
01000000
10000000
00100000
01000000
,
02200000
00000000
00000000
03300000
,
00010000
01000000
10000000
00000000
,
01000000
00001000
00010000
00000000
,
00000000
00001000
00000100
00000000
,
00000010
00000100
00000001
00000000
,
00000000
00000010
00000100
00000000
,
00010000
00001000
00100000
00000000
,
00010000
01000000
10000000
01000000
,
00010000
00100000
00000000
00001000
,
00010000
00000000
00000000
00000000
;
#NOTES:
     dance-double:
     :
     Medium:
     5:
     :
00000000
00000000
00000000
00000000
,
00000000
00000000
00000000
00000000
,
00000000
00000000
00000000
00000000
,
00000000
00000000
00000000
00000000
,
10000000
10000000
01000000
01000000
,
00000000
00010000
00010000
00000000
00001000
00000000
00001000
00000000
,
00000010
00000010
00000001
00000001
,
00000000
00000100
00000100
00000000
00000001
00000000
00000001
00000000
,
00000100
00001000
00010000
00000000
,
00000000
01000000
00000000
10000000
01000000
10000000
00000000
01000000
,
00100000
00001000
00010000
00000000
,
00000000
00011000
00000000
00011000
00000000
00000000
00000000
00000000
,
00010000
00000010
00001000
00000000
,
00000000
00000010
00000100
00000010
00000000
00001000
00000001
00000100
,
00001000
01000000
00010000
00000000
,
00000000
10100000
00000000
10100000
00000000
00000000
00000000
00000000
,
11000000
11000000
00110000
00110000
,
00001000
00010000
00001000
00000000
00010000
00000010
00010000
00000000
,
00000000
00000000
00000100
00001000
00000010
00000000
00000100
00000002
,
00000000
00000000
00000000
00000003
,
00000011
00000011
00001100
00001100
,
00010000
00001000
00010000
00000000
00001000
00100000
00001000
00000000
,
00000000
00000000
00010000
00100000
10000000
00000000
00010000
20000000
,
00000000
00000000
00000000
30000000
,
00010000
00000000
10000000
00000000
11000000
00000000
00000000
00100000
,
00001000
00000000
00010000
00001000
00010000
00000000
00000100
00000000
,
00000000
00000000
00000110
00000000
00000110
00000000
00000000
00000001
,
00000100
00000000
00000010
00001000
00000100
00000000
00010100
00000000
,
00000000
00000000
00010000
00000000
01000000
00000000
00000000
10000000
,
01000000
00000000
10000000
00100000
10000000
00000000
00010000
00000000
,
01000000
00001000
00010000
00001000
,
00022000
00000000
00000000
00033000
,
00020200
00030300
02002000
03003000
,
00020020
00030030
00202000
00303000
,
00010000
02000000
03000000
00100000
,
10000000
02000000
03000000
00010000
,
20020000
30030000
02002000
03003000
,
00020200
00030300
00002002
00003003
,
00000200
00001000
00000000
00000010
,
00000000
00000010
00000000
00000301
,
00001000
00000001
00000000
00000001
00001000
00000000
00000000
00000000
,
00010000
00000010
00000000
00000010
00010000
00000000
00000000
00000000
,
00001000
01000000
00000000
01000000
00001000
00000000
00000000
00000000
,
00000000
10100000
00000000
10100000
00000000
00000000
00000000
00000000
,
10000000
10000000
00000000
01000000
01000000
00000000
00000000
00000000
,
00100000
00100000
00000000
00001000
00001000
00000000
00000000
00000000
,
00010000
00010000
00000000
00000100
00000100
00000000
00000000
00000000
,
00000000
00000011
00000000
00000011
00000000
00000000
00000000
00000000
,
00000001
00000100
00001000
00000000
00010000
00000000
00001000
00000000
,
01000000
00100000
10010000
00000000
,
10000000
01000000
00010000
00000000
00001000
00000000
00000000
00000000
,
00010000
00001000
00000110
00000000
,
00000001
00000010
00001000
00000000
00010000
00000000
00100000
00000000
,
10000000
00010000
10010000
00000000
,
01010000
01010000
00011000
00011000
,
00002200
00003300
00002020
00003030
,
00000001
00001000
00000100
00000000
00010000
00000000
00001000
00000000
,
00010000
01000000
11000000
00000000
,
00100000
10000000
00010000
00000000
01000000
00000000
00000000
00000000
,
00001000
00010000
00011000
00000000
,
00010000
00000100
00001000
00000000
00000001
00000000
00000010
00000000
,
00001000
00010000
00011000
00000000
,
01010000
01010000
10100000
10100000
,
00101000
00000000
00101000
00000000
00010000
00000100
00000000
00000100
;
#NOTES:
     dance-double:
     :
     Hard:
     7:
     :
00000000
00000000
00000000
00000000
,
00000000
00000000
00000000
00000000
,
00000000
00000000
00000000
00000000
,
00000000
00000000
00000000
00000000
,
00100000
00100000
00000000
10000000
10000000
00000000
01000000
00000000
,
00000000
10000000
01000000
00010000
00001000
00000000
00011000
00000000
,
00001000
00001000
00000000
00000100
00000100
00000000
00000010
00000000
,
00000000
00001000
00000001
00000100
00001000
00000000
00000000
00000000
,
00000100
00000010
00001000
00000000
,
00000000
00000001
00000000
00000100
00001000
00010000
01000000
10000000
,
00100000
10000000
01000000
00000000
,
00000000
00110000
00000000
00011000
00000000
00000000
01000000
00000000
,
00001000
00100000
00010000
00000000
,
00000000
10000000
01000000
00010000
00001000
00000100
00000001
00000010
,
00000001
00001000
00000010
00000000
,
00000000
00001100
00000000
00011000
00000000
00000000
00100000
00000000
,
01100000
01100000
11000000
11000000
,
00010000
01000000
00001000
00010000
00000010
00001000
00000100
00000000
,
00000001
00000000
00000100
00001000
00000010
00000000
00000100
00000002
,
00000000
00000000
00000000
00000003
,
00000110
00000110
00000101
00000101
,
00001000
00000010
00010000
00001000
00100000
00010000
01000000
00000000
,
00100000
00000000
10000000
01000000
00010000
00000000
01000000
00200000
,
00000000
00000000
00000000
00000000
00300000
00000000
00000000
00001000
,
00010000
00001000
00010000
00001000
00000000
00000000
00000000
00010000
,
00000100
00000010
00000000
00000001
00000000
00000101
00000000
00000000
,
00000000
00000100
00000010
00010000
00001000
00000000
00000000
00010000
,
01000000
10000000
00000000
00100000
00000000
01100000
00000000
00000000
,
00000000
00001000
00010000
00001000
00010000
00000000
00000000
00000100
,
00001000
00000010
00000000
00000100
00000000
00000101
00000000
00000000
,
00001000
00000000
00010000
00000000
01000000
01000000
00000000
00000000
,
01100000
00110000
00011000
00001010
,
00000002
00001003
00002000
00003100
,
00000200
00010300
00020000
00031000
,
00002000
00000000
01003000
00010000
00000000
00000000
00000000
00100000
,
00000000
00000000
01000000
20000000
,
31000000
02000000
03010000
00020000
,
00031000
00002000
00003010
00000020
,
00000032
00000100
00000000
00001000
,
00000000
00000010
00000000
00001003
,
00000001
00000100
00000000
00000010
00001000
00000000
00000010
00000000
,
00000100
00001000
00010000
01000000
00100000
00000000
00010000
00000000
,
10000000
01000000
00000000
00100000
00010000
00000000
00100000
00000000
,
00000000
00011000
00000000
00001100
00000000
00000000
00000000
00000000
,
00000001
00000010
00000000
00000100
00001000
00000000
00000001
00000000
,
00000100
00001000
00010000
01000000
10000000
00000000
00010000
00000000
,
10000000
00100000
00000000
01000000
00010000
00000000
00100000
00000000
,
00000000
01001000
00000000
00010100
00000000
00000000
00000000
00001000
,
00000100
00001000
00000001
00000100
00000000
00000000
00001000
00010000
,
01000000
00100000
00000000
00010000
00000000
11000000
00000000
00000000
,
00000000
10000000
00010000
10000000
01000000
00000000
00000000
00010000
,
00001000
00010000
00000000
00001000
00000000
00001010
00000000
00000000
,
00000000
00000010
00000100
00000010
00001000
00000000
00000000
00000001
,
00000100
00001000
00000000
00010000
00000000
01000000
00000000
00000000
,
11000000
00000000
01010000
00000000
00001000
01000000
00000000
00000000
,
00011000
00000000
00011000
00000000
00001010
00000000
00001000
00000001
,
00000100
00000001
00000010
00000100
00000000
00000000
00001000
00000001
,
00000010
00001000
00000000
00010000
00000000
00011000
00000000
00000000
,
00000000
00001000
00010000
00100000
10000000
00000000
00000000
01000000
,
10000000
01000000
00000000
00100000
00000000
01100000
00000000
00000000
,
00000000
00010000
01000000
00001000
00010000
00000000
00000000
00001000
,
00000100
00000001
00000000
00000010
00000000
00000110
00000000
00000000
,
00000011
00000000
00001010
00000000
00010000
00001000
00000000
00000000
,
00110000
00000000
01100000
00000000
00010000
01000000
00000000
00001000
;
