
//----- song ID: alic -----
#TITLE:Alice;
#ARTIST:Moby;
#BANNER:Alice.png;
#BACKGROUND:Alice-bg.png;
#CDTITLE:./CDTitles/DDR UNIVERSE3.png;
#MUSIC:Alice.ogg;
#OFFSET:-0.001;
#SAMPLESTART:0;
#SAMPLELENGTH:15;
#BPMS:0=94.89;
#NOTES:
     dance-single:
     :
     Beginner:
     1:
     :
0000
0000
0000
0000
,
0000
0000
0000
0000
,
1000
0000
0000
0000
,
0001
0000
0000
0000
,
0100
0000
0000
0000
,
0010
0000
0000
0000
,
1000
0000
0000
0000
,
0001
0000
0000
0000
,
0010
0000
0000
0000
,
0100
0000
0000
0000
,
1000
0000
0000
0000
,
0001
0000
0000
0000
,
0100
0000
0000
0000
,
0000
0000
0000
0000
,
0010
0000
0000
0000
,
0000
0000
0000
0000
,
1000
0000
0000
0000
,
0001
0000
0000
0000
,
0010
0000
0000
0000
,
0100
0000
0000
0000
,
1000
0000
0000
0000
,
0001
0000
0000
0000
,
0100
0000
0000
0000
,
0010
0000
0000
0000
,
1000
0000
0000
0000
,
1000
0000
0000
0000
,
0001
0000
0000
0000
,
0001
0000
0000
0000
,
0010
0000
0010
0000
,
0010
0000
0000
0000
,
0100
0000
0100
0000
,
0100
0000
0000
0000
,
1000
0000
0000
0000
,
1000
0000
0000
0000
,
0001
0000
0000
0000
,
0001
0000
0000
0000
,
0100
0000
0000
0000
,
0010
0000
0000
0000
,
1000
0000
0000
0000
,
0001
0000
0000
0000
,
1000
0000
0000
0000
;
#NOTES:
     dance-single:
     :
     Easy:
     2:
     :
0000
0000
0000
0000
,
0000
0000
0000
0000
,
0001
0000
0000
0000
,
1000
0000
0000
0000
,
0010
0000
0010
0000
,
0100
0000
0100
0000
,
0001
0000
0001
0000
,
1000
0000
1000
0000
,
0100
0000
0100
0000
,
0010
0000
0010
0000
,
0001
0000
0001
0000
,
0010
0000
0010
0000
,
0100
0000
1000
0000
,
0100
0000
1000
0000
,
0001
0000
0100
0000
,
0001
0000
0100
0000
,
0010
0000
0010
0000
,
1000
0000
1000
0000
,
0100
0000
0100
0000
,
0010
0000
0010
0000
,
0001
0000
0001
0000
,
1000
0000
1000
0000
,
0010
0000
0010
0000
,
0100
0000
0100
0000
,
0001
0000
0000
0000
,
0010
0000
0000
0000
,
0100
0000
0000
0000
,
1000
0000
0000
0000
,
0001
0001
0001
0000
,
1000
1000
1000
0000
,
0010
0010
0010
0000
,
0100
0100
0100
0000
,
0001
0000
0001
0000
,
1000
0000
1000
0000
,
0010
0000
0010
0000
,
0100
0000
0100
0000
,
0001
0000
0001
0000
,
0010
0000
0010
0000
,
0100
0000
0100
0000
,
1000
0000
1000
0000
,
0001
0000
0000
0000
;
#NOTES:
     dance-single:
     :
     Medium:
     4:
     :
0000
0000
0000
0000
,
0000
0000
0000
0000
,
1000
0000
0010
0000
,
0100
0000
0001
0000
,
0010
0100
1000
0000
0001
0000
0100
0000
,
0010
1000
0001
0000
0010
0000
0100
0000
,
1000
0100
0010
0000
0001
0000
0010
0000
,
0100
1000
0001
0000
0100
0000
0010
0000
,
1000
0001
1000
0000
0010
0000
0100
0000
,
0001
0010
0100
0000
1000
0000
0010
0000
,
0100
0001
1000
0000
0100
0000
0010
0000
,
0001
0010
0100
0000
1000
0000
0001
0000
,
0200
0000
0000
0000
,
0000
0000
0000
0000
,
0320
0000
0000
0000
,
0000
0000
0000
0000
,
1030
0001
0010
0000
0100
0000
0010
0000
,
0001
0100
0001
0000
1000
0000
0010
0000
,
0100
0001
1000
0000
0100
0000
0010
0000
,
0001
0010
0100
0000
1000
0000
0001
0000
,
0100
0001
1000
0000
0010
0000
0100
0000
,
0001
0010
0100
0000
1000
0000
0100
0000
,
0010
0001
0010
0000
0100
0000
1000
0000
,
0001
0100
0001
0000
0100
0000
0010
0000
,
1000
0100
0000
0100
,
0010
0001
0000
0001
,
1000
0010
0000
0010
,
0100
0001
0000
0001
,
0010
0001
0100
0000
0010
0000
1000
0000
,
0001
0100
0001
0000
0010
0000
0100
0000
,
1000
0100
0010
0000
0001
0000
0010
0000
,
0100
1000
0100
0000
1000
0000
0001
0000
,
0100
0010
1000
0000
0001
0000
0010
0000
,
0001
0100
0001
0000
1000
0100
1000
0000
,
0010
0100
0001
0000
0010
0000
0100
0000
,
1000
0100
0010
0000
0001
0000
0100
0000
,
0010
1000
0010
0000
0100
0000
0001
0000
,
0010
0001
0100
0000
0010
1000
0001
0000
,
0010
0100
1000
0001
,
0100
0010
1000
0000
0001
0000
0010
0000
,
0100
0000
0000
0000
;
#NOTES:
     dance-single:
     :
     Hard:
     6:
     :
0000
0000
0000
0000
,
0000
0000
0000
0000
,
1000
0000
1000
0000
,
0001
0000
0001
0010
,
0100
1000
0100
0001
0100
0010
0001
0100
,
0010
1000
0010
0100
0010
0001
0010
0000
,
1000
0001
0010
0100
1000
0100
0001
0100
,
1000
0001
0100
1000
0100
0001
0010
0000
,
0100
1000
0100
0001
0100
0010
1000
0010
,
0001
0100
0010
0001
0010
1000
0001
0000
,
0010
0001
0100
1000
0001
0010
1000
0001
,
0100
1000
0100
0001
0010
0100
1000
0000
,
0002
0100
0000
0100
,
0000
0100
0000
0203
,
0320
1000
0000
1000
,
0000
1000
0000
2030
,
3100
0010
0001
0010
1000
0010
0001
0010
,
0100
1000
0001
0100
1000
0100
0001
0000
,
0010
0100
1000
0100
0010
0001
0010
0100
,
1000
0001
0100
1000
0001
0010
1000
0000
,
0001
0100
0010
0000
1000
0000
1001
0000
,
0001
0010
0100
0000
1000
0000
1010
0000
,
0010
1000
0100
0000
0010
0000
0011
0000
,
0100
1000
0001
0000
0100
0000
1001
0000
,
2000
0010
0100
0010
,
3002
0010
0100
1000
,
0203
0010
1000
0010
,
0320
1000
0001
0100
,
2030
0000
0001
0000
0100
0100
0001
0000
,
3002
0000
1000
0000
0100
0100
1000
0000
,
0023
0000
0100
0000
0001
0001
0100
0000
,
0230
0000
0010
0000
1000
1000
0010
0000
,
1300
0001
0100
0010
1000
0001
0010
0100
,
0001
0100
1000
0001
0100
0010
1000
0001
,
0000
0010
0000
0100
0000
0000
1000
0010
,
0000
0100
0000
0001
0000
0000
0000
0000
,
0010
0100
1000
0100
0001
0100
0010
0001
,
0100
1000
0100
0001
0010
1000
0001
0100
,
0000
1000
0000
0001
0000
0000
0100
0010
,
0000
1000
0000
0001
0000
0000
0010
0100
,
1000
0000
0000
0000
;
#NOTES:
     dance-double:
     :
     Beginner:
     1:
     :
00000000
00000000
00000000
00000000
,
00000000
00000000
00000000
00000000
,
00000001
00000000
00000000
00000000
,
00001000
00000000
00000000
00000000
,
00000100
00000000
00000000
00000000
,
00010000
00000000
00000000
00000000
,
00001000
00000000
00000000
00000000
,
01000000
00000000
00000000
00000000
,
00100000
00000000
00000000
00000000
,
10000000
00000000
00000000
00000000
,
01000000
00000000
00000000
00000000
,
00100000
00000000
00000000
00000000
,
00001000
00000000
00000000
00000000
,
00000000
00000000
00000000
00000000
,
00010000
00000000
00000000
00000000
,
00000000
00000000
00000000
00000000
,
00000010
00000000
00000000
00000000
,
00000100
00000000
00000000
00000000
,
00000001
00000000
00000000
00000000
,
00000010
00000000
00000000
00000000
,
00000100
00000000
00000000
00000000
,
00010000
00000000
00000000
00000000
,
00001000
00000000
00000000
00000000
,
01000000
00000000
00000000
00000000
,
00100000
00000000
00000000
00000000
,
10000000
00000000
00000000
00000000
,
00010000
00000000
00000000
00000000
,
00100000
00000000
00000000
00000000
,
00001000
00000000
00010000
00000000
,
00001000
00000000
00000000
00000000
,
00010000
00000000
00001000
00000000
,
00010000
00000000
00000000
00000000
,
00000100
00000000
00000000
00000000
,
00000100
00000000
00000000
00000000
,
00000010
00000000
00000000
00000000
,
00000010
00000000
00000000
00000000
,
00000001
00000000
00000000
00000000
,
00000001
00000000
00000000
00000000
,
00000100
00000000
00000000
00000000
,
00001000
00000000
00000000
00000000
,
00010000
00000000
00000000
00000000
;
#NOTES:
     dance-double:
     :
     Easy:
     2:
     :
00000000
00000000
00000000
00000000
,
00000000
00000000
00000000
00000000
,
10000000
00000000
00000000
00000000
,
00100000
00000000
00000000
00000000
,
01000000
00000000
01000000
00000000
,
00001000
00000000
00001000
00000000
,
00010000
00000000
00010000
00000000
,
00000100
00000000
00000100
00000000
,
00000010
00000000
00000010
00000000
,
00000001
00000000
00000001
00000000
,
00000100
00000000
00000100
00000000
,
00001000
00000000
00001000
00000000
,
00020000
00000000
00000000
00000000
,
00000000
00000000
00000000
00000000
,
00230000
00000000
00000000
00000000
,
00000000
00000000
00000000
00000000
,
10300000
00000000
10000000
00000000
,
01000000
00000000
01000000
00000000
,
00100000
00000000
00100000
00000000
,
00001000
00000000
00001000
00000000
,
00010000
00000000
00010000
00000000
,
00000010
00000000
00000010
00000000
,
00001000
00000000
00001000
00000000
,
00000001
00000000
00000001
00000000
,
00000010
00000000
00000000
00000000
,
00000100
00000000
00000000
00000000
,
00010000
00000000
00000000
00000000
,
00001000
00000000
00000000
00000000
,
00100000
00100000
00100000
00000000
,
01000000
01000000
01000000
00000000
,
10000000
10000000
10000000
00000000
,
00010000
00010000
00010000
00000000
,
00100000
00000000
00001000
00000000
,
00010000
00000000
00010000
00000000
,
00000010
00000000
00000100
00000000
,
00000001
00000000
00000001
00000000
,
00000010
00000000
00000100
00000000
,
00010000
00000000
00010000
00000000
,
00001000
00000000
01000000
00000000
,
00100000
00000000
00100000
00000000
,
10000000
00000000
00000000
00000000
;
#NOTES:
     dance-double:
     :
     Medium:
     4:
     :
00000000
00000000
00000000
00000000
,
00000000
00000000
00000000
00000000
,
00000001
00000000
00000100
00000000
,
00001000
00000000
00010000
00000000
,
01000000
10000000
01000000
00000000
00100000
00000000
00001000
00000000
,
00010000
00001000
00010000
00000000
00000010
00000000
00001000
00000000
,
00000001
00000010
00000100
00000000
00010000
00000000
00001000
00000000
,
00100000
00010000
01000000
00000000
00100000
00000000
10000000
00000000
,
00010000
10000000
00010000
00000000
00100000
00000000
01000000
00000000
,
00010000
00001000
00010000
00000000
00000100
00000000
00001000
00000000
,
00000010
00001000
00000001
00000000
00000010
00000000
00000100
00000000
,
00010000
00001000
00010000
00000000
00001000
00000000
01000000
00000000
,
00200000
00000000
00000000
00000000
,
00000000
00000000
00000000
00000000
,
20300000
00000000
00000000
00000000
,
00000000
00000000
00000000
00000000
,
31000000
00100000
00001000
00000000
00010000
00000000
00001000
00000000
,
00010000
00000010
00001000
00000000
00000001
00000000
00000010
00000000
,
00000100
00010000
00001000
00000000
00100000
00000000
00010000
00000000
,
01000000
00100000
01000000
00000000
00100000
00000000
10000000
00000000
,
01000000
00100000
00001000
00000000
00010000
00000000
00000100
00000000
,
00001000
00000001
00001000
00000000
00000010
00000000
00001000
00000000
,
00010000
00001000
00010000
00000000
00100000
00000000
10000000
00000000
,
00010000
01000000
00010000
00000000
01000000
00000000
00001000
00000000
,
00010000
00001000
00000000
00010000
,
00000100
00000010
00000000
00000001
,
00000100
00001000
00000000
00010000
,
01000000
10000000
00000000
00100000
,
01000000
00010000
01000000
00000000
00001000
00000000
00010000
00000000
,
00000010
00001000
00000010
00000000
00000100
00000000
00000001
00000000
,
00001000
00000100
00010000
00000000
00001000
00000000
00100000
00000000
,
00010000
01000000
00100000
00000000
10000000
00000000
01000000
00000000
,
00100000
00010000
00100000
00000000
00001000
00000000
00010000
00000000
,
00000100
00001000
00000100
00000000
00000010
00000001
00000010
00000000
,
00000100
00010000
00001000
00000000
01000000
00000000
00010000
00000000
,
01000000
00100000
10000000
00000000
00010000
00000000
00100000
00000000
,
00001000
00010000
00001000
00000000
00010000
00000000
00000010
00000000
,
00001000
00000100
00000010
00000000
00000001
00000010
00000100
00000000
,
00010000
00001000
01000000
00010000
,
01000000
00100000
10000000
00000000
01000000
00000000
00010000
00000000
,
00001000
00000000
00000000
00000000
;
#NOTES:
     dance-double:
     :
     Hard:
     6:
     :
00000000
00000000
00000000
00000000
,
00000000
00000000
00000000
00000000
,
10000000
00000000
10000000
00000000
,
00100000
00000000
00100000
01000000
,
00001000
00100000
00010000
00100000
01000000
00010000
00001000
00010000
,
00000010
00001000
00000100
00000010
00001000
00000010
00000001
00000000
,
00000100
00001000
00010000
00100000
00010000
00001000
00010000
00100000
,
10000000
00010000
01000000
10000000
01000000
00010000
00100000
00000000
,
01000000
00010000
00001000
00010000
00001000
00000100
00000010
00001000
,
00000001
00000010
00000100
00001000
00000010
00000100
00001000
00000000
,
00010000
00100000
10000000
00010000
00100000
01000000
00010000
01000000
,
10000000
00100000
01000000
00001000
00010000
00000100
00001000
00000000
,
00000002
00000010
00000000
00000010
,
00000000
00000010
00000000
00000023
,
00000230
00010000
00000000
00010000
,
00000000
00010000
00000000
00020300
,
00031000
00100000
00010000
01000000
00100000
00010000
00100000
10000000
,
00010000
01000000
10000000
01000000
00001000
00010000
00001000
00000000
,
00010000
00001000
00000100
00000010
00001000
00000001
00000010
00000100
,
00010000
00001000
00100000
00010000
01000000
00100000
10000000
00000000
,
01000000
00010000
01000000
00000000
00010000
00000000
00011000
00000000
,
00001000
00010000
00000010
00000000
00001000
00000000
00001001
00000000
,
00000001
00001000
00000100
00000000
00010000
00000000
00011000
00000000
,
00001000
01000000
00010000
00000000
01000000
00000000
10010000
00000000
,
20000000
01000000
00100000
01000000
,
30020000
00100000
01000000
10000000
,
00230000
01000000
00010000
00001000
,
00302000
00010000
01000000
00010000
,
00023000
00000000
00000100
00000000
00001000
00001000
00000100
00000000
,
00030200
00000000
00001000
00000000
00000010
00000010
00001000
00000000
,
00002300
00000000
00000001
00000000
00000100
00000100
00000001
00000000
,
00003002
00000000
00000100
00000000
00001000
00001000
00000100
00000000
,
00000013
00000100
00010000
00001000
00100000
00010000
01000000
00100000
,
00010000
00100000
10000000
01000000
00010000
00001000
00000100
00000010
,
00000000
00000001
00000000
00000010
00000000
00000000
00001000
00000100
,
00000000
00010000
00000000
00001000
00000000
00000000
00000000
00000000
,
00100000
00010000
10000000
01000000
00010000
10000000
00100000
00010000
,
00100000
00001000
00010000
00000010
00001000
00000010
00000100
00001000
,
00000000
00000001
00000000
00000010
00000000
00000000
00010000
00001000
,
00000000
00100000
00000000
10000000
00000000
00000000
00000000
00000000
;
