
//----- song ID: aki2 -----
#TITLE:Akibarrific;
#ARTIST:Ko Kimura;
#BANNER:Akibarrific.png;
#BACKGROUND:Akibarrific-bg.png;
#CDTITLE:./CDTitles/DDR UNIVERSE3.png;
#MUSIC:Akibarrific.ogg;
#OFFSET:-1.929;
#SAMPLESTART:31.913;
#SAMPLELENGTH:15;
#BPMS:0=128;
#NOTES:
     dance-single:
     :
     Beginner:
     1:
     :
0000
0000
0000
0000
,
0000
0000
0000
0000
,
0000
0000
0000
0000
,
0000
0000
0000
0000
,
1000
0000
0000
0000
,
0001
0000
0000
0000
,
0100
0000
0000
0000
,
0010
0000
0000
0000
,
0100
0000
0000
0000
,
0001
0000
0000
0000
,
0010
0000
0000
0000
,
0100
0000
0000
0000
,
1000
0000
0000
0000
,
0001
0000
0000
0000
,
0100
0000
0000
0000
,
0010
0000
0000
0000
,
0010
0000
0010
0000
,
0010
0000
0000
0000
,
1000
0000
1000
0000
,
1000
0000
0000
0000
,
0001
0000
0001
0000
,
0001
0000
0000
0000
,
0100
0000
0100
0000
,
0100
0000
0000
0000
,
0001
0000
1000
0000
,
0001
0000
0000
0000
,
0010
0000
0100
0000
,
0010
0000
0000
0000
,
1000
0000
0001
0000
,
1000
0000
0000
0000
,
0010
0000
0100
0000
,
0010
0000
0000
0000
,
0110
0000
0000
0000
,
0000
0000
0000
0000
,
0010
0000
0000
0000
,
0000
0000
0000
0000
,
1000
0000
0000
0000
,
0000
0000
0000
0000
,
0010
0000
0000
0000
,
0100
0000
0001
0001
,
0001
0000
0000
0000
,
1000
0000
0000
0000
,
0100
0000
0000
0000
,
0010
0000
0000
0000
,
0001
0000
0000
0000
,
0100
0000
0000
0000
,
0010
0000
0000
0000
,
1000
0000
0000
0000
,
0001
0000
0001
0000
,
0100
0000
0000
0000
,
0010
0000
0010
0000
,
1000
0000
0000
0000
,
0100
0000
0100
0000
,
0010
0000
0000
0000
,
0001
0000
0001
0000
,
1000
0000
1000
0000
,
1001
0000
0000
0000
;
#NOTES:
     dance-single:
     :
     Easy:
     2:
     :
0000
0000
0000
0000
,
0000
0000
0000
0000
,
0000
0000
0000
0000
,
0000
0000
0000
0000
,
1000
0000
0001
0000
,
0100
0000
0010
0000
,
0100
0000
0001
0000
,
1000
0000
0001
0000
,
1001
0000
0000
0000
,
0100
0000
0000
0000
,
0010
0000
0000
0000
,
1000
0000
0000
0000
,
0001
0000
0010
0000
,
0001
0000
1000
0000
,
0010
0000
0100
0000
,
0001
0000
1000
0000
,
0100
0000
0010
0000
,
0001
0000
0110
0000
,
0001
0000
0100
0000
,
0001
0000
1001
0000
,
0100
0000
1000
0000
,
0100
0000
0110
0000
,
1000
0000
0001
0000
,
1000
0000
1001
0000
,
0001
0000
0100
0000
,
0010
0000
1000
0000
,
0001
0000
0100
0000
,
1000
0000
0001
0000
,
1001
0000
1000
0000
,
0100
0000
0010
0000
,
0001
0000
1000
0000
,
0001
0000
1000
0000
,
1001
0000
0000
0000
,
0000
0000
0000
0000
,
0000
0000
0000
0000
,
0000
0000
0000
0000
,
1000
0000
0000
0000
,
0100
0000
0000
0000
,
0010
0000
0001
0000
,
1000
0000
0100
0000
,
0010
0000
0000
0000
,
0001
0000
0000
0000
,
1000
0000
0000
0000
,
0100
0000
0000
0000
,
1000
0000
0001
0000
,
0100
0000
0000
0000
,
0010
0000
0100
0000
,
0001
0000
1000
0000
,
0001
0000
0100
0000
,
0001
0000
1001
0000
,
1000
0000
0001
0000
,
1000
0000
0110
0000
,
1000
0000
0100
0000
,
0010
0000
0110
0000
,
0100
0000
0010
0000
,
0001
0010
0001
0100
,
1001
0000
0000
0000
;
#NOTES:
     dance-single:
     :
     Medium:
     7:
     :
0000
0000
0000
0000
,
0000
0000
0000
0000
,
0000
0000
0000
0000
,
0000
0000
0000
0000
,
1000
0100
0010
0001
,
0001
0100
0010
1000
,
0001
0100
0001
0000
1000
0100
1000
0000
,
0010
0000
0100
0001
1000
0100
0010
0000
,
1001
0000
0000
0100
0000
0000
1000
0001
,
1000
0000
0000
0010
0000
0000
1000
0100
,
0010
0000
0000
0001
0000
0000
0010
0001
,
0100
0000
0000
0001
0000
0000
0010
0100
,
1000
0000
0000
0110
0000
0000
1000
0100
,
0001
0000
0000
1100
0000
0000
0010
1000
,
0100
0000
0000
0101
0000
0000
0001
1000
,
0100
0000
0000
1000
0000
0000
0001
0000
0000
0000
0000
0000
0110
0000
0000
0000
,
0001
0100
0001
0000
1000
0100
1000
0000
,
0010
1000
0001
0100
0000
0101
0101
0000
,
1000
0010
0100
0000
0001
0010
0100
0000
,
1000
0001
0100
0010
0000
0110
0110
0000
,
0001
0100
1000
0000
0100
0001
0010
0000
,
0100
1000
0001
0010
0000
1100
1100
0000
,
1000
0010
0001
0000
0010
1000
0100
0000
,
1000
0000
0000
0001
0000
0000
0010
0000
0000
0000
0000
0000
0110
0000
0000
0000
,
1001
0000
0001
0100
0010
0100
0001
0000
,
1000
0100
0010
0000
0000
0100
1000
0000
,
1010
0000
0010
0100
0001
1000
0100
0000
,
1000
0010
0100
0000
0000
0001
0010
0000
,
0101
0000
1000
0100
0010
0100
1000
0000
,
0001
0100
0010
0000
0000
0100
0001
0000
,
0110
0000
0001
1000
0100
1000
0010
0000
,
1000
0001
0100
0001
1000
0010
0100
0000
,
2002
0000
0000
3003
,
0000
0000
0000
0000
,
0220
0000
0000
0330
,
0000
0000
0000
0000
,
1000
0000
0001
0000
,
0100
0000
0010
0000
,
1000
0100
0010
0001
,
1000
0001
1000
0001
0100
0010
0100
0000
,
0010
0000
0000
1000
0000
0000
0100
0000
0000
1000
0000
0000
0010
0000
0100
0000
,
0001
0000
0000
0010
0000
0000
0001
0000
0000
0100
0000
0000
0010
0000
0100
0000
,
0001
0000
0000
0010
0000
0000
1000
0000
0000
0010
0000
0000
0001
0000
1000
0000
,
0001
0000
0000
0100
0000
0000
1000
0000
0000
0100
0000
0000
0001
0000
1000
0000
,
1000
0000
0000
0010
0000
0000
1000
0000
0000
0100
0000
0000
0010
0000
0100
0000
,
1000
0000
0000
0010
0000
0000
0001
0000
0000
0010
0000
0000
1000
0000
0001
0000
,
1000
0000
0000
0100
0000
0000
0001
0000
0000
0100
0000
0000
1000
0000
0001
0000
,
1000
0000
0000
0100
0000
0000
0010
0000
0000
0001
0000
0000
1001
0000
0000
0000
,
1000
0000
0100
0000
0010
0000
0001
0000
0000
0100
0000
0000
0001
0000
0100
0000
,
0010
0000
1000
0000
0001
0000
1000
0000
0000
0100
0000
0000
0110
0000
0000
0000
,
1000
0000
0100
0000
0001
0000
0100
0000
0000
0010
0000
0000
0001
0000
0100
0000
,
1000
0000
0100
0000
0001
0000
1000
0000
0000
0100
0000
0000
0011
0000
0000
0000
,
0001
0000
0100
0000
0010
0000
1000
0000
0000
0001
0000
0000
1000
0000
0100
0000
,
0010
0000
0000
0100
0000
0000
1000
0000
0000
0001
0000
0000
0100
0000
0010
0000
,
0101
1000
1100
0001
,
1001
0000
0000
0110
0000
0000
1001
0100
,
1001
0000
0000
0000
;
#NOTES:
     dance-single:
     :
     Hard:
     9:
     :
0000
0000
0000
0000
,
0000
0000
0000
0000
,
0000
0000
0000
0000
,
0000
0000
0000
0000
,
1000
0100
0001
0100
,
1000
0001
0100
1000
,
0100
0001
0011
1010
,
0010
0000
0000
1000
0000
0000
0001
0000
0010
0000
0100
0000
1000
0000
0001
0000
,
0100
0000
0000
0001
0000
0000
1000
0000
0000
0100
0000
0000
1000
0000
0001
0000
,
0010
0000
0000
0001
0000
0000
1000
0000
0000
0010
0000
0000
1000
0000
0001
0000
,
0100
0000
0000
0010
0000
0000
0001
0000
0000
0010
0000
0000
1000
0000
0001
0000
,
0010
0000
0000
0100
0000
0000
1000
0000
0000
0100
0000
0000
1000
0000
0001
0000
,
1000
0000
0100
1000
0100
0000
1000
0000
0001
0000
0100
0001
0100
0000
0001
0000
,
1000
1010
0110
0001
,
0010
0000
0001
0100
0001
0000
0010
0000
0100
0000
1000
0001
1000
0000
0001
0000
,
0100
0000
0000
0010
0000
0000
1000
0000
0000
0000
1001
0000
1001
0000
0000
0000
,
0100
0000
0000
1000
0100
0000
1000
0100
0000
1000
0100
0000
0010
0000
0001
0000
,
0100
0000
0000
0001
0100
0000
0001
0100
0000
0001
0100
0000
0010
0000
1000
0000
,
0001
0000
0000
1000
0001
0000
0001
1000
0000
1000
0001
0000
1000
0000
0010
0000
,
0100
0000
0000
0010
0100
0000
0100
0010
0000
0010
0100
0000
0001
0000
0010
0000
,
0001
0000
0100
0001
0100
0000
0010
0000
1000
0000
0001
1000
0001
0000
0010
0000
,
0100
0000
1000
0010
1000
0000
0010
0000
0100
0000
0001
0100
0001
0000
1000
0000
,
0100
0000
1000
0100
0010
0000
0001
0000
1000
0000
0001
0100
0010
0000
1000
0000
,
0001
0000
0000
0010
0000
0000
0100
0000
0000
0000
0110
0000
0110
0000
0000
0000
,
1000
0000
0000
0000
1000
0000
0000
0000
0100
0000
1000
0001
1000
0000
0001
0000
,
0100
0000
0001
0100
0010
0000
0100
0010
0000
1000
0010
0000
1000
0000
0100
0000
,
0001
0000
0100
0010
0100
0000
1000
0100
0000
1000
0010
0000
0100
0000
0001
0000
,
0010
0000
0001
0010
1000
0000
0010
0001
1000
0000
0001
0000
0100
0000
0000
0000
,
0010
0000
1000
0010
0100
0000
0001
0100
0000
0010
1000
0000
0100
0000
0001
0000
,
0100
0000
1000
0100
1000
0010
1000
0000
0001
0000
0100
0000
0010
0000
1000
0000
,
0001
0000
1000
0100
1000
0000
0001
0100
0001
0000
1000
0010
1000
0000
0001
0010
,
0001
1000
0100
0010
0001
0010
0100
1000
,
0002
0000
0000
0003
,
0000
0000
0000
0000
,
1000
0000
0001
0000
,
1100
0000
0011
0000
,
0100
0010
1010
0101
,
1000
0001
0110
1001
,
1000
0100
0001
0100
1000
0010
0001
0010
,
1000
0001
1000
0001
0100
0010
0100
0010
1000
0001
1000
0001
0010
0000
0000
0000
,
0110
0000
0000
0100
0000
0000
1000
0000
0000
0001
0000
0000
0010
0000
0001
0000
,
1000
0000
0000
0010
0000
0000
0100
0000
0000
0001
0000
0000
1000
0000
0100
0000
,
0110
0000
0000
1000
0000
0000
0001
0000
0000
0010
0000
0000
0100
0000
1000
0000
,
0001
0000
0000
0100
0000
0000
0010
0000
0000
0001
0000
0000
0010
0000
1000
0000
,
1001
0000
0000
0100
0000
0000
0010
0000
0000
0001
0000
0000
0100
0000
0010
0000
,
1010
0000
0000
1000
0000
0000
0001
0000
0000
0010
0000
0000
0100
0000
1000
0000
,
1100
0000
0000
1000
0000
0000
1001
0000
0000
0001
0000
0000
0011
0000
0010
0000
,
0110
0000
0000
0100
0000
0000
1000
0000
1001
0000
0101
0000
1100
0000
0000
0000
,
0100
0000
0000
1000
0100
0000
0100
1000
0000
1000
0001
0000
0010
0000
0001
0000
,
0100
0000
0000
0001
0100
0000
0100
0001
0000
0001
1000
0000
0010
0000
1000
0000
,
0001
0000
0000
1000
0001
0000
0001
0010
0000
0010
0100
0000
1000
0000
0010
0000
,
0100
0000
0000
0010
0100
0000
0100
0001
0000
0001
1000
0000
0001
0000
0010
0000
,
0100
0000
1000
0001
1000
0000
0001
0100
0000
0010
1000
0000
0100
0000
1000
0000
,
0100
0000
0010
0001
1000
0000
0001
0010
0000
0010
0001
0000
0100
0000
0001
0000
,
1000
0000
0001
0100
0001
0010
0001
0000
0010
0000
0100
1000
0001
0000
1000
0000
,
0001
0000
1000
0100
1000
0000
1001
0000
0001
0100
0001
0000
0010
0000
0100
0000
,
0110
0000
0000
0000
;
#NOTES:
     dance-single:
     :
     Challenge:
     10:
     :
0000
0000
0000
0000
,
0000
0000
0000
0000
,
0000
0000
0000
0000
,
0000
0000
0000
0000
,
1000
0000
0001
0100
1000
0000
0100
0001
0010
0000
0001
0010
0100
0000
1000
0100
,
0001
0000
0100
1000
0010
0000
1000
0010
0100
0000
0001
1000
0100
0000
1000
0001
,
0100
0010
1000
0010
0001
0010
1000
0100
,
0001
0100
0010
0100
1000
0100
0010
0000
0001
0010
0100
1000
0001
0000
0100
0000
,
0010
0000
0000
1000
0000
0000
0100
0000
0000
0001
0000
0000
0100
0000
1000
0000
,
1001
0000
0000
0001
0000
0000
0100
0000
0000
1000
0000
0000
0100
0000
0001
0000
,
0010
0000
0000
0100
0000
0000
1000
0000
0000
0001
0000
0000
0100
0000
0010
0000
,
0101
0000
0000
0001
0000
0000
0100
0000
0000
1000
0000
0000
0100
0000
0001
0000
,
0010
0000
0100
0010
0100
0000
0010
0100
1000
0000
0100
0000
0010
0000
0001
0000
,
0100
0000
1000
0100
0001
0000
0100
0010
0100
0000
0010
0000
1000
0000
0100
0000
,
0010
0000
0001
1000
0100
0000
1000
0001
0100
0000
0001
0000
0010
0000
0100
0000
,
1000
0000
0001
0100
0000
1001
1001
0000
,
0100
0000
0000
0001
0100
0000
0010
1000
0000
0001
0100
0000
0001
0000
1000
0000
,
1001
0000
0000
1000
0100
0000
0010
0001
0000
1000
0100
0000
1000
0000
0001
0000
,
1001
0000
0000
0100
0010
0000
1000
0001
0000
0010
0100
0000
1000
0000
0001
0000
,
1001
0000
0000
0100
0001
0000
0100
1000
0000
0100
0010
0000
0100
0000
0001
0000
,
0010
0000
0100
1000
0100
0000
0010
0001
0000
0100
0001
0000
0100
0000
0010
0000
,
1000
0000
0001
0100
0001
0000
1000
0010
0000
0100
0001
0000
1000
0000
0100
0000
,
0010
0000
0100
1000
0100
0000
0010
0001
0000
1000
0100
0000
0001
0000
0100
0000
,
1000
0000
0001
1000
0001
0000
1000
0010
0000
0100
0001
0000
1000
0000
0001
0000
,
0100
0000
0000
0000
0001
0100
0001
0010
0001
0000
1000
0000
1001
0000
0000
0000
,
0110
0000
0001
0000
1000
0000
0001
0010
0001
0000
0100
0000
0010
0000
0000
0000
,
1010
0000
0000
0000
0010
0100
0001
0100
0010
0000
1000
0000
0100
0000
0000
0000
,
1010
0000
0100
0001
0100
0000
0010
0000
1000
0000
0001
0010
0001
0000
0000
0000
,
0110
0000
0000
0000
1000
0001
1000
0100
1000
0000
0001
0000
0010
0000
0000
0000
,
0011
0000
1000
0100
1000
0000
0001
0010
0001
0000
1000
0001
1000
0000
0000
0000
,
1001
0000
0000
0000
0100
1000
0100
0001
0100
0000
1000
0000
0001
0000
0000
0000
,
0110
0000
1000
0001
1000
0000
0001
0100
0001
0000
1000
0100
1000
0010
1000
0000
,
0002
0000
0000
0003
,
2000
0000
0000
3000
,
0020
0000
0100
0030
,
0200
0000
0010
0300
,
0002
0103
0020
1030
,
2000
3010
0200
0301
,
0002
1000
2003
0100
3200
0010
0320
0001
,
0031
0100
0010
1000
0001
0100
0010
1000
0100
1000
0001
0010
0100
1000
0001
0010
,
0100
0000
0000
1000
0000
0000
0001
0000
0000
0100
0000
0000
0010
0000
1000
0000
,
0101
0000
0000
1000
0000
0000
0001
0000
0000
1000
0000
0000
0100
0000
1000
0000
,
0011
0000
0000
0100
0000
0000
1000
0000
0000
0010
0000
0000
0100
0000
0001
0000
,
1001
0000
0000
1000
0000
0000
0100
0000
0000
0001
0000
0000
0100
0000
0010
0000
,
0011
0000
1000
0010
0100
0000
0001
0100
0000
0010
1000
0000
0100
0000
1000
0000
,
1010
0000
0100
0001
0100
0000
0001
1000
0000
0100
0010
0000
0100
0000
1000
0000
,
0110
0000
1000
0100
0010
0000
0100
1000
0000
0001
0100
0000
0010
0000
1000
0000
,
1001
0000
0001
0010
0100
0000
0010
0001
0000
1000
0100
0000
1000
0000
0001
0000
,
0100
0000
0010
0000
1000
0001
1000
0010
0000
0100
0001
0000
0010
0000
0100
0000
,
0110
0000
0010
0001
1000
0000
0001
1000
0100
0000
1000
0010
0100
0010
1000
0000
,
0001
0000
0100
0000
0010
1000
0100
1000
0000
0100
0010
0000
0001
0000
1000
0000
,
0001
0000
0100
0010
0100
0000
0000
0010
1000
0000
0001
0000
0010
0000
0100
0000
,
1001
0000
0100
0001
1000
0000
0010
1000
0100
0000
1000
0010
1000
0001
1000
0100
,
1000
0000
0001
0100
0001
0000
0010
1000
0010
0000
0100
0001
1000
0010
1000
0001
,
0100
0000
0000
0000
0001
1000
0100
0010
0001
0010
0100
0000
1000
0000
0001
0000
,
0101
0000
1000
0100
0010
0000
0100
0000
1000
0010
0100
0000
0001
0000
0100
0000
,
0010
0100
0110
0000
;
#NOTES:
     dance-double:
     :
     Beginner:
     1:
     :
00000000
00000000
00000000
00000000
,
00000000
00000000
00000000
00000000
,
00000000
00000000
00000000
00000000
,
00000000
00000000
00000000
00000000
,
10000000
00000000
00000000
00000000
,
00010000
00000000
00000000
00000000
,
01000000
00000000
00000000
00000000
,
00001000
00000000
00000000
00000000
,
00010000
00000000
00000000
00000000
,
00000010
00000000
00000000
00000000
,
00001000
00000000
00000000
00000000
,
00000001
00000000
00000000
00000000
,
00000100
00000000
00000000
00000000
,
00000010
00000000
00000000
00000000
,
00010000
00000000
00000000
00000000
,
00001000
00000000
00000000
00000000
,
00100000
00000000
00100000
00000000
,
00100000
00000000
00000000
00000000
,
01000000
00000000
10000000
00000000
,
01000000
00000000
00000000
00000000
,
00010000
00000000
00010000
00000000
,
00010000
00000000
00000000
00000000
,
00001000
00000000
00100000
00000000
,
00001000
00000000
00000000
00000000
,
00010000
00000000
00010000
00000000
,
00010000
00000000
00000000
00000000
,
00000100
00000000
00001000
00000000
,
00000100
00000000
00000000
00000000
,
00000010
00000000
00000010
00000000
,
00000010
00000000
00000000
00000000
,
00000001
00000000
00001000
00000000
,
00000001
00000000
00000000
00000000
,
00001001
00000000
00000000
00000000
,
00000000
00000000
00000000
00000000
,
00001000
00000000
00000000
00000000
,
00000000
00000000
00000000
00000000
,
00000100
00000000
00000000
00000000
,
00000000
00000000
00000000
00000000
,
00010000
00000000
00000000
00000000
,
00001000
00000000
01000000
01000000
,
01000000
00000000
00000000
00000000
,
00100000
00000000
00000000
00000000
,
10000000
00000000
00000000
00000000
,
01000000
00000000
00000000
00000000
,
00010000
00000000
00000000
00000000
,
00001000
00000000
00000000
00000000
,
00000100
00000000
00000000
00000000
,
00000001
00000000
00000000
00000000
,
00000010
00000000
00000010
00000000
,
00000001
00000000
00000000
00000000
,
00000100
00000000
00000100
00000000
,
00001000
00000000
00000000
00000000
,
00010000
00000000
00010000
00000000
,
00100000
00000000
00000000
00000000
,
10000000
00000000
10000000
00000000
,
00010000
00000000
10000000
00000000
,
10010000
00000000
00000000
00000000
;
#NOTES:
     dance-double:
     :
     Easy:
     2:
     :
00000000
00000000
00000000
00000000
,
00000000
00000000
00000000
00000000
,
00000000
00000000
00000000
00000000
,
00000000
00000000
00000000
00000000
,
10000000
00000000
00010000
00000000
,
00100000
00000000
00001000
00000000
,
00010000
00000000
00000010
00000000
,
00000100
00000000
00000010
00000000
,
00000110
00000000
00000000
00000000
,
00010000
00000000
00000000
00000000
,
00001000
00000000
00000000
00000000
,
01000000
00000000
00000000
00000000
,
00010000
00000000
10000000
00000000
,
00100000
00000000
01000000
00000000
,
00001000
00000000
00010000
00000000
,
00000100
00000000
00000010
00000000
,
00000001
00000000
00000100
00000000
,
00001000
00000000
00011000
00000000
,
00010000
00000000
01000000
00000000
,
10000000
00000000
10010000
00000000
,
01000000
00000000
00001000
00000000
,
00010000
00000000
00011000
00000000
,
00010000
00000000
00000100
00000000
,
00001000
00000000
00001001
00000000
,
00000001
00000000
00001000
00000000
,
00000100
00000000
00010000
00000000
,
00001000
00000000
01000000
00000000
,
00100000
00000000
10000000
00000000
,
10010000
00000000
01000000
00000000
,
00001000
00000000
00010000
00000000
,
00000100
00000000
00001000
00000000
,
00000001
00000000
00000010
00000000
,
00000110
00000000
00000000
00000000
,
00000000
00000000
00000000
00000000
,
00011000
00000000
00000000
00000000
,
00000000
00000000
00000000
00000000
,
00010000
00000000
00000000
00000000
,
10000000
00000000
00000000
00000000
,
00100000
00000000
01000000
00000000
,
00001000
00000000
00010000
00000000
,
00000100
00000000
00000000
00000000
,
00000001
00000000
00000000
00000000
,
00000100
00000000
00000000
00000000
,
00010000
00000000
00000000
00000000
,
00001000
00000000
01000000
00000000
,
00100000
00000000
00000000
00000000
,
10000000
00000000
01000000
00000000
,
00100000
00000000
00001000
00000000
,
00010000
00000000
00001000
00000000
,
00010000
00000000
00011000
00000000
,
00001000
00000000
00010000
00000000
,
00000100
00000000
00000010
00000000
,
00000001
00000000
00001000
00000000
,
00000010
00000000
00000110
00000000
,
00000100
00000000
00000001
00000000
,
00001000
00000000
00000100
00000000
,
00011000
00000000
00000000
00000000
;
#NOTES:
     dance-double:
     :
     Medium:
     7:
     :
00000000
00000000
00000000
00000000
,
00000000
00000000
00000000
00000000
,
00000000
00000000
00000000
00000000
,
00000000
00000000
00000000
00000000
,
10000000
01000000
00010000
00001000
,
00010000
00001000
00000100
00000001
,
00000100
00000010
00010000
00000000
00001000
01000000
00100000
00000000
,
10000000
00000000
01000000
00100000
00001000
00010000
00001000
00000000
,
00010010
00000000
00000000
00000100
00000000
00000000
00000001
00001000
,
00000001
00000000
00000000
00000010
00000000
00000000
00000100
00010000
,
00001000
00000000
00000000
01000000
00000000
00000000
00100000
10000000
,
01000000
00000000
00000000
00010000
00000000
00000000
00001000
00000010
,
00000001
00000000
00000000
00001001
00000000
00000000
00000100
00001000
,
00010000
00000000
00000000
00011000
00000000
00000000
00010000
01000000
,
10000000
00000000
00000000
01100000
00000000
00000000
00001000
01000000
,
00010000
00000000
00000000
00100000
00000000
00000000
00001000
00000000
00000000
00000000
00000000
00000000
00011000
00000000
00000000
00000000
,
00000100
00001000
00000100
00000000
00000010
00000001
00000010
00000000
,
00000001
00000100
00000010
00001000
00000000
00000000
00011000
00000000
,
00001000
00100000
01000000
00000000
10000000
00100000
01000000
00000000
,
00001000
00010000
00000100
00000010
00000000
00000000
00000110
00000000
,
00001000
00000001
00000100
00000000
00001000
00010000
01000000
00000000
,
10000000
00010000
00100000
00001000
00000000
00000000
00101000
00000000
,
00001000
00010000
00000010
00000000
00001000
00000100
00000001
00000000
,
00000100
00000000
00000000
00010000
00000000
00000000
00001000
00000000
00000000
00000000
00000000
00000000
00011000
00000000
00000000
00000000
,
01010000
00000000
00010000
01000000
00100000
10000000
01000000
00000000
,
10000000
01000000
00010000
00000000
00000000
00001000
00010000
00000000
,
00011000
00000000
00000010
00001000
00000001
00000010
00000100
00000000
,
00001000
00000001
00000100
00000000
00000000
00001000
00010000
00000000
,
00011000
00000000
00010000
01000000
00100000
01000000
10000000
00000000
,
00010000
00100000
01000000
00000000
00000000
00010000
00001000
00000000
,
00011000
00000000
00000010
00001000
00000100
00001000
00000010
00000000
,
00000100
00000001
00000010
00000001
00000100
00001000
00010000
00000000
,
00022000
00000000
00000000
00033000
,
00000000
00000000
00000000
00000000
,
02200000
00000000
00000000
03300000
,
00000000
00000000
00000000
00000000
,
10000000
00000000
00010000
00000000
,
01000000
00000000
00001000
00000000
,
00010000
00000100
00001000
00000001
,
00000100
00000010
00000100
00000010
00010000
00001000
00010000
00000000
,
00001000
00000000
00000000
00100000
00000000
00000000
00010000
00000000
00000000
10000000
00000000
00000000
00100000
00000000
01000000
00000000
,
00001000
00000000
00000000
00010000
00000000
00000000
00000100
00000000
00000000
00001000
00000000
00000000
00000010
00000000
00000100
00000000
,
00000001
00000000
00000000
00000100
00000000
00000000
00001000
00000000
00000000
00010000
00000000
00000000
00001000
00000000
00010000
00000000
,
00001000
00000000
00000000
00010000
00000000
00000000
01000000
00000000
00000000
10000000
00000000
00000000
00100000
00000000
10000000
00000000
,
01000000
00000000
00000000
00100000
00000000
00000000
00010000
00000000
00000000
01000000
00000000
00000000
00001000
00000000
00010000
00000000
,
00001000
00000000
00000000
00000010
00000000
00000000
00000001
00000000
00000000
00000010
00000000
00000000
00001000
00000000
00010000
00000000
,
00001000
00000000
00000000
01000000
00000000
00000000
00010000
00000000
00000000
01000000
00000000
00000000
10000000
00000000
01000000
00000000
,
00010000
00000000
00000000
01000000
00000000
00000000
00001000
00000000
00000000
00010000
00000000
00000000
00011000
00000000
00000000
00000000
,
00010000
00000000
00000100
00000000
00000010
00000000
00000001
00000000
00000000
00000100
00000000
00000000
00000001
00000000
00000100
00000000
,
00000010
00000000
00010000
00000000
00001000
00000000
00100000
00000000
00000000
01000000
00000000
00000000
01100000
00000000
00000000
00000000
,
10000000
00000000
01000000
00000000
00010000
00000000
00001000
00000000
00000000
00010000
00000000
00000000
00001000
00000000
00000100
00000000
,
00000001
00000000
00000010
00000000
00001000
00000000
00010000
00000000
00000000
00001000
00000000
00000000
00011000
00000000
00000000
00000000
,
00001000
00000000
01000000
00000000
00100000
00000000
10000000
00000000
00000000
00010000
00000000
00000000
00100000
00000000
01000000
00000000
,
00010000
00000000
00000000
00001000
00000000
00000000
00010000
00000000
00000000
00000100
00000000
00000000
00001000
00000000
00000010
00000000
,
00000101
00001000
00001100
00010000
,
00011000
00000000
00000000
01100000
00000000
00000000
10010000
01000000
,
10010000
00000000
00000000
00000000
;
#NOTES:
     dance-double:
     :
     Hard:
     9:
     :
00000000
00000000
00000000
00000000
,
00000000
00000000
00000000
00000000
,
00000000
00000000
00000000
00000000
,
00000000
00000000
00000000
00000000
,
10000000
01000000
00100000
00010000
,
00001000
00000010
00000100
00000001
,
00000010
00001000
00010000
00100000
,
10000000
00000000
00000000
00010000
00000000
00000000
00100000
00000000
01000000
00000000
10000000
00000000
00100000
00000000
01000000
00000000
,
00010000
00000000
00000000
10000000
00000000
00000000
01000000
00000000
00000000
00010000
00000000
00000000
00001000
00000000
00010000
00000000
,
00001000
00000000
00000000
00000100
00000000
00000000
00000001
00000000
00000000
00000010
00000000
00000000
00000100
00000000
00000010
00000000
,
00000001
00000000
00000000
00000100
00000000
00000000
00001000
00000000
00000000
00000100
00000000
00000000
00001000
00000000
00010000
00000000
,
00001000
00000000
00000000
00010000
00000000
00000000
01000000
00000000
00000000
10000000
00000000
00000000
00100000
00000000
01000000
00000000
,
00100000
00000000
10000000
01000000
10000000
00000000
00010000
00000000
01000000
00000000
00001000
00010000
00001000
00000000
00010000
00000000
,
00000100
00001000
00001010
00000101
,
00000010
00000000
00001000
00000100
00001000
00000000
00000100
00000000
00010000
00000000
00001000
00010000
00001000
00000000
01000000
00000000
,
00100000
00000000
00000000
10000000
00000000
00000000
01000000
00000000
00000000
00000000
01100000
00000000
01100000
00000000
00000000
00000000
,
10000000
00000000
00000000
01000000
00100000
00000000
01000000
00100000
00000000
01000000
00100000
00000000
00010000
00000000
01000000
00000000
,
00001000
00000000
00000000
00010000
00001000
00000000
00010000
00001000
00000000
00010000
00001000
00000000
00010000
00000000
00000100
00000000
,
00001000
00000000
00000000
00000010
00001000
00000000
00000001
00001000
00000000
00000001
00000100
00000000
00000010
00000000
00010000
00000000
,
00001000
00000000
00000000
00010000
00000100
00000000
00010000
00001000
00000000
01000000
00001000
00000000
00100000
00000000
00010000
00000000
,
01000000
00000000
00100000
10000000
00100000
00000000
10000000
00000000
00010000
00000000
01000000
00010000
01000000
00000000
00001000
00000000
,
00010000
00000000
00001000
00010000
00001000
00000000
00010000
00000000
00000100
00000000
00001000
00000010
00001000
00000000
00000001
00000000
,
00001000
00000000
00000010
00000100
00000001
00000000
00000100
00000000
00001000
00000000
00010000
00001000
00100000
00000000
00010000
00000000
,
10000000
00000000
00000000
01000000
00000000
00000000
00010000
00000000
00000000
00000000
00011000
00000000
00011000
00000000
00000000
00000000
,
00010000
00000000
00000000
00000000
00001000
00000000
00000000
00000000
00000010
00000000
00000001
00001000
00000001
00000000
00001000
00000000
,
00000010
00000000
00000100
00000001
00000010
00000000
00000100
00000000
00010000
00000000
00001000
00000000
00010000
00000000
01000000
00000000
,
00100000
00000000
00010000
01000000
00100000
00000000
10000000
00000000
01000000
00000000
00010000
00000000
00001000
00000000
00010000
00000000
,
00001000
00000000
00000100
00000010
00001000
00000000
00000100
00000010
00000001
00000000
00000100
00000000
00001000
00000000
00010000
00000000
,
00001000
00000000
00010000
00001000
01000000
00000000
00010000
00100000
01000000
00000000
10000000
00000000
00010000
00000000
01000000
00000000
,
00100000
00000000
10000000
01000000
00100000
00010000
10000000
00000000
01000000
00000000
00010000
00000000
01000000
00000000
00010000
00000000
,
00001000
00000000
00010000
00000100
00010000
00000000
00000100
00001000
00000100
00000000
00001000
00000001
00001000
00000000
00000001
00000010
,
00000001
00000100
00001000
00010000
00001000
00010000
01000000
10000000
,
00020000
00000000
00000000
00030000
,
00000000
00000000
00000000
00000000
,
01000000
00000000
00001000
00000000
,
00011000
00000000
00000110
00000000
,
00000001
00000100
00001010
00011000
,
01000000
00010000
01100000
10010000
,
10000000
01000000
00010000
00001000
00010000
00001000
00000010
00000001
,
00000100
00000001
00000100
00000001
00001000
00000010
00001000
00000010
00010000
00001000
00010000
00001000
00100000
00000000
00000000
00000000
,
01100000
00000000
00000000
01000000
00000000
00000000
10000000
00000000
00000000
00010000
00000000
00000000
00100000
00000000
00001000
00000000
,
00010000
00000000
00000000
00000010
00000000
00000000
00000100
00000000
00000000
00000001
00000000
00000000
00001000
00000000
00000100
00000000
,
00001001
00000000
00000000
00000001
00000000
00000000
00000010
00000000
00000000
00000100
00000000
00000000
00010000
00000000
00001000
00000000
,
01000000
00000000
00000000
00010000
00000000
00000000
00100000
00000000
00000000
01000000
00000000
00000000
10000000
00000000
00010000
00000000
,
00110000
00000000
00000000
10000000
00000000
00000000
01000000
00000000
00000000
00010000
00000000
00000000
00001000
00000000
00010000
00000000
,
00011000
00000000
00000000
00001000
00000000
00000000
00000100
00000000
00000000
00000001
00000000
00000000
00000010
00000000
00000001
00000000
,
00000011
00000000
00000000
00001000
00000000
00000000
00001010
00000000
00000000
00000100
00000000
00000000
00011000
00000000
00100000
00000000
,
01010000
00000000
00000000
00100000
00000000
00000000
10010000
00000000
01000000
00000000
00100000
00000000
10010000
00000000
00000000
00000000
,
01000000
00000000
00000000
10000000
01000000
00000000
01000000
00010000
00000000
00010000
00001000
00000000
00010000
00000000
00010000
00000000
,
00001000
00000000
00000000
00001000
00000100
00000000
00000100
00000001
00000000
00000001
00001000
00000000
00000010
00000000
00000010
00000000
,
00000100
00000000
00000000
00000010
00010000
00000000
00010000
00001000
00000000
00001000
01000000
00000000
00100000
00000000
10000000
00000000
,
00010000
00000000
00000000
01000000
00001000
00000000
00001000
00010000
00000000
00010000
00000010
00000000
00001000
00000000
00000100
00000000
,
00000010
00000000
00000001
00001000
00000001
00000000
00001000
00000100
00000000
00000100
00010000
00000000
00001000
00000000
01000000
00000000
,
00100000
00000000
10000000
00010000
10000000
00000000
00010000
00100000
00000000
00100000
00001000
00000000
00010000
00000000
00000100
00000000
,
00001000
00000000
00000010
00000100
00000001
00001000
00000010
00000000
00010000
00000000
00001000
00010000
01000000
00000000
10000000
00000000
,
00010000
00000000
00100000
00001000
00100000
00000000
00011000
00000000
00010000
00000100
00010000
00000000
00001000
00000000
00010000
00000000
,
00011000
00000000
00000000
00000000
;
#NOTES:
     dance-double:
     :
     Challenge:
     10:
     :
00000000
00000000
00000000
00000000
,
00000000
00000000
00000000
00000000
,
00000000
00000000
00000000
00000000
,
00000000
00000000
00000000
00000000
,
10000000
00000000
00100000
10000000
01000000
00000000
00100000
00000000
00001000
00000000
01000000
00000000
00010000
00000000
00100000
00000000
,
01000000
00000000
00010000
00001000
00000100
00000000
00000010
00000000
00001000
00000000
00000100
00000000
00000010
00000000
00000001
00000000
,
00001000
00000000
00000010
00000100
00001000
00000000
00010000
00000000
01000000
00000000
10000000
00000000
00100000
00000000
01000000
00000000
,
00001000
00000000
00010000
00001000
00010000
00000000
00001000
00000000
00000100
00000010
00000100
00000000
00000001
00000000
00000010
00000000
,
00000100
00000000
00000000
00001000
00000000
00000000
00000100
00000000
00000000
00010000
00000000
00000000
00001000
00000000
00010000
00000000
,
00011000
00000000
00000000
00010000
00000000
00000000
01000000
00000000
00000000
00100000
00000000
00000000
00010000
00000000
10000000
00000000
,
11000000
00000000
00000000
01000000
00000000
00000000
00100000
00000000
00000000
00001000
00000000
00000000
00010000
00000000
00000100
00000000
,
00010100
00000000
00000000
00000100
00000000
00000000
00001000
00000000
00000000
00000010
00000000
00000000
00000100
00000000
00000001
00000000
,
00000101
00000000
00000001
00000100
00001000
00000000
00010000
00000000
00001000
00000000
00010000
00000000
00100000
00000000
10000000
00000000
,
01000000
00000000
10000000
01000000
00100000
00000000
00010000
00000000
01000000
00000000
00001000
00000000
00010000
00000000
00000100
00000000
,
00001000
00000000
00000001
00000010
00000100
00000000
00001000
00000000
00000001
00000000
00000100
00000000
00001000
00000000
00010000
00000000
,
00001000
00000000
00000000
00010000
00000000
00000000
01000000
00000000
00000000
00000000
00100000
00000000
01100000
00000000
00000000
00000000
,
10000000
00000000
00000000
00010000
01000000
00000000
00001000
00010000
00000000
00000100
00010000
00000000
00000010
00000000
00001000
00000000
,
00000001
00000000
00000000
00001000
00000100
00000000
00010000
00001000
00000000
01000000
00010000
00000000
10000000
00000000
00100000
00000000
,
01000000
00000000
00000000
00010000
00100000
00000000
00001000
00010000
00000000
00000010
00001000
00000000
00000100
00000000
00000010
00000000
,
00000001
00000000
00000000
00000100
00000010
00000000
00010000
00001000
00000000
01000000
00100000
00000000
10000000
00000000
01000000
00000000
,
10000000
00000000
01000000
10000000
00100000
00000000
01000000
00010000
00000000
00100000
00001000
00000000
00010000
00000000
00001000
00000000
,
00010000
00000000
00000100
00001000
00000010
00000000
00000100
00000001
00000000
00000010
00000001
00000000
00000100
00000000
00000010
00000000
,
00001000
00000000
00000001
00000100
00000010
00000000
00001000
00000010
00000000
00010000
00000100
00000000
00010000
00000000
00001000
00000000
,
01000000
00000000
00010000
00100000
01000000
00000000
10000000
00100000
00000000
01000000
00010000
00000000
10000000
00000000
00010000
00000000
,
01000000
00000000
00000000
00000000
00001000
00010000
00001000
00010000
00001000
00000000
00010000
00000000
00010010
00000000
00000000
00000000
,
00001010
00000000
00000100
00000000
00000001
00000000
00000010
00000001
00000100
00000000
00001000
00000000
00010000
00000000
00000000
00000000
,
00011000
00000000
00000000
00000000
00100000
00010000
00100000
00010000
00100000
00000000
00010000
00000000
10000000
00000000
00000000
00000000
,
10010000
00000000
01000000
00100000
01000000
00000000
00001000
00000000
00010000
00000000
00001000
00010000
00000100
00000000
00000000
00000000
,
00001100
00000000
00000000
00000000
00000100
00000010
00000100
00000010
00000100
00000000
00001000
00000000
00000001
00000000
00000000
00000000
,
00000101
00000000
00000100
00000010
00000100
00000000
00000010
00010000
00000010
00000000
00010000
00001000
00010000
00000000
00000000
00000000
,
00011000
00000000
00000000
00000000
00001000
00010000
00001000
00100000
00001000
00000000
01000000
00000000
00010000
00000000
00000000
00000000
,
10010000
00000000
10000000
01000000
00100000
00000000
00010000
01000000
00001000
00000000
00010000
00000100
00001000
00000010
00010000
00000000
,
00002000
00000000
00000000
00003000
,
00020000
00000000
00000000
00030000
,
00000200
00000000
00000010
00000300
,
00000002
00000000
00001000
00000003
,
00000200
00000310
00020000
00031000
,
00200000
01300000
20000000
30010000
,
00200000
00001000
00302000
00010000
00023000
00000100
00030200
00001300
,
00000001
00000100
00000010
00001000
00000001
00000100
00000010
00001000
00000100
00010000
00000010
00001000
00000100
00010000
00000010
00001000
,
00000100
00000000
00000000
00010000
00000000
00000000
00001000
00000000
00000000
01000000
00000000
00000000
00100000
00000000
10000000
00000000
,
01100000
00000000
00000000
10000000
00000000
00000000
01000000
00000000
00000000
00010000
00000000
00000000
00001000
00000000
00010000
00000000
,
00011000
00000000
00000000
00010000
00000000
00000000
00001000
00000000
00000000
00000100
00000000
00000000
00000001
00000000
00000010
00000000
,
00000110
00000000
00000000
00001000
00000000
00000000
00000001
00000000
00000000
00000100
00000000
00000000
00001000
00000000
00010000
00000000
,
00011000
00000000
00001000
00010000
00001000
00000000
01000000
00010000
00000000
00100000
01000000
00000000
10000000
00000000
00010000
00000000
,
01010000
00000000
10000000
01000000
10000000
00000000
00010000
01000000
00000000
00001000
00010000
00000000
00000100
00000000
00001000
00000000
,
00001001
00000000
00000010
00000001
00001000
00000000
00000100
00010000
00000000
00001000
01000000
00000000
00100000
00000000
10000000
00000000
,
11000000
00000000
00100000
00010000
01000000
00000000
00001000
00010000
00000000
00000100
00001000
00000000
00000010
00000000
00001000
00000000
,
00000001
00000000
00000010
00000000
00000001
00001000
00000001
00000100
00000000
00000010
00001000
00000000
00000100
00000000
00010000
00000000
,
00011000
00000000
00100000
00010000
10000000
00000000
00010000
10000000
01000000
00000000
00100000
00010000
00100000
00010000
00100000
00000000
,
00001000
00000000
00010000
00000000
00001000
00010000
00000100
00010000
00000000
00000010
00001000
00000000
00000001
00000000
00000100
00000000
,
00000010
00000000
00000100
00000001
00000100
00000000
00000010
00000000
00001000
00000000
00010000
00000000
00100000
00000000
01000000
00000000
,
10010000
00000000
01000000
10000000
00010000
00000000
00100000
00001000
00010000
00000000
00000010
00010000
00000010
00001000
00000010
00000100
,
00000001
00000000
00000010
00000100
00000010
00000000
00000001
00001000
00000100
00000000
00010000
00001000
01000000
00010000
00100000
01000000
,
10000000
00000000
00000000
00000000
00100000
10000000
01000000
00010000
00001000
00000100
00000001
00000000
00000010
00000000
00000100
00000000
,
00000110
00000000
00000001
00000100
00001000
00000000
00010000
00000000
00001000
00010000
01000000
00000000
00010000
00000000
01000000
00000000
,
10000000
00010000
10010000
00000000
;
