
//----- song ID: fift -----
#TITLE:A Fifth of Beethoven;
#ARTIST:Walter Murphy and The Big Apple Band;
#BANNER:A Fifth of Beethoven.png;
#BACKGROUND:A Fifth of Beethoven-bg.png;
#CDTITLE:./CDTitles/DDR UNIVERSE3.png;
#MUSIC:A Fifth of Beethoven.ogg;
#OFFSET:-0.513;
#SAMPLESTART:20.445;
#SAMPLELENGTH:15;
#DISPLAYBPM:110;
#BPMS:0=103.004,8=105.882,16=107.356,28=107.784,36=107.463,44=107.303,52=108.108,56=109.091,58=111.111,62=109.756,67=108,70=107.784,78=107.946,86=108.652,92=108.597,100=109.756,108=108.434,116=108.761,124=108.761,132=109.091,140=108.761,148=109.422,156=111.283,164=113.924,172=109.924,180=109.256,188=109.256;
#NOTES:
     dance-single:
     :
     Beginner:
     1:
     :
0000
0000
0000
0000
,
0000
0000
0000
0000
,
0000
0000
0000
0000
,
0000
0000
0000
0000
,
1000
0000
0000
0000
,
0001
0000
0000
0000
,
1000
0000
0100
0000
,
1000
0000
0000
0000
,
0010
0000
0100
0000
,
0010
0000
0000
0000
,
1000
0000
0001
0000
,
1000
0000
0000
0000
,
0001
0000
0000
0000
,
0100
0000
0000
0000
,
0001
0000
0100
0000
,
0000
0000
0010
0000
,
0000
0000
1000
0000
,
0001
0000
1000
0000
,
0000
0000
0001
0000
,
0000
0000
1000
0000
,
0000
0000
0010
0000
,
0000
0000
0100
0000
,
0100
0000
0001
0000
,
1000
0000
0000
0000
,
0001
0000
0000
0000
,
0100
0000
0000
0000
,
0010
0000
0000
0000
,
1000
0000
0000
0000
,
0100
0000
0000
0000
,
0010
0000
0000
0000
,
0001
0000
0000
0000
,
2000
0000
0000
3000
,
0000
0000
0000
0000
,
0002
0000
0000
0003
,
0000
0000
0000
0000
,
0200
0000
0000
0300
,
0000
0000
0000
0000
,
0020
0000
0000
0030
,
0000
0000
0000
0000
,
1000
1000
0000
0000
,
0001
0001
0000
0000
,
0010
0010
0000
0000
,
0100
0100
0000
0000
,
1000
0000
0000
0000
,
0001
0000
1000
0000
,
1001
0000
0000
0000
,
1000
0000
0000
0000
,
1001
0000
0000
0000
;
#NOTES:
     dance-single:
     :
     Easy:
     2:
     :
0000
0000
0000
0000
,
0000
0000
0000
0000
,
0000
0000
0000
0000
,
0000
0000
0000
0000
,
1000
0100
0000
0001
,
0100
0000
1000
0001
,
1000
0000
0001
0010
,
0001
0000
1000
0010
,
1000
0000
0001
1000
,
0010
0100
0020
0000
,
0000
0030
0000
0000
,
1000
0001
2000
0000
,
0000
3000
0000
0000
,
0010
0000
0100
0000
,
0001
1000
1001
0000
,
0000
0000
0110
0000
,
0000
0000
0010
0000
,
0001
0000
1000
0100
,
1000
0000
0001
0000
,
0100
0010
0100
0000
,
0001
1000
1001
0000
,
1001
0000
0001
0100
,
0001
1000
0100
1000
,
0001
0000
0010
0000
,
0100
0000
1000
0000
,
0001
0000
1000
0000
,
0001
0000
0100
0000
,
0010
0000
0100
0001
,
0100
0000
0001
0010
,
0001
0000
1000
0100
,
1000
0000
0001
1000
,
0001
0000
1000
0000
,
0010
0000
1000
0001
,
1001
0000
0010
0001
,
1000
0000
0100
1000
,
0001
0000
1000
0000
,
0010
0000
1000
0001
,
1001
0000
0010
0001
,
1000
0000
0100
1000
,
0001
0000
0100
0000
,
0010
0000
1000
0000
,
0100
0000
0010
0000
,
0001
1000
0010
0000
,
0100
0000
0110
0000
,
0010
0100
0001
1000
,
2002
0000
0000
3003
,
1000
0100
0010
0001
,
0100
0000
0000
0000
;
#NOTES:
     dance-single:
     :
     Medium:
     7:
     :
0000
0000
0000
0000
,
0000
0000
0000
0000
,
0000
0000
0000
0000
,
0000
0000
0000
0000
,
0001
0000
0001
0000
0001
0000
0000
0000
1000
0000
0100
0000
0000
1000
0001
0000
,
0010
0000
0001
0000
0100
0000
0000
0000
0001
0000
1000
0100
0000
0000
1000
0000
,
0001
0000
0100
0000
0010
0000
0000
0000
0100
0000
0001
1000
0000
1000
0001
0000
,
0010
0000
0100
0000
1000
0000
0000
0000
0100
0000
1000
0010
0000
0000
0100
0000
,
0001
0000
0010
0000
0100
0000
0000
0000
0010
0000
0001
1000
0000
1000
0001
0000
,
0200
0000
0000
0000
0320
0000
0000
0000
1030
0000
0000
0001
0000
1000
0001
0000
,
1000
0000
0100
0000
0001
0000
0000
0000
0100
0000
0010
0001
0000
0010
0001
0000
,
0200
0000
0000
0000
0320
0000
0000
0000
1030
0000
0000
0100
0000
1000
0010
0000
,
0100
0000
0001
0000
0010
0000
0000
0000
0001
0000
0100
0010
0000
0100
0010
0000
,
1000
0000
0000
0000
0001
1000
0001
0000
0010
0000
0000
0000
0001
1000
0001
0000
,
0100
0000
0000
0000
0010
0000
0000
0000
0200
0000
0000
0010
0000
0000
0010
0000
,
0000
0310
0000
0000
0000
0000
0000
0000
0002
0000
0000
1000
0000
0000
1000
0000
,
0000
1003
0000
0000
0000
0001
1000
0000
0100
0000
1000
0000
0100
0000
0000
0000
,
1000
0000
0001
0100
0000
0000
0010
0000
0001
0000
0010
0000
1000
0000
0000
0000
,
0001
0000
1000
0100
0000
1000
0100
0000
1000
0000
0000
0000
0001
0100
0001
0000
,
0101
0000
0000
0000
0010
1000
0010
0000
1010
0000
0000
0000
0100
1000
0100
0000
,
1100
1000
0001
0000
1001
0100
0010
0000
,
0110
0001
0100
0000
0101
0000
1001
0000
,
1100
1010
0110
0011
,
1000
0000
0100
0000
0001
0000
0000
0000
0100
0000
1000
0001
0000
0000
0010
0000
,
0001
0000
0100
0000
1000
0000
0000
0000
0100
0000
0001
1000
0000
0000
0010
0000
,
1000
0000
0100
0000
0010
0000
0000
0000
0100
0000
1000
0001
0000
0000
0100
0000
,
0001
0010
0100
1000
0001
1000
0000
0010
,
0100
0000
0110
0000
1000
0001
0100
0000
,
0001
0100
0001
0000
0010
0001
0100
0000
,
0001
0000
0010
0000
0100
1000
0010
0000
,
1000
0010
0100
0000
1000
0100
0001
0000
,
2000
0000
0001
0100
,
0001
0000
0000
0000
3010
0000
0000
0000
0100
0000
0001
1000
0001
1000
0000
0000
,
0001
0000
0110
0000
1010
0001
0100
0000
,
1001
0100
0001
0000
0011
1000
0100
0000
,
2000
0000
0001
0010
,
0001
0000
0000
0000
0100
0000
0000
0000
3001
0000
1000
0001
1000
0001
0000
0000
,
1000
0000
0110
0000
0101
1000
0010
0000
,
1001
0010
0100
0000
1100
0001
0010
0000
,
0100
0200
0000
1000
1000
0010
0310
0000
,
0001
0002
0000
0100
0100
1000
1003
0000
,
0010
0020
0000
0100
0100
1000
1030
0000
,
0001
0000
0000
1000
0000
0000
0001
0000
0000
0000
0000
0000
0000
0010
0100
0000
,
1000
0000
0000
0000
0000
0010
0100
0000
0001
0000
0000
0000
0000
0010
0100
0000
,
1000
0001
0100
1000
0100
0001
1000
0100
,
0020
0000
0000
0030
,
0001
0000
0000
0100
0000
0000
0010
0000
0000
1000
0000
0000
0000
0001
1000
0000
,
0001
0010
0000
0000
0000
0000
0000
0000
;
#NOTES:
     dance-single:
     :
     Hard:
     9:
     :
0000
0000
0000
0000
,
0000
0000
0000
0000
,
0000
0000
0000
0000
,
0000
0000
0000
0000
,
1000
0000
1000
0000
1000
0000
0000
0100
1000
0000
0001
0000
1000
0001
0100
0001
,
0100
0000
1000
0000
0100
0000
0001
0000
1000
0000
0100
1000
0000
0001
0100
0000
,
0010
0000
1000
0000
0001
0000
0010
0000
0100
0000
1000
0001
0000
0010
0001
0010
,
0001
0000
1000
0000
0010
0000
0001
0000
0010
0000
1000
0010
0000
0100
0001
0000
,
0100
0000
1000
0000
0100
0000
0001
0000
0010
0000
0100
1000
0000
0001
1000
0001
,
2000
0000
0000
3000
0000
0010
1000
0010
1000
0000
0100
0000
0010
0000
0000
0000
,
1001
0000
0100
0000
1000
0000
0000
0000
1001
0000
0100
0001
0000
1000
0001
1000
,
0002
0000
0000
0000
0003
1000
0010
1000
0010
0000
1000
0000
0100
0000
0000
0000
,
0011
0000
0100
0000
0001
0000
0000
0000
1010
0000
0100
0001
0000
0010
0001
0010
,
0001
0000
0000
0000
1000
0010
1000
0010
1000
0000
0000
0000
0001
0100
0001
0100
,
0001
0000
0000
0000
1000
0000
0000
0000
0002
0000
0000
0203
0000
0000
2300
0000
,
0000
3200
0000
0000
0300
0000
0000
0000
0002
0000
0000
0023
0000
0000
2030
0000
,
0000
3020
0000
0000
0030
0001
0010
0001
0010
0000
0001
0000
1000
0000
0010
0000
,
0100
0000
0001
1000
0000
0100
1000
0000
0010
0000
0100
0000
0001
0000
1000
0000
,
0100
0000
0010
0001
0000
0100
0010
0100
0010
0000
0000
0000
1000
0000
0000
0000
,
1001
0000
0100
0000
1000
0001
0010
0001
0010
0000
0000
0000
0100
0000
0000
0000
,
1001
0000
0100
0000
0001
0100
0010
0100
0010
0000
0000
0000
0000
1000
0010
1000
,
0010
0000
0000
0000
0000
0100
0001
0100
0001
0000
0000
0000
0011
0000
0000
0000
,
1100
0000
0000
0000
1001
0000
0000
0000
0110
0000
0000
0000
1000
0001
1000
0001
,
1000
0100
1000
0010
1000
0001
1000
0010
,
0100
0000
0001
0000
0100
0000
1000
0000
0100
0000
0000
0000
0000
0001
0010
0001
,
0010
0001
0010
0100
0010
1000
0010
0001
,
0200
0000
0310
0000
0020
0000
1030
0000
2000
0000
3001
0000
0000
1000
0001
1000
,
0001
0000
0000
0000
0100
0000
0100
0000
0010
1000
0010
1000
0000
0010
1000
0100
,
1000
0001
0010
0001
0000
0100
0001
0000
0010
0100
1000
0001
0000
0000
0000
0000
,
0010
0000
0000
0000
0100
0000
0100
0000
1000
0100
0010
0001
0000
1000
0100
1000
,
0010
0100
0001
0010
0000
0001
0100
0000
0001
1000
0100
0010
0000
0000
0100
0000
,
2000
0100
0000
3100
0010
0100
0001
0100
,
0010
0000
0100
0000
1000
0000
0100
0000
0010
0000
0001
1000
0001
1000
0000
0000
,
0001
0000
0000
0000
0010
0000
0010
0000
0100
1000
0001
1000
0000
0000
0001
0000
,
0010
0001
0100
0001
0000
0000
0100
0000
0010
1000
0100
1000
0000
0000
0000
0000
,
0002
0010
0000
0013
0100
0010
1000
0010
,
0100
0000
0010
0000
0001
0000
0010
0000
0100
0000
1000
0001
1000
0001
0000
0000
,
1000
0000
0000
0000
0010
0000
0010
0000
1000
0001
1000
0100
0000
0000
1000
0000
,
0001
0010
0001
0100
0000
0000
0001
0000
0010
0001
0010
0100
0000
0000
0000
0000
,
2000
0100
3100
0002
0000
0010
0010
1003
,
2000
0100
3100
0020
0000
0100
0100
0031
,
0002
1000
1003
2000
0000
0001
0001
3100
,
0100
1000
0000
0001
0000
0100
0010
0000
0000
0000
0100
0000
0001
1000
0001
1000
,
0001
0000
0000
0000
0000
0010
0001
0010
0001
0000
0000
0000
0000
1000
0010
1000
,
0010
1000
0001
0100
0001
0010
0100
1000
,
0020
0000
0000
0030
,
0100
0001
0000
1000
0100
0000
0010
0001
0000
1000
0010
0000
0000
1000
0001
1000
,
0001
1001
0000
0000
0000
0000
0000
0000
;
#NOTES:
     dance-double:
     :
     Beginner:
     1:
     :
00000000
00000000
00000000
00000000
,
00000000
00000000
00000000
00000000
,
00000000
00000000
00000000
00000000
,
00000000
00000000
00000000
00000000
,
00100000
00000000
00000000
00000000
,
00001000
00000000
00000000
00000000
,
00010000
00000000
00000100
00000000
,
00000001
00000000
00000000
00000000
,
00001000
00000000
00000010
00000000
,
00010000
00000000
00000000
00000000
,
00001000
00000000
01000000
00000000
,
00010000
00000000
00000000
00000000
,
10000000
00000000
00000000
00000000
,
00100000
00000000
00000000
00000000
,
00010000
00000000
00001000
00000000
,
00000000
00000000
00000010
00000000
,
00000000
00000000
00000001
00000000
,
00001000
00000000
00000100
00000000
,
00000000
00000000
00010000
00000000
,
00000000
00000000
00001000
00000000
,
00000000
00000000
00100000
00000000
,
00000000
00000000
00010000
00000000
,
00010000
00000000
10000000
00000000
,
10000000
00000000
00000000
00000000
,
00010000
00000000
00000000
00000000
,
01000000
00000000
00000000
00000000
,
00001000
00000000
00000000
00000000
,
00010000
00000000
00000000
00000000
,
00001000
00000000
00000000
00000000
,
00000100
00000000
00000000
00000000
,
00000001
00000000
00000000
00000000
,
00002000
00000000
00000000
00003000
,
00000000
00000000
00000000
00000000
,
00000200
00000000
00000000
00000300
,
00000000
00000000
00000000
00000000
,
00020000
00000000
00000000
00030000
,
00000000
00000000
00000000
00000000
,
00002000
00000000
00000000
00003000
,
00000000
00000000
00000000
00000000
,
00100000
00100000
00000000
00000000
,
00010000
00010000
00000000
00000000
,
10000000
10000000
00000000
00000000
,
00010000
00010000
00000000
00000000
,
01000000
00000000
00000000
00000000
,
00001000
00000000
00010000
00000000
,
00011000
00000000
00000000
00000000
,
00010000
00000000
00000000
00000000
,
00011000
00000000
00000000
00000000
;
#NOTES:
     dance-double:
     :
     Easy:
     3:
     :
00000000
00000000
00000000
00000000
,
00000000
00000000
00000000
00000000
,
00000000
00000000
00000000
00000000
,
00000000
00000000
00000000
00000000
,
10000000
10000000
00000000
01000000
,
00100000
00000000
00001000
00010000
,
00001000
00000000
00000100
00000010
,
00000100
00000000
00000001
00001000
,
00000001
00000000
00000100
00001000
,
00010000
01000000
20000000
00000000
,
00000000
30000000
00000000
00000000
,
00100000
00010000
00002000
00000000
,
00000000
00003000
00000000
00000000
,
00010000
00000000
00001000
00000000
,
00000100
00000010
00000220
00000000
,
00000330
00000000
00002002
00000000
,
00003003
00000000
00000001
00000000
,
00001000
00000000
00000100
00000000
,
00010000
00000000
00001000
00000000
,
00100000
00010000
01000000
00000000
,
00010000
10000000
10010000
00000000
,
10010000
00000000
00010000
01000000
,
00010000
00100000
00001000
00010000
,
00001000
00000000
00000100
00000000
,
00000001
00000000
00000100
00000000
,
00000010
00000000
00010000
00000000
,
00001000
00000000
00100000
00000000
,
01000000
00000000
10000000
01000000
,
00010000
00000000
01000000
00010000
,
00001000
00000000
00010000
00001000
,
00000010
00000000
00001000
00000010
,
00000001
00000000
00000100
00000000
,
00000010
00000000
00010000
00001000
,
00011000
00000000
00010000
00001000
,
01000000
00000000
00010000
01000000
,
00100000
00000000
10000000
00000000
,
01000000
00000000
00010000
00001000
,
00011000
00000000
00001000
00010000
,
00000100
00000000
00001000
00000010
,
00000100
00000000
00000001
00000000
,
00000100
00000000
00001000
00000000
,
00010000
00000000
01000000
00000000
,
10000000
00010000
00100000
00000000
,
00001000
00000000
00011000
00000000
,
00010000
00000100
00001000
00000010
,
00000200
00000000
00000000
00000300
,
00000001
00000100
00000010
00010000
,
00011000
00000000
00000000
00000000
;
#NOTES:
     dance-double:
     :
     Medium:
     7:
     :
00000000
00000000
00000000
00000000
,
00000000
00000000
00000000
00000000
,
00000000
00000000
00000000
00000000
,
00000000
00000000
00000000
00000000
,
00000001
00000000
00000001
00000000
00000100
00000000
00000000
00000000
00001000
00000000
00010000
00000000
00000000
00001000
00010000
00000000
,
01000000
00000000
10000000
00000000
00100000
00000000
00000000
00000000
10000000
00000000
00010000
01000000
00000000
00000000
00001000
00000000
,
00010000
00000000
00001000
00000000
00000100
00000000
00000000
00000000
00000001
00000000
00000010
00000001
00000000
00000100
00000001
00000000
,
00000100
00000000
00001000
00000000
00010000
00000000
00000000
00000000
01000000
00000000
10000000
00100000
00000000
00000000
10000000
00000000
,
00100000
00000000
00010000
00000000
00001000
00000000
00000000
00000000
00010000
00000000
00001000
00010000
00000000
00001000
00000100
00000000
,
00000002
00000000
00000000
00000000
00002003
00000000
00000000
00000000
00003010
00000000
00000000
00000110
00000000
00000000
00000000
00000001
,
00000100
00000000
00001000
00000000
00010000
00000000
00000000
00000000
01000000
00000000
10000000
00100000
00000000
10000000
01000000
00000000
,
00200000
00000000
00000000
00000000
00320000
00000000
00000000
00000000
10030000
00000000
00000000
01100000
00000000
00000000
00000000
10000000
,
00100000
00000000
00010000
00000000
00001000
00000000
00000000
00000000
00000010
00000000
00000001
00000100
00000000
00000001
00000010
00000000
,
00000001
00000000
00000000
00000000
00000100
00000010
00000100
00000000
00001000
00000000
00000000
00000000
00010000
00001000
00010000
00000000
,
01000000
00000000
00000000
00000000
00100000
00000000
00000000
00000000
02000000
00000000
00000000
10000000
00000000
00000000
03010000
00000000
,
00000000
00001000
00000000
00000000
00000000
00000000
00000000
00000000
00000200
00000000
00000000
00000001
00000000
00000000
00000310
00000000
,
00000000
00001000
00000000
00000000
00000000
00000001
00000010
00000000
00000100
00000000
00001000
00000000
00000100
00000000
00000000
00000000
,
00010000
00000000
00001000
00010000
00000000
00000000
00100000
00000000
10000000
00000000
01000000
00000000
00010000
00000000
00000000
00000000
,
00001000
00000000
00010000
00001000
00000000
00001000
00010000
00000000
00011000
00000000
00000000
00000100
00001000
00000000
00000010
00000000
,
00001001
00000000
00000000
00000000
00001100
00000000
00000000
00000000
00000001
00000000
00000000
00000100
00000010
00000000
00010000
00000000
,
00011000
00000000
00001000
00000000
00110000
01000000
10000000
00000000
,
10100000
00010000
01000000
00000000
00011000
00000000
00001010
00000000
,
00000011
00000101
00001100
00011000
,
00010000
00000000
00100000
00000000
10000000
00000000
00000000
00000000
01000000
00000000
10000000
00010000
00000000
00000000
00100000
00000000
,
00001000
00000000
00010000
00000000
00000010
00000000
00000000
00000000
00001000
00000000
00000100
00001000
00000000
00000000
00000001
00000000
,
00000100
00000000
00001000
00000000
00010000
00000000
00000000
00000000
00001000
00000000
01000000
00010000
00000000
00000000
10000000
00000000
,
01000000
00000000
00010000
00000000
00001000
00000000
00000100
00000000
00000001
00000000
00000010
00000000
00000000
00000001
00000100
00000000
,
00000101
00000000
00000110
00000000
00000010
00001000
00000010
00000000
,
00010000
00001000
00010000
00000000
00100000
01000000
00100000
00000000
,
10010000
00000000
00110000
00000000
00001000
01000000
00001000
00000000
,
00010000
00000010
00010000
00000000
00000100
00001000
00000100
00000000
,
00001000
00002000
00000000
00000000
00003001
00000001
00000100
00000100
,
00001000
00001000
00010000
00010000
00100000
00200000
00000000
10300000
,
10000000
00000000
11000000
00000000
10010000
01000000
00010000
00000000
,
00101000
00010000
00001000
00000000
00010010
00001000
00000100
00000000
,
00000001
00000002
00000000
00000000
00001003
00001000
00000100
00000100
,
00010000
00010000
00001000
00001000
01000000
02000000
00000000
03010000
,
00010000
00000000
10010000
00000000
10000000
01000000
00110000
00000000
,
00001000
00010000
00011000
00000000
00001000
00000100
00000110
00000000
,
00000001
00000000
00000200
00000020
00000300
00001000
00001030
00000000
,
00000100
00000000
00020000
00002000
00030000
01000000
01003000
00000000
,
00010000
00000000
20000000
02000000
30000000
00100000
03100000
00000000
,
00001000
00000000
00000000
00010000
00000000
00000000
00011000
00000000
00000000
00000000
00000000
00000000
00000000
00000100
00001000
00000000
,
00000001
00000000
00000000
00000000
00000000
00000100
00000010
00000000
00010000
00000000
00000000
00000000
00000000
00001000
01000000
00000000
,
00010000
10000000
00100000
00010000
00001000
00000010
00000001
00001000
,
00000002
00000000
00000000
00000003
,
00000100
00000000
00000000
00001000
00000000
00000000
00010000
00000000
00000000
00001000
00000000
00000000
00000000
00010000
00001000
00010000
,
00001000
00010000
00000000
00000000
00000000
00000000
00000000
00000000
;
#NOTES:
     dance-double:
     :
     Hard:
     9:
     :
00000000
00000000
00000000
00000000
,
00000000
00000000
00000000
00000000
,
00000000
00000000
00000000
00000000
,
00000000
00000000
00000000
00000000
,
00010000
00000000
00001000
00000000
00000100
00000000
00000000
00000000
00000001
00000000
00000000
00000000
00001000
00000010
00001000
00000010
,
00001000
00000000
00000001
00000000
00000100
00000000
00001000
00000000
00010000
00000000
00000000
01100000
00000000
00000000
10000000
00000000
,
00010000
00000000
10000000
00000000
00100000
00000000
00010000
00000000
00001000
00000000
00000000
00000010
00000000
00000001
00000010
00000001
,
00000010
00000000
00000100
00000000
00010000
00000000
00001000
00000000
00100000
00000000
00000000
01010000
00000000
00000000
10000000
00000000
,
00010000
00000000
00100000
00000000
00001000
00000000
00010000
00000000
00000010
00000000
00000000
00001000
00000000
00000001
00001000
00000001
,
00001000
00000000
00000000
00000000
00001100
00000000
00000000
00000000
00011000
00000000
00000000
00001000
00000000
00000000
01000000
00000000
,
00100000
00000000
10000000
00000000
01000000
00000000
00100000
00000000
00010000
00000000
00000000
01000000
00000000
00001000
00010000
00001000
,
00010000
00000000
00000000
00000000
00001100
00000000
00000000
00000000
00000110
00000000
00000000
00000001
00000000
00000000
00001000
00000000
,
00000001
00000000
00000100
00000000
00001000
00000000
00010000
00000000
01000000
00000000
00000000
10000000
00000000
00010000
01000000
00010000
,
01000000
00000000
00000000
00000000
00000000
00001000
00010000
00001000
00010000
00000000
00000000
00000000
00000000
00000010
00001000
00000010
,
00001000
00000000
00000000
00000000
00001100
00000000
00000000
00000000
00000011
00000000
00000000
00000001
00000000
00000000
00000100
00000000
,
00000000
00001000
00000000
00000000
00000000
00000000
00000000
00000000
00010000
00000000
00000000
01000000
00000000
00000000
10000000
00000000
,
00000000
00100000
00000000
00000000
00000000
10000000
00100000
10000000
00100000
00000000
10000000
00000000
00010000
00000000
01000000
00000000
,
00001000
00000000
00000000
00110000
00000000
00000000
00001000
00000000
00010000
00000000
00000100
00000000
00001000
00000000
00000001
00000000
,
00000100
00000000
00000000
00000001
00000000
00001000
00000001
00001000
00000002
00000000
00000000
00000000
00000203
00000000
00000000
00000000
,
00002300
00000000
00000000
00000000
00013000
00001000
00010000
00001000
00020000
00000000
00000000
00000000
02030000
00000000
00000000
00000000
,
23000000
00000000
00000000
00000000
30100000
10000000
00100000
10000000
00100000
00000000
00000000
00000000
01100000
00000000
00000000
00000000
,
00001000
00000000
00011000
00000000
00000100
00001000
00000010
00000100
,
00000001
00000100
00000010
00010000
00000100
00001000
00000010
00010000
,
00001000
00000000
00001000
00010000
00001000
01000000
00001000
00010000
,
00010000
00000000
00000000
00000000
00010000
00000000
00000100
00000000
00010000
00000000
00001000
00000000
00000000
00001000
00010000
00001000
,
00010000
00000000
00010000
00001000
00010000
01000000
00010000
00001000
,
00001000
00000000
00000000
00000000
00001000
00000000
00010000
00000000
00001000
00000000
00000100
00000000
00000000
00001000
00010000
00001000
,
00010000
00000000
00000000
00000000
00001000
00000000
00000100
00000000
00000001
00000000
00000010
00000001
00000000
00000000
00000100
00000000
,
00001000
00000000
00010000
00001000
00000000
00000000
00010000
00000000
01000000
00000000
10000000
01000000
00000000
10000000
00010000
10000000
,
00010000
00000000
00000000
00000000
10000000
00000000
00100000
00000000
00010000
00000000
00001000
00010000
00000000
00000000
00001000
00000000
,
00000010
00000000
00000001
00000010
00000000
00000000
00000001
00000000
00000100
00000000
00000010
00000100
00000000
00000000
00000100
00000000
,
00000001
00000100
00000010
00001000
00000001
00000100
00000100
00001000
,
00001000
00000000
00010000
00000000
00010000
00000000
01000000
00000000
01000000
00000000
10000000
01000000
10000000
01000000
00000000
00000000
,
10000000
00000000
00000000
00000000
01000000
00000000
00010000
00000000
00001000
00000000
00010000
00001000
00000000
00000000
00010000
00000000
,
00000100
00000000
00001000
00000010
00000000
00000000
00000100
00000000
00001000
00000000
00010000
00001000
00000000
00000000
00010000
00000000
,
01000000
10000000
00010000
00100000
01000000
10000000
10000000
00100000
,
00100000
00000000
00010000
00000000
00010000
00000000
00001000
00000000
00001000
00000000
00010000
00001000
00010000
00001000
00000000
00000000
,
00010000
00000000
00000000
00000000
01000000
00000000
10000000
00000000
01000000
00000000
10000000
00010000
00000000
00000000
01000000
00000000
,
00001000
00000000
00010000
00001000
00000000
00000000
00010000
00000000
00000100
00000000
00001000
00000010
00000000
00000000
00000100
00000000
,
00000002
00001000
00001003
00002000
00000000
00000010
00003010
00000010
,
00000020
00010000
00010030
00020000
00000000
00001000
00031000
00001000
,
00002000
01000000
01003000
02000000
00000000
00010000
03010000
00000000
,
10000000
00010000
00000000
01000000
00000000
00010000
10000000
00000000
00000000
00000000
00010000
00000000
01000000
00010000
01000000
00010000
,
01000000
00000000
00000000
00000000
00000000
00001000
00010000
00001000
00010000
00000000
00000000
00000000
00000000
00000100
00001000
00000100
,
00001000
00000001
00000100
00001000
00010000
00001000
00010000
01000000
,
20000000
00000000
00000000
30000000
,
01000000
10000000
00000000
00010000
00100000
00000000
00001000
00010000
00000000
00000100
00001000
00000000
00000001
00001000
00000001
00001000
,
00000010
00000100
00000000
00000000
00000000
00000000
00000000
00000000
;
