#TITLE:A Dream;
#ARTIST:Big Idea;
#BANNER:A Dream.png;
#BACKGROUND:A Dream-bg.png;
#CDTITLE:./CDTITLES/DanceDanceRevolution UNIVERSE3.png;
#MUSIC:A Dream.ogg;
#SAMPLESTART:54.545;
#SAMPLELENGTH:15;
#BPMS:0=110;

//---------------dance-single - ----------------
#NOTES:
     dance-single:
     :
     Beginner:
     1:
     :
0000
0000
0000
0000
,
0000
0000
0000
0000
,
0000
0000
0000
0000
,
0000
0000
0000
0000
,
0000
0000
0000
0000
,
0100
0000
0000
0000
,
0010
0000
0000
0000
,
0100
0000
0000
0000
,
0010
0000
0000
0000
,
0001
0000
1000
0000
,
0001
0000
0000
0000
,
1000
0000
0001
0000
,
1000
0000
0000
0000
,
0010
0010
0000
0000
,
0100
0100
0000
0000
,
0001
0001
0000
0000
,
1000
1000
0000
0000
,
0001
0000
0000
0000
,
1000
0000
0000
0000
,
0100
0000
0000
0000
,
0010
0000
0000
0000
,
0001
0000
0000
0000
,
0100
0000
0000
0000
,
0010
0000
0000
0000
,
1000
0000
0000
0000
,
0001
0000
1000
0000
,
1001
0000
0000
0000
,
0010
0000
0100
0000
,
0110
0000
0000
0000
,
1000
0000
0001
0000
,
1001
0000
0000
0000
,
0100
0000
0010
0000
,
0110
0000
0000
0000
,
1000
0000
0000
0000
,
0100
0000
0000
0000
,
0010
0000
0000
0000
,
0001
0000
0000
0000
,
0100
0000
0000
0000
,
0001
0000
0000
0000
,
1000
0000
0000
0000
,
0010
0000
0010
0000
,
0100
0000
0000
0000
;

//---------------dance-single - ----------------
#NOTES:
     dance-single:
     :
     Easy:
     3:
     :
0000
0000
0000
0000
,
0000
0000
0000
0000
,
0000
0000
0000
0000
,
0000
0000
0000
0000
,
0000
0000
0000
0000
,
1000
0000
0001
0010
,
0001
0000
1000
0010
,
1000
0000
0001
0100
,
0001
0000
1001
0000
,
1000
0000
0100
1000
,
0001
0000
0100
0001
,
1000
0000
0001
1000
,
0010
0000
0110
0000
,
0010
0010
0000
1000
,
0001
1000
0000
0100
,
1000
0010
0000
0100
,
0010
0000
0001
1000
,
0001
0000
1000
0000
,
0100
0100
0000
1000
,
0001
0010
0100
1000
,
0001
0000
0000
0100
,
0001
1000
0010
0100
,
0001
0000
0000
1000
,
0100
0010
0001
1000
,
0100
0000
0000
0000
,
1001
0000
1001
0000
,
1000
0100
0001
0000
,
1001
0000
1001
0000
,
0001
0100
1000
0000
,
0110
0000
0110
0000
,
0010
1000
0100
0000
,
0110
0000
0110
0000
,
0010
0001
0100
0000
,
0001
0000
1001
0000
,
0100
0000
0110
0000
,
1000
0000
1001
0000
,
0010
0000
0110
0000
,
0010
0100
1000
0000
,
0001
0000
1000
0000
,
0001
0100
0010
0000
,
1000
0100
0010
0001
,
1001
0000
0000
0000
;

//---------------dance-single - ----------------
#NOTES:
     dance-single:
     :
     Medium:
     6:
     :
0000
0000
0000
0000
,
0000
0000
0000
0000
,
0000
0000
0000
0000
,
0000
0000
0000
0000
,
0000
0000
0000
0000
,
0100
0100
1000
0000
0001
0100
0001
0000
,
0100
0000
0100
0000
0001
0000
0000
0000
1000
0000
0010
1000
0000
0010
1000
0000
,
0001
0001
0010
0000
0001
1000
0001
0000
,
1100
0000
0000
0000
0101
0000
0000
0000
0010
0000
1000
0100
0000
1000
0100
0000
,
1000
0100
0010
0000
0100
1000
0001
0100
,
0010
0000
0110
0000
0010
1000
0001
0000
,
1000
0000
0001
0100
0000
0000
0000
0000
1000
0000
0001
0010
0000
0000
0100
0000
,
0000
1000
0001
0100
0010
1000
0001
0000
,
1000
0100
0001
0000
0001
0100
1000
0000
,
0001
0010
1000
0000
1000
0010
0001
0000
,
1000
0000
0001
0100
0000
0000
0000
0000
0010
0000
0010
0000
1000
0000
0000
0000
,
0001
0000
1000
0100
0000
0000
0000
0000
0010
0000
0010
0000
0001
0000
0000
0000
,
1000
0001
0000
0010
0000
0100
0000
2000
,
0000
0002
0000
0000
3003
0000
1000
0100
,
0010
0001
1000
0002
,
0200
0000
0303
0000
0000
0000
0001
1000
,
0001
0100
0000
0010
0000
1000
0000
0002
,
0000
0020
0000
0000
0033
0000
1000
0100
,
1000
0001
0100
0020
,
0200
0000
0000
0330
,
0001
0100
0001
0000
1000
0100
1000
0000
,
0001
0000
1000
0100
0000
0010
0000
0010
0000
0010
0000
0000
0000
0000
0000
0000
,
1000
0100
1000
0000
0001
0100
0001
0000
,
1000
0000
0001
0100
0000
0010
0000
0010
0000
0010
0000
0000
0000
0000
0000
0000
,
0100
0001
0100
0000
0010
1000
0010
0000
,
0100
0000
0010
1000
0000
0100
0000
0100
0000
0100
0000
0000
0000
0000
0000
0000
,
0010
0001
0010
0000
0100
1000
0100
0000
,
0010
0000
0001
0100
0000
0010
0000
0010
0000
0010
0000
0000
0000
0000
0000
0000
,
0100
0000
1001
0100
0010
0000
1001
0100
,
0010
0000
1001
0100
0010
1000
0001
0010
,
0100
0000
0011
1000
0100
0000
0011
1000
,
0100
0000
0011
1000
0100
0010
0001
0100
,
0010
0000
1010
0100
0001
0000
1010
0100
,
0001
0000
1010
0100
0001
0010
0100
0000
,
0010
0000
0110
1000
0001
0000
0110
0001
,
1000
0000
0110
1000
0001
0000
0010
0000
,
0110
0000
0000
0000
;

//---------------dance-single - ----------------
#NOTES:
     dance-single:
     :
     Hard:
     9:
     :
0000
0000
0000
0000
,
0000
0000
0000
0000
,
0000
0000
0000
0000
,
0000
0000
0000
0000
,
0000
0000
0000
0000
,
1000
0000
0001
0100
0001
0000
0010
0000
0100
0000
1000
0100
0000
1000
0100
0000
,
0000
0000
1000
0010
1000
0000
0010
0000
0100
0000
0001
0000
0010
0000
0000
0000
,
0100
0000
1000
0001
1000
0000
0001
0100
0001
0000
0100
0010
0000
0100
0010
0000
,
0000
0000
1000
0001
1000
0100
0010
0000
0001
0000
0100
0000
1000
0000
0000
0000
,
0100
0000
0001
1000
0001
0000
0010
0000
0100
0000
1000
0100
0000
1000
0100
0000
,
0000
0000
1000
0010
1000
0000
0010
1000
0000
1000
0001
0000
0010
0000
0000
0000
,
0100
0000
1000
0100
0000
1000
0000
0001
0100
0000
1000
0100
0000
0001
0100
0000
,
0001
0000
0010
0100
1000
0010
1000
0100
1000
0000
0001
0000
0100
0000
0000
0000
,
0001
0000
1000
0100
0000
1000
0010
0000
0100
0000
0001
0000
1001
0000
0000
0000
,
1000
0000
0001
0010
0000
0001
0100
0000
0010
0000
1000
0000
1001
0000
0000
0000
,
0001
0000
1000
0100
0000
0001
0000
0100
1000
0000
0010
0000
0110
0000
0000
0000
,
1000
0000
0001
0100
0000
1000
0000
0100
0001
0000
1000
0000
0100
0000
0010
0000
,
0001
1000
0000
0010
0000
0100
0000
0002
,
0000
2000
0000
3003
0000
1000
0010
0100
,
0001
1000
0001
0010
0100
1000
0200
0020
,
0000
0000
0000
0000
0330
0000
0001
1000
,
0100
1000
0000
0001
0000
0100
0000
0020
,
0000
2000
0000
3030
0000
1000
0100
0010
,
0001
0100
0010
0100
0001
1000
0200
0020
,
0000
0000
0000
0330
,
0100
1000
0010
1000
0100
0000
0000
0000
0100
1000
0010
1000
0100
0000
1000
0100
,
0001
0000
0100
0010
0000
0001
0000
0100
0000
0010
0000
0000
0000
0000
0000
0000
,
0100
0001
0010
0001
0100
0000
0000
0000
0100
0001
0010
0001
0100
0000
0001
0100
,
1000
0000
0100
0010
0000
1000
0000
0100
0000
0010
0000
0000
0000
0000
0000
0000
,
0001
0010
0100
0010
0001
0000
0000
0000
0010
0100
1000
0100
0010
0000
0100
1000
,
0001
0000
0100
0010
0000
0100
0000
0001
0000
0001
0000
0000
0000
0000
0000
0000
,
1000
0010
0100
0010
1000
0000
0000
0000
0010
0100
0001
0100
0010
0000
0100
0001
,
1000
0000
0100
0010
0000
0100
0000
1000
0000
1000
0000
0000
0000
0000
0000
0000
,
1001
0000
0000
0000
1000
0010
1000
0001
0000
0010
0000
0100
0000
1000
0001
0100
,
0001
0000
0000
1000
0100
1000
0010
1000
0100
0000
0010
0001
0100
0001
0010
0001
,
1000
0000
0001
1000
0100
0010
0001
1000
0010
0000
1000
0001
0000
0000
1000
0100
,
0010
0001
0000
0100
0000
1000
0000
0100
0000
0001
0000
0010
0001
0010
0100
0010
,
1000
0000
0010
0100
0000
0000
1000
0001
0100
0010
1000
0100
0010
0000
0001
0000
,
0011
0000
0000
0000
0000
0000
1001
0000
0100
0000
0010
0000
1000
0000
0000
0100
,
1000
0100
0010
0100
0001
0100
1000
0001
0100
0000
0001
1000
0000
0100
0000
0010
,
0000
0000
0000
0100
0010
0000
0001
0000
0100
0000
1000
0000
0100
0000
0000
0000
,
1001
0000
0000
0000
;

//---------------dance-double - ----------------
#NOTES:
     dance-double:
     :
     Beginner:
     1:
     :
00000000
00000000
00000000
00000000
,
00000000
00000000
00000000
00000000
,
00000000
00000000
00000000
00000000
,
00000000
00000000
00000000
00000000
,
00000000
00000000
00000000
00000000
,
00100000
00000000
00000000
00000000
,
10000000
00000000
00000000
00000000
,
01000000
00000000
00000000
00000000
,
00010000
00000000
00000000
00000000
,
00001000
00000000
00010000
00000000
,
00001000
00000000
00000000
00000000
,
00000100
00000000
00000001
00000000
,
00000100
00000000
00000000
00000000
,
00000010
00000010
00000000
00000000
,
00010000
00010000
00000000
00000000
,
00001000
00001000
00000000
00000000
,
01000000
01000000
00000000
00000000
,
00010000
00000000
00000000
00000000
,
10000000
00000000
00000000
00000000
,
01000000
00000000
00000000
00000000
,
00100000
00000000
00000000
00000000
,
00001000
00000000
00000000
00000000
,
00010000
00000000
00000000
00000000
,
00000100
00000000
00000000
00000000
,
00001000
00000000
00000000
00000000
,
00000001
00000000
00001000
00000000
,
00001001
00000000
00000000
00000000
,
00000100
00000000
00000010
00000000
,
00000110
00000000
00000000
00000000
,
00010000
00000000
00001000
00000000
,
00011000
00000000
00000000
00000000
,
00100000
00000000
01000000
00000000
,
01100000
00000000
00000000
00000000
,
10000000
00000000
00000000
00000000
,
00010000
00000000
00000000
00000000
,
00100000
00000000
00000000
00000000
,
00001000
00000000
00000000
00000000
,
00010000
00000000
00000000
00000000
,
00000010
00000000
00000000
00000000
,
00001000
00000000
00000000
00000000
,
00000001
00000000
00000001
00000000
,
00000100
00000000
00000000
00000000
;

//---------------dance-double - ----------------
#NOTES:
     dance-double:
     :
     Easy:
     3:
     :
00000000
00000000
00000000
00000000
,
00000000
00000000
00000000
00000000
,
00000000
00000000
00000000
00000000
,
00000000
00000000
00000000
00000000
,
00000000
00000000
00000000
00000000
,
10000000
00000000
00010000
00100000
,
00001000
00000000
00010000
00000010
,
00001000
00000000
00000001
00000100
,
00000010
00000000
00000110
00000000
,
00000010
00000000
00010000
00001000
,
01000000
00000000
00010000
00100000
,
01000000
00000000
10000000
00100000
,
01000000
00000000
01100000
00000000
,
00001000
00001000
00000000
00010000
,
00001000
00010000
00000000
00000100
,
00001000
00000010
00000000
00000100
,
00000001
00000000
00001000
00000001
,
00001000
00000000
00000100
00000000
,
00010000
00010000
00000000
00001000
,
00100000
00010000
01000000
00100000
,
10000000
00000000
00000000
01000000
,
00010000
00001000
00000100
00000010
,
00001000
00000000
00000000
00000001
,
00000100
00001000
00010000
01000000
,
10000000
00000000
00000000
00000000
,
01100000
00000000
01100000
00000000
,
01000000
00010000
00001000
00000000
,
00011000
00000000
00011000
00000000
,
00010000
00001000
00000100
00000000
,
00001001
00000000
00001001
00000000
,
00001000
00000010
00010000
00000000
,
00011000
00000000
00011000
00000000
,
00010000
00001000
01000000
00000000
,
00100000
00000000
10010000
00000000
,
01000000
00000000
01100000
00000000
,
00001000
00000000
00011000
00000000
,
00000010
00000000
00000110
00000000
,
00000001
00000100
00000010
00000000
,
00010000
00000000
00001000
00000000
,
00100000
01000000
10000000
00000000
,
01000000
00100000
00001000
00010000
,
00011000
00000000
00000000
00000000
;

//---------------dance-double - ----------------
#NOTES:
     dance-double:
     :
     Medium:
     6:
     :
00000000
00000000
00000000
00000000
,
00000000
00000000
00000000
00000000
,
00000000
00000000
00000000
00000000
,
00000000
00000000
00000000
00000000
,
00000000
00000000
00000000
00000000
,
00100000
00100000
10000000
00000000
00010000
01000000
00001000
00000000
,
00010000
00010000
00000010
00000000
00001000
00000010
00001000
00000001
,
00000010
00000010
00000100
00000000
00010000
00001000
00010000
00000000
,
01010000
00000000
10100000
00000000
00100000
10000000
01000000
00000000
,
10000000
01000000
00100000
00000000
00010000
01000000
00001000
00010000
,
00000100
00000000
00000110
00000000
00000010
00000001
00001000
00000000
,
00000001
00000000
00000100
00000010
00000000
00000000
00000000
00000000
00001000
00000000
00000100
00010000
00000000
00000000
00001000
00000000
,
00000000
00100000
00010000
01000000
00100000
10000000
01000000
00000000
,
10000000
01000000
00010000
00000000
01000000
00010000
00001000
00000000
,
00010000
00001000
00000010
00000000
00001000
00000010
00000001
00000000
,
00000100
00000000
00000001
00000010
00000000
00000000
00000000
00000000
00000001
00000000
00000001
00000000
00001000
00000000
00000000
00000000
,
00000100
00000000
00010000
00001000
00000000
00000000
00000000
00000000
01000000
00000000
01000000
00000000
00010000
00000000
00000000
00000000
,
10000000
01000000
00000000
00100000
00000000
00001000
00000000
00020000
,
00000000
00002000
00000000
00000000
00033000
00000000
00010000
00001000
,
00000100
00000010
00001000
00000002
,
00000200
00000000
00000303
00000000
00000000
00000000
00000100
00000010
,
00001000
00000001
00000000
00000100
00000000
00001000
00000000
00020000
,
00000000
00002000
00000000
00000000
00033000
00000000
00100000
00010000
,
00100000
01000000
10000000
00020000
,
00200000
00000000
00000000
00330000
,
00001000
00010000
01000000
00000000
00010000
00001000
00000100
00000000
,
00001000
00000000
00000100
00000001
00000000
00001000
00000000
00001000
00000000
00000010
00000000
00000000
00000000
00000000
00000000
00000000
,
00010000
00001000
00000100
00000000
00001000
00010000
01000000
00000000
,
00010000
00000000
01000000
10000000
00000000
00010000
00000000
00010000
00000000
00100000
00000000
00000000
00000000
00000000
00000000
00000000
,
00001000
00010000
00000100
00000000
00010000
00001000
01000000
00000000
,
00001000
00000000
00010000
00000010
00000000
00001000
00000000
00001000
00000000
00000100
00000000
00000000
00000000
00000000
00000000
00000000
,
00010000
00001000
00100000
00000000
00001000
00010000
00000010
00000000
,
00010000
00000000
00001000
01000000
00000000
00010000
00000000
00010000
00000000
10000000
00000000
00000000
00000000
00000000
00000000
00000000
,
00100000
00000000
10010000
01000000
10000000
00000000
01000000
00010000
,
00001000
00000000
00010000
00001000
00000100
00000001
00000010
00000100
,
00001000
00000000
00001001
00000100
00000001
00000000
00000100
00001000
,
00010000
00000000
00001000
00010000
01000000
10000000
00100000
01000000
,
00010000
00000000
10100000
01000000
00010000
00000000
00101000
00010000
,
00001000
00000000
00010000
00001000
00000100
00000001
00000010
00000000
,
00000110
00000000
00001001
00000100
00000001
00000000
00000010
00000001
,
00000100
00000000
00001000
00010000
01000000
00000000
00100000
00000000
,
01100000
00000000
00000000
00000000
;

//---------------dance-double - ----------------
#NOTES:
     dance-double:
     :
     Hard:
     9:
     :
00000000
00000000
00000000
00000000
,
00000000
00000000
00000000
00000000
,
00000000
00000000
00000000
00000000
,
00000000
00000000
00000000
00000000
,
00000000
00000000
00000000
00000000
,
00010000
00000000
10000000
01000000
10000000
00000000
00010000
00000000
00100000
00000000
00001000
00010000
00000000
00001000
00010000
00000000
,
00000000
00000000
00000010
00001000
00000010
00000000
00001000
00000000
00000100
00000000
00000001
00000000
00000100
00000000
00000000
00000000
,
00001000
00000000
00000001
00000100
00000001
00000000
00001000
00000010
00001000
00000000
00000100
00010000
00000000
00000100
00010000
00000000
,
00000000
00000000
00001000
00010000
01000000
00100000
00010000
00000000
01000000
00000000
10000000
00000000
01000000
00000000
00000000
00000000
,
00100000
00000000
10000000
00010000
10000000
00000000
01000000
00000000
00010000
00000000
00001000
00010000
00000000
00001000
00010000
00000000
,
00000000
00000000
00000100
00001000
00000100
00000000
00001000
00000001
00000000
00001000
00000001
00000000
00000100
00000000
00000000
00000000
,
00000001
00000000
00000100
00000010
00000000
00000100
00000000
00001000
00010000
00000000
01000000
00010000
00000000
01000000
10000000
00000000
,
00010000
00000000
00100000
01000000
10000000
00100000
10000000
01000000
00100000
00000000
00010000
00000000
01000000
00000000
00000000
00000000
,
00001000
00000000
00010000
00000100
00000000
00001000
00000010
00000000
00000100
00000000
00000001
00000000
00001001
00000000
00000000
00000000
,
00001000
00000000
00000001
00000010
00000000
00000001
00000100
00000000
00001000
00000000
00010000
00000000
00011000
00000000
00000000
00000000
,
00001000
00000000
00010000
01000000
00000000
10000000
00000000
01000000
00100000
00000000
00010000
00000000
01010000
00000000
00000000
00000000
,
00001000
00000000
00010000
01000000
00000000
00010000
00000000
00001000
00000100
00000000
00000010
00000000
00001000
00000000
00000001
00000000
,
00000010
00000100
00000000
00001000
00000000
00000001
00000000
00000100
,
00000000
00001000
00000000
00000000
00000000
00010000
00100000
01000000
,
00010000
10000000
01000000
00010000
00001000
00010000
00002000
00000200
,
00000000
00000000
00000000
00000000
00003300
00000000
00000001
00001000
,
00000100
00000010
00000000
00000001
00000000
00000100
00000000
00001000
,
00000000
00010000
00000000
00000000
00000000
00001000
00010000
01000000
,
00100000
00010000
10000000
00100000
01000000
00001000
00020000
00002000
,
00000000
00000000
00000000
00033000
,
00001000
00010000
00000010
00010000
00001000
00000000
00000000
00000000
00010000
00001000
00100000
00001000
00010000
00000000
00001000
00010000
,
00001000
00000000
00010000
01000000
00000000
10000000
00000000
00100000
00000000
00010000
00000000
00000000
00000000
00000000
00000000
00000000
,
00010000
00001000
01000000
00001000
00010000
00000000
00000000
00000000
00001000
00010000
00000100
00010000
00001000
00000000
00010000
00001000
,
00010000
00000000
00001000
00000100
00000000
00000001
00000000
00000010
00000000
00001000
00000000
00000000
00000000
00000000
00000000
00000000
,
00010000
00001000
00010000
01000000
00010000
00000000
00000000
00000000
00001000
00010000
00001000
00000100
00001000
00000000
00010000
01000000
,
00010000
00000000
01000000
10000000
00000000
00010000
00000000
01000000
00000000
00001000
00000000
00000000
00000000
00000000
00000000
00000000
,
00001000
00010000
00001000
00000010
00001000
00000000
00000000
00000000
00010000
00001000
00010000
00100000
00010000
00000000
00001000
00000100
,
00001000
00000000
00000100
00000001
00000000
00001000
00000000
00000100
00000000
00010000
00000000
00000000
00000000
00000000
00000000
00000000
,
00011000
00000000
00000000
00000000
00001000
00010000
00001000
00100000
00000000
00010000
00000000
01000000
00000000
00100000
10000000
01000000
,
10000000
00000000
00000000
10000000
01000000
00100000
01000000
00010000
01000000
00000000
00100000
00010000
01000000
00010000
00100000
00001000
,
00010000
00000000
00001000
00010000
00000100
00001000
00000010
00000100
00000001
00000000
00001000
00000001
00000000
00000000
00001000
00000100
,
00000010
00000001
00000000
00000100
00000000
00001000
00000000
00010000
00000000
01000000
00000000
00100000
00010000
10000000
00010000
01000000
,
00010000
00000000
00100000
00001000
00000000
00000000
00010000
00000100
00001000
00000010
00000100
00000001
00000010
00000000
00000001
00000000
,
00000101
00000000
00000000
00000000
00000000
00000000
00000100
00000000
00001000
00000000
00010000
00000000
01000000
00000000
00000000
10000000
,
00100000
10000000
00010000
10000000
01000000
10000000
00010000
01000000
00001000
00000000
00010000
00001000
00000000
00000010
00000000
00000001
,
00000000
00000000
00000000
00000100
00000010
00000000
00001000
00000000
00000001
00000000
00000100
00000000
00001000
00000000
00000000
00000000
,
00011000
00000000
00000000
00000000
;
