
//----- song ID: thr7 -----
#TITLE:777;
#ARTIST:EeL;
#BANNER:777.png;
#BACKGROUND:777-bg.png;
#CDTITLE:./CDTitles/DDR UNIVERSE3.png;
#MUSIC:777.ogg;
#OFFSET:-1.215;
#SAMPLESTART:10.812;
#SAMPLELENGTH:15;
#BPMS:0=200;
#NOTES:
     dance-single:
     :
     Beginner:
     1:
     :
0000
0000
0000
0000
,
0000
0000
0000
0000
,
0000
0000
0000
0000
,
0000
0000
0000
0000
,
0000
0000
0000
0000
,
0000
0000
0000
0000
,
0000
0000
0000
0000
,
1000
1000
1000
1000
,
1000
0000
0000
0000
,
0000
0000
0000
0000
,
0001
0000
0000
0000
,
0010
0000
0000
0000
,
0100
0000
0000
0000
,
0000
0000
0000
0000
,
1000
0000
0000
0000
,
0001
0000
0000
0000
,
0100
0000
0000
0000
,
0000
0000
0000
0000
,
0001
0000
0000
0000
,
0000
0000
0000
0000
,
0010
0000
0000
0000
,
0000
0000
0000
0000
,
0100
0000
0000
0000
,
0000
0000
0000
0000
,
1000
0000
0000
0000
,
0000
0000
0000
0000
,
0001
0000
0000
0000
,
0000
0000
0000
0000
,
0100
0000
0000
0000
,
0000
0000
0000
0000
,
0010
0000
0000
0000
,
0000
0000
0000
0000
,
1000
0000
0000
0000
,
0001
0000
0000
0000
,
1001
0000
0000
0000
,
0000
0000
0000
0000
,
0100
0000
0000
0000
,
0010
0000
0000
0000
,
0110
0000
0000
0000
,
0000
0000
0000
0000
,
1000
0000
0000
0000
,
0001
0000
0000
0000
,
1001
0000
0000
0000
,
0000
0000
0000
0000
,
0100
0000
0000
0000
,
0010
0000
0000
0000
,
1000
0000
0000
0000
,
0001
0000
0000
0000
,
0100
0000
0000
0000
,
0010
0000
0000
0000
,
0100
0000
0000
0000
,
0001
0000
0000
0000
,
1000
0000
0000
0000
,
0010
0000
0000
0000
,
0100
0000
0000
0000
,
0000
0000
0000
0000
,
0000
0000
0000
0000
,
0000
0000
0000
0000
,
0001
0000
0000
0000
,
0000
0000
0000
0000
,
1000
0000
0000
0000
,
0010
0000
0000
0000
,
0100
0000
0000
0000
,
0001
0000
0000
0000
,
1000
0000
0000
0000
,
0001
0000
0000
0000
,
0010
0000
0000
0000
,
0100
0000
0000
0000
,
0010
0000
0000
0000
,
0001
0000
0000
0000
,
1000
0000
0000
0000
,
0001
0000
0000
0000
,
1001
0000
0000
0000
,
0000
0000
0000
0000
,
0100
0000
0000
0000
,
0010
0000
0000
0000
,
0110
0000
0000
0000
,
0000
0000
0000
0000
,
0001
0000
0000
0000
,
1000
0000
0000
0000
,
1001
0000
0000
0000
,
0000
0000
0000
0000
,
0010
0000
0000
0000
,
0100
0000
0000
0000
,
0110
0000
0000
0000
;
#NOTES:
     dance-single:
     :
     Easy:
     4:
     :
0000
0000
0000
0000
,
0000
0000
0000
0000
,
0000
0000
0000
0000
,
0000
0000
0000
0000
,
0000
0000
0000
0000
,
0000
0000
0000
0000
,
0000
0000
0000
0000
,
0002
0000
0000
0003
,
1000
0100
2000
0000
,
0000
0000
0000
3000
,
0001
0100
0001
0000
,
0010
0100
0010
0000
,
0001
0100
0002
0000
,
0000
0000
0000
0003
,
1000
0010
1000
0000
,
0100
0010
0100
0010
,
0001
0000
1000
0000
,
0100
0000
0010
0010
,
0001
0000
0100
0000
,
0010
0000
1000
1000
,
0001
0000
0010
0000
,
0001
0000
0100
0100
,
0010
0000
1000
0000
,
0001
1000
1001
0000
,
1000
0000
0001
0000
,
0100
0000
0010
0010
,
1000
0000
0100
0000
,
0010
0000
0001
0001
,
1000
0000
0010
0000
,
1000
0000
0100
0100
,
0010
0000
0001
0000
,
0100
0010
0110
0000
,
2000
0000
0000
3000
,
0002
0000
0000
0003
,
0020
0000
0000
0030
,
0100
1000
0100
1000
,
0002
0000
0000
0003
,
0020
0000
0000
0030
,
0200
0000
0000
0300
,
1000
0010
1000
0010
,
0200
0000
0000
0300
,
0002
0000
0000
0003
,
2000
0000
0000
3000
,
0001
0100
0001
0100
,
0020
0000
0000
0030
,
1000
1000
0001
0001
,
0010
0100
2000
0000
,
0000
0000
0000
3000
,
0001
0100
0001
0000
,
1000
0010
1000
0000
,
0100
1000
0002
0000
,
0000
0000
0000
0003
,
0010
0100
0010
0000
,
0001
1000
1001
0000
,
2000
0000
0000
0000
,
0000
0000
0000
3000
,
0002
0000
0000
0000
,
0000
0000
0000
0003
,
0200
0000
0000
0300
,
0020
0000
0000
0030
,
1000
0000
0001
0000
,
0010
0010
0100
0100
,
1000
0000
0001
0000
,
0100
0000
0001
0000
,
0010
0000
0100
0000
,
1000
0000
0001
0000
,
0100
0000
0010
0000
,
1000
0000
0001
0000
,
1000
0000
0100
0000
,
0010
0000
0001
0000
,
0200
0000
0000
0300
,
0001
0000
1000
0000
,
0100
1000
0020
0000
,
0000
0000
0000
0030
,
2000
0000
0000
3000
,
0100
0000
0010
0000
,
0001
0010
0001
0000
,
2000
0000
0000
3000
,
0020
0000
0000
0030
,
1000
0000
0001
0000
,
0010
0001
0200
0000
,
0000
0000
0000
0300
,
0002
0000
0000
0003
,
0010
0000
0100
0000
,
1000
0100
1000
0000
,
0002
0000
0000
0003
;
#NOTES:
     dance-single:
     :
     Medium:
     6:
     :
0000
0000
0000
0000
,
0000
0000
0000
0000
,
0000
0000
0000
0000
,
0000
0000
0000
0000
,
0000
0000
0000
0000
,
0000
0000
0000
0000
,
0000
0000
0000
0000
,
1000
1000
0001
0001
,
0100
0010
0100
0000
,
0000
0001
1000
0100
0010
0000
0100
0000
,
1000
0001
1000
0000
,
0001
1000
0101
0000
,
0001
0010
0100
0000
,
0000
1000
0001
0100
0010
0000
0100
0000
,
0001
1000
0001
0000
,
1000
0001
1100
0010
,
0001
1000
0000
1000
,
0000
0110
0000
0000
0001
0000
0001
0000
,
1000
0100
0000
0100
,
0000
0011
0000
0000
1000
0000
1000
0000
,
0100
0010
0000
0010
,
0000
1100
0000
0000
0001
0000
0001
0000
,
0010
0000
1001
0000
,
0100
0001
1010
0000
,
0001
1000
0000
0100
,
0000
0110
0000
0000
0100
0000
1000
0000
,
0010
0100
0000
0001
,
0000
1001
0000
0000
0001
0000
1000
0000
,
0100
1000
0000
0001
,
0000
0011
0000
0000
0010
0000
0100
0000
,
1000
0000
0110
0000
,
0001
0100
1010
0000
,
2000
0000
3000
0100
,
0020
0000
0030
0001
,
0200
0000
0300
0010
,
1000
0000
0001
1000
,
0002
0000
0003
0100
,
0020
0000
0030
1000
,
0200
0000
0300
0010
,
0001
1000
0000
0001
0000
1000
0100
0000
,
2000
0000
3000
0001
,
0200
0000
0300
0010
,
2000
0000
3000
0100
,
0020
0030
0001
1000
,
0002
0000
0003
1000
,
0010
0010
0100
0100
,
0001
1000
0001
0000
,
0000
1000
0100
0010
0001
0000
1000
0000
,
0010
0100
0010
0000
,
1000
0001
1001
0000
,
1000
0001
1000
0000
,
0000
0001
0100
0010
1000
0000
0001
0000
,
0100
0010
0100
0000
,
0010
1000
0101
0000
,
1000
0000
0001
0000
,
0200
0000
0000
0300
,
0010
0000
1000
0000
,
0001
0000
0010
0000
,
0101
0000
1000
0000
,
0110
0000
1001
0000
,
0002
0003
2000
3000
,
0100
0010
0001
1000
,
0001
0001
0100
0010
,
1000
1000
0001
0100
,
0001
0001
1000
0100
,
0010
0010
0001
1000
,
0002
0003
0001
1100
,
0020
0030
0010
0101
,
2000
3000
0100
1001
,
0010
0101
1000
0110
,
0001
0000
1000
0000
,
0100
1000
0010
0001
,
0200
0000
0000
0000
,
0000
0000
0000
0300
,
1000
0000
0001
0000
,
0100
0001
0010
1000
,
0200
0000
0000
0000
,
0000
0000
0000
0300
,
0001
0000
0100
0000
,
1010
0000
0100
0001
,
0010
0000
0100
0000
,
2002
0000
0000
3003
,
1000
0000
0100
0000
,
0011
0000
0100
1000
,
0001
0000
0010
0000
,
0220
0000
0000
0330
;
#NOTES:
     dance-single:
     :
     Hard:
     8:
     :
0000
0000
0000
0000
,
0000
0000
0000
0000
,
0000
0000
0000
0000
,
0000
0000
0000
0000
,
0000
0000
0000
0000
,
0000
0000
0000
0000
,
0000
0000
0000
0000
,
1000
0010
0100
0001
,
1000
0001
1000
0000
,
0000
0001
0010
0100
1000
0001
0100
0010
,
1000
1000
0100
0000
,
0010
0100
1000
0010
0100
0000
0000
0000
,
0001
1000
0001
0000
,
0000
1000
0100
0010
0001
0100
0010
0100
,
0001
0001
0100
0000
,
0010
1000
0001
0010
0100
0000
1001
0000
,
0010
1000
0100
0001
,
0000
0110
0000
0001
1000
0000
0100
0000
,
0010
0000
0001
0000
0100
0010
1000
0000
,
0000
0101
0000
1000
0100
0000
0010
0000
,
0100
1000
0001
0100
,
0000
1001
0000
0010
0001
0000
1000
0000
,
0010
0000
0100
0000
0001
1000
0010
0000
,
1000
0100
0010
0001
1000
0000
0000
0000
,
0110
0001
0110
1000
,
0000
0001
0000
0100
0010
0000
1000
0000
,
0101
0000
1000
0000
0011
1000
0100
0000
,
0000
0010
0000
0100
1000
0000
0100
0000
,
1001
0010
1001
0100
,
0000
0010
0000
0001
1000
0000
0001
0000
,
1010
0000
0100
0000
0011
0100
0001
0000
,
1000
0100
0010
0001
0100
0000
1001
0000
,
0020
0000
0000
0000
0030
1000
0100
0000
,
0020
0000
0000
0000
0030
0001
1000
0000
,
0002
0000
0003
1000
0000
0010
0100
0000
,
0001
1000
0000
0110
0000
1000
0001
0000
,
0200
0000
0000
0000
0300
0010
1000
0000
,
0100
1000
0010
0100
0000
0001
0001
0000
,
0100
0001
0010
0100
0000
1000
1000
0000
,
0010
0100
0000
1001
0000
0100
0010
0000
,
2000
0000
0000
0000
3000
0001
0100
0000
,
0002
0000
0000
0000
0003
1000
0100
0000
,
0020
0000
0030
0100
0000
1000
0001
0000
,
0100
0001
0000
1010
0000
0001
0100
0000
,
2002
0000
0000
0000
3003
0100
0010
0000
,
1000
0020
0130
1001
,
0010
0100
0010
0000
,
0000
0001
0100
0010
1000
0001
0100
0010
,
1000
0001
1000
0000
,
0001
1000
0100
0010
1001
0000
0000
0000
,
0001
1000
0001
0000
,
0000
1000
0100
0010
0001
1000
0100
0010
,
0001
1000
0001
0000
,
1000
0010
0100
0001
0110
0000
0000
0000
,
1000
0000
0000
0100
0000
0010
0002
0000
,
0000
0000
0000
0003
,
1000
0000
0000
0010
0100
0000
0001
0000
,
0010
0000
0000
0001
0000
0000
1000
0000
,
0100
1000
0010
0100
,
0001
0010
0100
1000
,
0002
0000
0000
0000
,
0100
0100
0100
0103
,
1000
0100
1010
0011
,
0100
0001
1100
0110
,
0001
0000
0000
1000
0100
0000
0000
0100
,
0010
0000
0000
0010
0001
0000
0000
0000
,
1000
0100
0001
0100
1000
0000
1001
0000
,
0001
0100
1000
0100
0001
0000
1001
0000
,
1000
0010
1000
0000
0001
0100
0001
0000
,
1000
0001
1000
0001
1000
0001
1000
0001
,
1000
0000
0100
0000
0010
0000
0001
1000
,
0000
1000
0001
0000
0100
0001
1000
0100
,
0010
0000
0000
0200
0000
0000
0000
0000
,
0000
0000
0300
1001
,
0001
0000
1000
0100
1000
0000
0010
0100
,
0000
0100
0001
0000
1000
0001
1000
0000
,
0020
0000
0000
0000
,
0000
0000
0000
0030
,
0100
0000
0001
0000
0010
0000
0001
1000
,
0000
1000
0001
0000
1000
0100
0001
0100
,
1000
0000
0000
0002
0000
0000
0000
0000
,
0000
0000
0003
1000
,
0001
0000
0100
0010
0100
0000
0010
1000
,
0000
1000
0001
0000
0010
0100
0010
0000
,
0200
0000
0000
0000
,
0000
0000
0000
0300
;
#NOTES:
     dance-single:
     :
     Challenge:
     9:
     :
0000
0000
0000
0000
,
0000
0000
0000
0000
,
0000
0000
0000
0000
,
0000
0000
0000
0000
,
0000
0000
0000
0000
,
0000
0000
0000
0000
,
0000
0000
0000
0000
,
1100
0101
1100
0101
,
0100
0010
2000
0000
,
3000
0100
1000
0010
0100
0001
0010
0001
,
1000
0100
0020
0030
,
0001
0100
0001
1000
0200
0000
0300
0000
,
0000
1000
0000
0001
0000
0100
0000
0010
,
0000
1100
0000
0101
0000
0011
0000
1010
,
0000
0110
0000
1001
0000
0110
0000
1001
,
0000
0010
0000
0100
1000
0000
0110
0000
,
1000
0100
0010
0001
,
1000
0000
0100
1000
0010
0000
0100
0000
,
0001
1000
0010
0100
,
0001
0000
1000
0000
0010
0000
0100
0001
,
1000
0000
0100
1000
0010
0000
0100
0000
,
0001
0000
1000
0000
0100
0000
0010
0001
,
1100
0000
0101
0000
0010
0100
0010
0000
,
1000
0000
0100
1000
0100
0000
1000
0000
0001
0000
0000
0000
0000
0000
0000
0000
,
1000
0100
1000
0001
1000
0100
1000
0001
,
1000
0100
1000
0010
1000
0010
1000
0000
,
0001
1000
0001
0010
0001
1000
0001
0010
,
0001
1000
0001
0100
0001
0100
0001
0000
,
0010
0001
0010
0100
0010
1000
0010
0000
,
0100
1000
0100
0010
0100
0001
0100
0000
,
0010
0100
1001
0110
,
0101
1100
0110
0000
,
1000
0100
0010
0100
2000
0000
3000
0000
,
0001
0100
0010
0100
0002
0000
0003
0000
,
1000
0001
0010
0001
2000
0000
3000
0000
,
0001
1000
0100
0010
1001
0000
1001
0000
,
1000
0001
0010
0001
0200
0000
0300
0000
,
0001
1000
0010
1000
0200
0000
0300
0000
,
0010
0001
0100
0010
2000
0000
3000
0000
,
0000
0100
1000
0001
0100
0010
0010
0000
,
1010
0011
2002
3003
,
1000
0001
0100
0010
2000
0000
3000
0000
,
0001
1000
0100
0010
0002
0000
0003
0000
,
0100
0010
1000
0001
0110
0000
1001
0000
,
0100
0001
1000
0010
1001
0000
0110
0000
,
1010
1010
0001
0100
,
1002
0103
2010
3100
,
1000
0010
0100
0001
1000
0010
0100
0001
,
1020
0130
2001
3010
,
0100
1000
0010
0100
0001
0000
0110
0000
,
0102
1003
0210
1300
,
0001
0010
0100
1000
0001
0010
0100
1000
,
0120
0000
0000
0000
1030
0000
0000
0000
0100
0000
0001
1000
0001
0000
0000
0000
,
1000
0100
0010
0001
0100
0000
0000
0000
,
0001
0100
0010
1000
0001
0100
0010
1000
,
0001
0110
1000
0110
,
1000
0100
0010
0001
1000
0100
0010
0001
,
0100
1001
0010
1001
,
0001
1000
0010
0100
0001
1000
0010
0100
,
0001
1100
0010
0101
,
0020
0000
0200
0030
,
1000
1000
0001
0301
,
0000
1000
0000
0001
0000
1000
0000
0001
,
0000
0100
0000
0010
0000
1001
0000
0110
,
0000
1000
0000
1100
0000
0110
0000
0011
,
0000
0001
0000
0101
0000
0110
0000
1000
,
0001
0010
0001
0100
0001
0010
0001
0100
,
0010
1000
0100
1000
0010
1000
0100
1000
,
0001
1000
0001
0100
0001
1000
0001
0100
,
0010
0100
0010
0100
0010
0100
0010
0100
,
0010
0000
1000
0000
0001
0000
0010
0100
,
0000
0100
1000
0000
0001
0000
1100
0000
,
0101
0000
0010
0000
1000
0000
0001
0010
,
0000
0010
0100
1000
0001
0000
0000
0000
,
1000
0000
0001
0000
0010
0000
0100
1000
,
0000
1000
0001
0000
0100
0000
1010
0000
,
0011
0000
0100
0000
1000
0000
0001
0100
,
0000
0100
0010
1000
0100
0000
0000
0000
,
1000
0000
0100
0000
0010
0000
0001
1000
,
0000
1000
0001
0000
0100
0000
1001
0000
,
1010
0000
0110
0000
0100
0000
0010
1000
,
0000
1000
0100
0010
0001
0000
0110
0000
,
0001
0000
0100
0000
0010
0000
1000
0001
,
0000
0001
1000
0000
0100
0000
0011
0000
,
1001
0000
1100
0000
0001
0000
1000
0010
,
0000
0010
0100
0001
1000
0000
0110
0000
;
#NOTES:
     dance-double:
     :
     Beginner:
     1:
     :
00000000
00000000
00000000
00000000
,
00000000
00000000
00000000
00000000
,
00000000
00000000
00000000
00000000
,
00000000
00000000
00000000
00000000
,
00000000
00000000
00000000
00000000
,
00000000
00000000
00000000
00000000
,
00000000
00000000
00000000
00000000
,
10000000
10000000
10000000
10000000
,
10000000
00000000
00000000
00000000
,
00000000
00000000
00000000
00000000
,
01000000
00000000
00000000
00000000
,
00100000
00000000
00000000
00000000
,
00001000
00000000
00000000
00000000
,
00000000
00000000
00000000
00000000
,
00010000
00000000
00000000
00000000
,
00000010
00000000
00000000
00000000
,
00001000
00000000
00000000
00000000
,
00000000
00000000
00000000
00000000
,
00000001
00000000
00000000
00000000
,
00000000
00000000
00000000
00000000
,
00000100
00000000
00000000
00000000
,
00000000
00000000
00000000
00000000
,
00001000
00000000
00000000
00000000
,
00000000
00000000
00000000
00000000
,
00010000
00000000
00000000
00000000
,
00000000
00000000
00000000
00000000
,
01000000
00000000
00000000
00000000
,
00000000
00000000
00000000
00000000
,
10000000
00000000
00000000
00000000
,
00000000
00000000
00000000
00000000
,
00010000
00000000
00000000
00000000
,
00000000
00000000
00000000
00000000
,
00100000
00000000
00000000
00000000
,
01000000
00000000
00000000
00000000
,
01100000
00000000
00000000
00000000
,
00000000
00000000
00000000
00000000
,
00001000
00000000
00000000
00000000
,
00010000
00000000
00000000
00000000
,
00011000
00000000
00000000
00000000
,
00000000
00000000
00000000
00000000
,
00000100
00000000
00000000
00000000
,
00000010
00000000
00000000
00000000
,
00000110
00000000
00000000
00000000
,
00000000
00000000
00000000
00000000
,
00000001
00000000
00000000
00000000
,
00001000
00000000
00000000
00000000
,
00000010
00000000
00000000
00000000
,
00010000
00000000
00000000
00000000
,
00001000
00000000
00000000
00000000
,
00100000
00000000
00000000
00000000
,
00010000
00000000
00000000
00000000
,
10000000
00000000
00000000
00000000
,
01000000
00000000
00000000
00000000
,
00100000
00000000
00000000
00000000
,
00010000
00000000
00000000
00000000
,
00000000
00000000
00000000
00000000
,
00000000
00000000
00000000
00000000
,
00000000
00000000
00000000
00000000
,
00001000
00000000
00000000
00000000
,
00000000
00000000
00000000
00000000
,
00000010
00000000
00000000
00000000
,
00000100
00000000
00000000
00000000
,
00000001
00000000
00000000
00000000
,
00001000
00000000
00000000
00000000
,
00000100
00000000
00000000
00000000
,
00010000
00000000
00000000
00000000
,
00001000
00000000
00000000
00000000
,
01000000
00000000
00000000
00000000
,
00100000
00000000
00000000
00000000
,
10000000
00000000
00000000
00000000
,
01000000
00000000
00000000
00000000
,
00100000
00000000
00000000
00000000
,
01100000
00000000
00000000
00000000
,
00000000
00000000
00000000
00000000
,
00001000
00000000
00000000
00000000
,
00010000
00000000
00000000
00000000
,
00011000
00000000
00000000
00000000
,
00000000
00000000
00000000
00000000
,
00000100
00000000
00000000
00000000
,
00000010
00000000
00000000
00000000
,
00000110
00000000
00000000
00000000
,
00000000
00000000
00000000
00000000
,
00001000
00000000
00000000
00000000
,
00000001
00000000
00000000
00000000
,
00001001
00000000
00000000
00000000
;
#NOTES:
     dance-double:
     :
     Easy:
     3:
     :
00000000
00000000
00000000
00000000
,
00000000
00000000
00000000
00000000
,
00000000
00000000
00000000
00000000
,
00000000
00000000
00000000
00000000
,
00000000
00000000
00000000
00000000
,
00000000
00000000
00000000
00000000
,
00000000
00000000
00000000
00000000
,
20000000
00000000
00000000
30000000
,
01000000
00100000
00020000
00000000
,
00000000
00000000
00000000
00030000
,
01000000
00001000
01000000
00000000
,
00001000
00010000
00001000
00000000
,
00010000
00001000
00000020
00000000
,
00000000
00000000
00000000
00000030
,
00000100
00001000
00000100
00000000
,
00000010
00000001
00000010
00000001
,
00000100
00000000
00000010
00000000
,
00010000
00000000
00001000
00001000
,
00100000
00000000
00010000
00000000
,
01000000
00000000
00100000
00100000
,
10000000
00000000
01000000
00000000
,
00010000
00000000
00001000
00001000
,
00010000
00000000
00001000
00000000
,
00000100
00000010
00000110
00000000
,
00000001
00000000
00001000
00000000
,
00000100
00000000
00010000
00010000
,
00001000
00000000
01000000
00000000
,
00100000
00000000
10000000
10000000
,
00010000
00000000
00100000
00000000
,
00001000
00000000
00010000
00010000
,
00000100
00000000
00001000
00000000
,
00000001
00001000
00001001
00000000
,
00000002
00000000
00000000
00000003
,
00000200
00000000
00000000
00000300
,
00002000
00000000
00000000
00003000
,
00010000
00001000
00010000
00001000
,
00020000
00000000
00000000
00030000
,
00200000
00000000
00000000
00300000
,
20000000
00000000
00000000
30000000
,
00100000
01000000
00100000
01000000
,
00020000
00000000
00000000
00030000
,
00200000
00000000
00000000
00300000
,
02000000
00000000
00000000
03000000
,
00010000
00001000
00010000
00001000
,
00020000
00000000
00000000
00030000
,
00000100
00000100
00000010
00000010
,
00000001
00001000
00000002
00000000
,
00000000
00000000
00000000
00000003
,
00000100
00001000
00010000
00000000
,
00001000
00010000
01000000
00000000
,
10000000
00010000
20000000
00000000
,
00000000
00000000
00000000
30000000
,
00100000
10000000
01000000
00000000
,
00010000
00001000
00011000
00000000
,
00020000
00000000
00000000
00000000
,
00000000
00000000
00000000
00030000
,
00000200
00000000
00000000
00000000
,
00000000
00000000
00000000
00000300
,
00002000
00000000
00000000
00003000
,
00000020
00000000
00000000
00000030
,
00000100
00000000
00000001
00000000
,
00001000
00001000
00000100
00000100
,
00010000
00000000
00001000
00000000
,
01000000
00000000
00010000
00000000
,
00100000
00000000
01000000
00000000
,
10000000
00000000
01000000
00000000
,
00010000
00000000
00001000
00000000
,
00000010
00000000
00000001
00000000
,
00000100
00000000
00000001
00000000
,
00001000
00000000
00001001
00000000
,
00000002
00000000
00000000
00000003
,
00000100
00000000
00000010
00000000
,
00010000
00001000
00200000
00000000
,
00000000
00000000
00000000
00300000
,
00020000
00000000
00000000
00030000
,
10000000
00000000
01000000
00000000
,
00100000
00010000
00100000
00000000
,
00002000
00000000
00000000
00003000
,
00020000
00000000
00000000
00030000
,
00000100
00000000
00001000
00000000
,
00000001
00000100
00000020
00000000
,
00000000
00000000
00000000
00000030
,
00000200
00000000
00000000
00000300
,
00001000
00000000
00010000
00000000
,
01000000
00100000
01000000
00000000
,
20000000
00000000
00000000
30000000
;
#NOTES:
     dance-double:
     :
     Medium:
     6:
     :
00000000
00000000
00000000
00000000
,
00000000
00000000
00000000
00000000
,
00000000
00000000
00000000
00000000
,
00000000
00000000
00000000
00000000
,
00000000
00000000
00000000
00000000
,
00000000
00000000
00000000
00000000
,
00000000
00000000
00000000
00000000
,
00010000
00010000
00001000
00001000
,
01000000
00100000
10000000
00000000
,
00000000
00010000
10000000
01000000
00010000
00000000
00001000
00000000
,
00010000
00000100
00000010
00000000
,
00000001
00001000
00000101
00000000
,
00001000
00000100
00010000
00000000
,
00000000
00001000
00010000
01000000
10000000
00000000
00100000
00000000
,
01000000
00010000
10000000
00000000
,
01000000
00100000
00011000
00000100
,
00000010
00000001
00000000
00001000
,
00000000
00000110
00000000
00000000
00000010
00000000
00000100
00000000
,
00001000
00010000
00000000
00000100
,
00000000
00011000
00000000
00000000
01000000
00000000
00100000
00000000
,
10000000
00010000
00000000
00100000
,
00000000
11000000
00000000
00000000
00010000
00000000
00100000
00000000
,
00001000
00000000
00011000
00000000
,
00010000
00000100
00001010
00000000
,
00000001
00001000
00000000
00000100
,
00000000
00001010
00000000
00000000
00000100
00000000
00010000
00000000
,
00001000
00100000
00000000
00010000
,
00000000
01100000
00000000
00000000
10000000
00000000
01000000
00000000
,
00010000
00001000
00000000
00010000
,
00000000
00011000
00000000
00000000
00001000
00000000
00000100
00000000
,
00000001
00000000
00001001
00000000
,
00000100
00000010
00011000
00000000
,
00020000
00000000
00030000
00001000
,
00200000
00000000
00300000
00010000
,
02000000
00000000
03000000
00100000
,
10000000
00000000
00010000
10000000
,
00020000
00000000
00030000
00100000
,
00002000
00000000
00003000
00010000
,
00000200
00000000
00000300
00001000
,
00000010
00001000
00000000
00000001
00000000
00001000
00000100
00000000
,
00000020
00000000
00000030
00000001
,
00000200
00000000
00000300
00001000
,
00020000
00000000
00030000
01000000
,
20000000
30000000
00100000
10000000
,
00020000
00000000
00030000
00100000
,
00001000
00001000
00010000
00010000
,
00000100
00001000
00000010
00000000
,
00000000
00000100
00000001
00001000
00000010
00000000
00010000
00000000
,
00001000
00100000
00010000
00000000
,
10000000
00010000
10010000
00000000
,
00100000
10000000
00010000
00000000
,
00000000
00100000
00010000
01000000
00001000
00000000
00010000
00000000
,
00000100
00001000
00000010
00000000
,
00001000
00000001
00000110
00000000
,
00000001
00000000
00000100
00000000
,
00000020
00000000
00000000
00000030
,
00010000
00000000
00001000
00000000
,
00100000
00000000
00010000
00000000
,
11000000
00000000
00100000
00000000
,
01100000
00000000
00110000
00000000
,
00002000
00003000
00020000
00030000
,
00000100
00001000
00000010
00000100
,
00000001
00000001
00000100
00001000
,
00000100
00000100
00001000
00010000
,
00001000
00001000
00010000
01000000
,
00010000
00010000
01000000
10000000
,
00020000
00030000
00100000
00110000
,
00002000
00003000
00010000
00011000
,
00000200
00000300
00001000
00001100
,
00000010
00000101
00001000
00000110
,
00001000
00000000
00000100
00000000
,
00010000
00001000
00100000
00010000
,
02000000
00000000
00000000
00000000
,
00000000
00000000
00000000
03000000
,
00100000
00000000
10000000
00000000
,
01000000
00010000
00001000
00010000
,
00002000
00000000
00000000
00000000
,
00000000
00000000
00000000
00003000
,
00010000
00000000
00000100
00000000
,
00001010
00000000
00000100
00000001
,
00000010
00000000
00000100
00000000
,
00022000
00000000
00000000
00033000
,
01000000
00000000
00010000
00000000
,
01100000
00000000
00010000
10000000
,
01000000
00000000
00100000
00000000
,
00022000
00000000
00000000
00033000
;
#NOTES:
     dance-double:
     :
     Hard:
     9:
     :
00000000
00000000
00000000
00000000
,
00000000
00000000
00000000
00000000
,
00000000
00000000
00000000
00000000
,
00000000
00000000
00000000
00000000
,
00000000
00000000
00000000
00000000
,
00000000
00000000
00000000
00000000
,
00000000
00000000
00000000
00000000
,
00100000
10000000
01000000
00010000
,
00001000
00010000
00001000
00000000
,
00000000
00010000
00000100
00001000
00000010
00000100
00000001
00001000
,
00000010
00010000
00001000
00000000
,
00100000
00010000
01000000
00100000
10000000
00000000
00000000
00000000
,
00010000
10000000
00010000
00000000
,
00000000
10000000
01000000
00100000
00001000
00010000
00000010
00001000
,
00000100
00000010
00000001
00000000
,
00000100
00000010
00001000
00000100
00010000
00000000
00011000
00000000
,
00100000
00010000
01000000
00100000
,
00000000
10010000
00000000
00100000
01000000
00000000
10000000
00000000
,
00100000
00000000
01000000
00000000
00010000
00100000
00001000
00000000
,
00000000
00011000
00000000
00010000
00000100
00000000
00001000
00000000
,
00000010
00000100
00000001
00001000
,
00000000
00000110
00000000
00001000
00000100
00000000
00010000
00000000
,
00001000
00000000
00100000
00000000
00010000
01000000
00100000
00000000
,
10000000
01000000
00100000
00010000
00001000
00000000
00000000
00000000
,
00000110
00000001
00000110
00001000
,
00000000
00000100
00000000
00010000
00001000
00000000
00100000
00000000
,
01010000
00000000
10000000
00000000
00110000
10000000
01000000
00000000
,
00000000
00010000
00000000
00001000
00010000
00000000
00000100
00000000
,
00001001
00000010
00001001
00000100
,
00000000
00000010
00000000
00010000
00001000
00000000
00100000
00000000
,
01010000
00000000
00100000
00000000
10010000
01000000
10000000
00000000
,
01000000
00010000
00001000
00010000
00000100
00000000
00001001
00000000
,
00000020
00000000
00000000
00000000
00000030
00000001
00000001
00000000
,
00000200
00000000
00000000
00000000
00000300
00001000
00001000
00000000
,
00020000
00000000
00030000
00001000
00000000
00010000
00001000
00000000
,
00001000
01000000
00000000
00010000
00000000
01000000
00010000
00000000
,
20000000
00000000
00000000
00000000
30000000
00100000
00100000
00000000
,
01000000
00010000
00100000
00001000
00000000
00010000
00010000
00000000
,
00000100
00001000
00000010
00000100
00000000
00000001
00000001
00000000
,
00000010
00000100
00000000
00001000
00000000
00000100
00010000
00000000
,
00002000
00000000
00000000
00000000
00003000
00100000
00100000
00000000
,
00020000
00000000
00000000
00000000
00030000
10000000
10000000
00000000
,
02000000
00000000
03000000
00100000
00000000
00010000
01000000
00000000
,
00001000
00010000
00000000
00001000
00000000
00010000
00000100
00000000
,
00002002
00000000
00000000
00000000
00003003
00000100
00000010
00000000
,
00010000
00002000
00013000
00011000
,
00100000
00010000
00100000
00000000
,
00000000
00010000
01000000
00100000
10000000
00010000
01000000
00100000
,
10000000
00010000
01000000
00000000
,
00001000
01000000
00010000
00100000
00001000
00000000
00000000
00000000
,
00010000
00001000
00010000
00000000
,
00000000
00000100
00001000
00000010
00010000
00000100
00001000
00000010
,
00010000
00000100
00001000
00000000
,
00000001
00000100
00000010
00001000
00000110
00000000
00000000
00000000
,
00000001
00000000
00000000
00000100
00000000
00000010
00020000
00000000
,
00000000
00000000
00000000
00030000
,
00001000
00000000
00000000
00100000
01000000
00000000
10000000
00000000
,
00100000
00000000
00000000
01000000
00000000
00000000
00010000
00000000
,
10000000
01000000
00100000
00001000
,
00010000
00000100
00001000
00000010
,
00000200
00000000
00000000
00000000
,
00000001
00000001
00000001
00000301
,
00001000
00000010
00000101
00001100
,
00010000
00001000
00011000
01010000
,
00010000
00000000
00000000
10000000
01000000
00000000
00000000
01000000
,
00010000
00000000
00000000
00010000
00001000
00000000
00000000
00000000
,
00010000
00001000
00000100
00000001
00001000
00000000
00001001
00000000
,
00001000
00000001
00000100
00001000
00010000
00000000
00011000
00000000
,
00100000
00001000
00100000
00000000
00010000
01000000
00010000
00000000
,
10000000
00010000
10000000
00010000
10000000
00010000
10000000
00010000
,
10000000
00000000
01000000
00000000
00100000
00000000
00001000
00010000
,
00000000
00010000
00001000
00000000
00001000
00010000
00000100
00000010
,
00000001
00000000
00000000
00002000
00000000
00000000
00000000
00000000
,
00000000
00000000
00003000
00000110
,
00000001
00000000
00001000
00000100
00001000
00000000
00000100
00010000
,
00000000
00010000
00001000
00000000
00001000
01000000
00100000
00000000
,
20000000
00000000
00000000
00000000
,
00000000
00000000
00000000
30000000
,
01000000
00000000
00100000
00000000
00010000
00000000
01000000
00001000
,
00000000
00001000
00010000
00000000
00010000
00001000
00000100
00000001
,
00000010
00000000
00000000
00000002
00000000
00000000
00000000
00000000
,
00000000
00000000
00000003
00001000
,
00000010
00000000
00000100
00000001
00000100
00000000
00000010
00001000
,
00000000
00001000
00000100
00000000
00000100
00010000
00001000
00000000
,
00020000
00000000
00000000
00000000
,
00000000
00000000
00000000
00030000
;
#NOTES:
     dance-double:
     :
     Challenge:
     10:
     :
00000000
00000000
00000000
00000000
,
00000000
00000000
00000000
00000000
,
00000000
00000000
00000000
00000000
,
00000000
00000000
00000000
00000000
,
00000000
00000000
00000000
00000000
,
00000000
00000000
00000000
00000000
,
00000000
00000000
00000000
00000000
,
11000000
01010000
00011000
00001100
,
00000001
00000010
00000200
00000000
,
00000300
00001000
00000010
00000100
00001000
00010000
01000000
00100000
,
00010000
10000000
00200000
00300000
,
01000000
00010000
10000000
01000000
00020000
00000000
00030000
00000000
,
00000000
00001000
00000000
00010000
00000000
00000100
00000000
00000010
,
00000000
00000101
00000000
00001010
00000000
00010100
00000000
00101000
,
00000000
01010000
00000000
10100000
00000000
01100000
00000000
10010000
,
00000000
00100000
00000000
00010000
01000000
00000000
00011000
00000000
,
00010000
00000100
00000010
00000001
,
00001000
00000000
00000100
00001000
00000001
00000000
00000100
00000000
,
00000010
00001000
00010000
00100000
,
01000000
00000000
10000000
00000000
00100000
00000000
01000000
00010000
,
10000000
00000000
01000000
00100000
00001000
00000000
00010000
00000000
,
00000010
00000000
00001000
00000000
00000100
00000000
00000010
00000001
,
00000100
00000000
00001010
00000000
00010000
00001000
00010000
00000000
,
00001000
00000000
01000000
00010000
01000000
00000000
00010000
00000000
10000000
00000000
00000000
00000000
00000000
00000000
00000000
00000000
,
01000000
10000000
01000000
00100000
01000000
10000000
01000000
00100000
,
01000000
10000000
01000000
00010000
01000000
00010000
00001000
00000000
,
00000010
00000001
00000100
00000001
00000010
00000001
00000100
00000001
,
00000010
00000001
00000100
00000001
00001000
00000001
00001000
00000000
,
00000010
00010000
00000010
00001000
00000010
00000100
00000010
00000000
,
00010000
00000100
00010000
00001000
00010000
01000000
00010000
00000000
,
00001000
00100000
01000000
10000000
,
01010000
11000000
01100000
00000000
,
10000000
01000000
00010000
00001000
00020000
00000000
00030000
00000000
,
00001000
00010000
00001000
00000100
00000002
00000000
00000003
00000000
,
00000010
00000001
00000100
00001000
00020000
00000000
00030000
00000000
,
00001000
00010000
01000000
00100000
10010000
00000000
10010000
00000000
,
10000000
00010000
00100000
00010000
02000000
00000000
03000000
00000000
,
00001000
00010000
00000100
00010000
00000020
00000000
00000030
00000000
,
00001000
00000100
00000010
00000001
00000200
00000000
00000300
00000000
,
00000000
00000001
00000100
00000010
00001000
00000100
00010000
00000000
,
00101000
00110000
20020000
30030000
,
01010000
01001000
00022000
00033000
,
00010010
00001010
00000220
00000330
,
00000001
00001000
00000010
00000100
00001010
00000000
00011000
00000000
,
00010000
00001000
01000000
00100000
01010000
00000000
01010000
00000000
,
10010000
10010000
01000000
00100000
,
12000000
00100000
03010000
00001000
,
00010000
00000100
00001000
00000010
00010000
00000100
00001000
00000010
,
00000201
00000010
00001300
00010000
,
00001000
01000000
00010000
00100000
01000000
00000000
10010000
00000000
,
01020000
00130000
00012000
00003100
,
00000010
00001000
00000001
00000100
00000010
00001000
00000001
00000100
,
00001020
00000000
00000000
00000000
00010030
00000000
00000000
00000000
00001000
00000000
00010000
00000100
00010000
00000000
00000000
00000000
,
00001000
01000000
00010000
00100000
01000000
00000000
00000000
00000000
,
10000000
01000000
00100000
00010000
10000000
01000000
00100000
00010000
,
01000000
00011000
00000100
00001001
,
00000001
00000100
00000010
00001000
00000001
00000100
00000010
00001000
,
00000100
00011000
01000000
10010000
,
10000000
01000000
00100000
00010000
10000000
01000000
00100000
00010000
,
00001000
00000110
00000001
00000110
,
00000002
00000000
00002000
00000003
,
00000100
00000100
00010000
00013000
,
00000000
00100000
00000000
00010000
00000000
10000000
00000000
00010000
,
00000000
01000000
00000000
00100000
00000000
01010000
00000000
00011000
,
00000000
00001000
00000000
00001010
00000000
00000110
00000000
00000101
,
00000000
00000010
00000000
00001100
00000000
00011000
00000000
00100000
,
00010000
01000000
00010000
00100000
00010000
01000000
00010000
00100000
,
01000000
10000000
00010000
10000000
01000000
10000000
00010000
01000000
,
00001000
00010000
00001000
01000000
00001000
00010000
00001000
00000100
,
00000010
00000100
00000010
00000100
00000010
00000100
00000010
00000100
,
00000010
00000000
00001000
00000000
00000001
00000000
00000100
00000010
,
00000000
00000010
00001000
00000000
00000100
00000000
00011000
00000000
,
00110000
00000000
01000000
00000000
00010000
00000000
00100000
01000000
,
00000000
01000000
10000000
00010000
00100000
00000000
00000000
00000000
,
00010000
00000000
10000000
00000000
00100000
00000000
10000000
01000000
,
00000000
01000000
00100000
00000000
00010000
00000000
01010000
00000000
,
00011000
00000000
00010000
00000000
00000100
00000000
00001000
00000001
,
00000000
00000001
00001000
00000100
00000010
00000000
00000000
00000000
,
00000001
00000000
00000100
00000000
00000010
00000000
00001000
00000100
,
00000000
00000100
00010000
00000000
00001000
00000000
00011000
00000000
,
00110000
00000000
01100000
00000000
01000000
00000000
00100000
00010000
,
00000000
00010000
10000000
01000000
00100000
00000000
10010000
00000000
,
10000000
00000000
01000000
00000000
00100000
00000000
00001000
00010000
,
00000000
00010000
00001000
00000000
00000100
00000000
00000110
00000000
,
00001001
00000000
00000101
00000000
00001000
00000000
00000100
00000010
,
00000000
00000010
00000001
00000100
00001000
00000000
00011000
00000000
;
