
//----- song ID: hund -----
#TITLE:100 Sec. Kitchen Battle!!;
#ARTIST:Orange Lounge;
#BANNER:100 Sec. Kitchen Battle!!.png;
#BACKGROUND:100 Sec. Kitchen Battle!!-bg.png;
#CDTITLE:./CDTitles/DDR UNIVERSE3.png;
#MUSIC:100 Sec. Kitchen Battle!!.ogg;
#OFFSET:-1.089;
#SAMPLESTART:15.917;
#SAMPLELENGTH:15;
#BPMS:0=178,172=89,188=178,256=89,260=178;
#NOTES:
     dance-single:
     :
     Beginner:
     1:
     :
0000
0000
0000
0000
,
0000
0000
0000
0000
,
0000
0000
0000
0000
,
1001
0000
0000
0000
,
0000
0000
0000
0000
,
1001
0000
0000
0000
,
0000
0000
0000
0000
,
1001
0000
0000
0000
,
0000
0000
0000
0000
,
1001
0000
0000
0000
,
0000
0000
0000
0000
,
0010
0000
0000
0000
,
0010
0000
0000
0000
,
0010
0000
0000
0000
,
0000
0000
0000
0000
,
0100
0000
0000
0000
,
0100
0000
0000
0000
,
0100
0000
0000
0000
,
0000
0000
0000
0000
,
0001
0000
0000
0000
,
0001
0000
0000
0000
,
1000
0000
0000
0000
,
0000
0000
0000
0000
,
0100
0000
0000
0000
,
0100
0000
0000
0000
,
0010
0000
0000
0000
,
0000
0000
0000
0000
,
0001
0000
0000
0000
,
0001
0000
0000
0000
,
1000
0000
0000
0000
,
1000
0000
0000
0000
,
0001
0000
0000
0000
,
0001
0000
0000
0000
,
1000
0000
0000
0000
,
1000
0000
0000
0000
,
0001
0000
0000
0000
,
0000
0000
0000
0000
,
0100
0000
0000
0000
,
0000
0000
0000
0000
,
0010
0000
0000
0000
,
0000
0000
0000
0000
,
1000
0000
0000
0000
,
0000
0000
0000
0000
,
0001
0000
0000
0000
,
0010
0000
0000
0000
,
0100
0000
0000
0000
,
1000
0000
0000
0000
,
0001
0000
0000
0000
,
0001
0000
0000
0000
,
0001
0000
0000
0000
,
0000
0000
0000
0000
,
0100
0000
0000
0000
,
0100
0000
0000
0000
,
0100
0000
0000
0000
,
0000
0000
0000
0000
,
0010
0000
0000
0000
,
0010
0000
0000
0000
,
1000
0000
0000
0000
,
0001
0000
0000
0000
,
0001
0000
0000
0000
,
1000
0000
0000
0000
,
0100
0000
0000
0000
,
0010
0000
0000
0000
,
0001
0000
0000
0000
,
1000
0000
0000
0000
;
#NOTES:
     dance-single:
     :
     Easy:
     2:
     :
0000
0000
0000
0000
,
0000
0000
0000
0000
,
0000
0000
0000
0000
,
1001
0000
0000
0000
,
0000
0000
0000
0000
,
0110
0000
0000
0000
,
0000
0000
0000
0000
,
1001
0000
0000
0000
,
0000
0000
0000
0000
,
0110
0000
0000
0000
,
0002
0000
0000
0003
,
0001
0000
0000
0000
,
0001
0000
0000
0000
,
0010
0000
0000
0000
,
0010
0000
0000
0000
,
0100
0000
0000
0000
,
0100
0000
0000
0000
,
1000
0000
0000
0000
,
1000
0000
0000
0000
,
1001
0000
0000
0000
,
0000
0000
0000
0000
,
0110
0000
0000
0000
,
0000
0000
0000
0000
,
1001
0000
0000
0000
,
0000
0000
0000
0000
,
0110
0000
0000
0000
,
0000
0000
0000
0000
,
0001
0000
0001
0000
,
0001
0000
0000
0000
,
1000
0000
1000
0000
,
1000
0000
0000
0000
,
0100
0000
0100
0000
,
0100
0000
0000
0000
,
0010
0000
0010
0000
,
0010
0000
0000
0000
,
0110
0000
0000
0000
,
0100
0000
0000
0000
,
1001
0000
0000
0000
,
0001
0000
0000
0000
,
0110
0000
0000
0000
,
0010
0000
0000
0000
,
1001
0000
0000
0000
,
1000
0000
0000
0000
,
0010
0000
0100
0000
,
0001
0000
1000
0000
,
0100
0000
0010
0000
,
0001
0001
0001
0000
,
1000
0000
0000
0000
,
0010
0000
0000
0000
,
0100
0000
0000
0000
,
0001
0000
0001
0000
,
0010
0000
0000
0000
,
0100
0000
0000
0000
,
1000
0000
1000
0000
,
0001
0000
0000
0000
,
0100
0000
0010
0000
,
0100
0000
0000
0000
,
0001
0000
1000
0000
,
0001
0000
0000
0000
,
0010
0000
0100
0000
,
0010
0000
0000
0000
,
0100
0000
1000
0000
,
0100
0000
0000
0000
,
1000
0000
0001
0000
,
1000
0000
0000
0000
;
#NOTES:
     dance-single:
     :
     Medium:
     5:
     :
0000
0000
0000
0000
,
0000
0000
0000
0000
,
0000
0000
0000
0000
,
1001
0001
0000
0001
,
0000
0010
0000
0010
,
0110
0100
0000
0100
,
0000
1000
0000
1000
,
1001
0001
0000
0001
,
0000
0100
0000
0100
,
0110
0010
0000
0010
,
2000
0000
3001
1000
,
1001
0000
0100
0000
0010
1000
0010
0000
,
0100
0000
0001
0000
0010
0100
0010
0000
,
0001
0000
1000
0000
0010
1000
0010
0000
,
0100
0000
0001
0010
0001
0000
1000
0000
,
1001
0000
0001
0000
0100
0010
0100
0000
,
0010
0000
1000
0000
0001
0100
0001
0000
,
1000
0000
0010
0000
1000
0100
1000
0000
,
0100
0000
0010
0001
0010
0000
0100
0000
,
1000
0000
1100
0000
0000
0101
0000
0000
,
0001
0000
0011
0000
0000
1100
0000
0000
,
0010
0000
0110
0000
0000
1001
0000
0000
,
0001
0000
0011
0000
0000
0110
0000
0000
,
0100
0000
1100
0000
0000
1010
0000
0000
,
0100
0000
0101
0000
0000
1001
0000
0000
,
0010
0000
1010
0000
0000
0101
0000
0000
,
1001
0010
0100
0000
,
1001
0000
1010
1001
,
0100
0010
1000
0100
,
0110
0000
0011
0110
,
0100
1000
0001
0100
,
0101
0000
1001
0101
,
0010
1000
0001
0010
,
0110
0000
1100
0110
,
0001
1000
0001
1000
,
0010
0000
0010
0000
0100
0001
0100
0000
,
0001
1000
0100
0100
,
0010
0000
0010
0000
0001
1000
0001
0000
,
0100
0010
1000
1000
,
0001
0000
0001
0000
0010
0100
0010
0000
,
0100
1000
0010
0010
,
0100
0000
0100
0000
0001
1000
0001
0000
,
1000
0100
0010
0001
,
1000
0000
0000
0001
0100
0000
0000
0010
1000
0000
0001
0000
0100
0000
0000
0000
,
0010
0000
0000
1000
0100
0000
0000
0010
0001
0000
0010
0000
0100
0000
1000
0000
,
0010
0000
0000
0100
0001
0000
0000
0001
1000
0000
0000
0100
0010
0000
0000
0001
,
1000
0000
0000
0010
0100
0000
0000
0001
0010
0000
0000
0000
0010
0000
0000
0000
,
0100
0000
0000
1000
0001
0000
0000
0001
,
0100
0000
0000
0100
0010
0000
0000
0010
,
1000
0000
0000
1000
0001
0000
0000
0001
,
0010
0100
1000
0001
,
0100
0000
0000
0100
0010
0000
0000
0010
,
1000
0000
0000
1000
0001
0000
0000
0010
,
0001
0000
0000
0100
0010
0000
0000
1000
,
0001
0000
0100
0000
,
0010
0000
1000
0100
1000
0000
0010
0000
,
0100
0000
0001
0010
0001
0000
1000
0000
,
0100
0000
0010
0001
0010
0000
0100
0000
,
1000
0001
0100
0010
,
1000
0000
0001
0100
0001
0000
1000
0000
,
0100
0000
1000
0001
1000
0000
0010
0000
,
1000
0000
0001
0100
0001
0000
0100
0000
,
0010
0000
1000
0010
1000
0000
0001
0000
,
0010
0000
0100
0010
0100
0000
1000
0000
,
0001
0000
0000
0000
;
#NOTES:
     dance-single:
     :
     Hard:
     8:
     :
0000
0000
0000
0000
,
0000
0000
0000
0000
,
0000
0000
0000
0000
,
1001
0000
0000
1000
0100
0001
0000
0100
,
0000
0100
0000
1000
0010
0000
0100
0000
,
1001
0000
0000
0001
0100
1000
0000
0100
,
0000
0100
0000
0001
0010
0000
0100
0000
,
0110
0000
0000
0010
0100
1000
0000
0001
,
0000
0001
0000
0100
0010
0000
1000
0000
,
1010
0000
0000
0001
0100
1000
0000
0100
,
0002
0000
0013
0010
,
1100
0000
0000
0010
0001
0100
0000
0010
,
0000
0010
0000
1000
0010
0100
0001
0000
,
1001
0000
0000
0100
0001
0010
0000
0100
,
0000
1000
0000
0001
0000
0100
0000
0000
,
1001
0000
0000
0001
0100
1000
0000
0100
,
0000
0100
0000
0001
0100
0010
0001
0000
,
1001
0000
0000
1000
0100
0001
0000
0010
,
0000
0100
0000
0010
0000
0001
0010
0100
,
1000
0000
0000
0001
0010
1000
0000
0010
,
0000
0000
0001
1000
0010
0000
0100
0000
,
0001
0000
0000
0010
0100
1000
0000
0100
,
0000
0000
0001
0100
0010
0001
1000
0001
,
0100
0000
0000
0010
1000
0001
0000
0100
,
0000
0000
1000
0100
0001
0000
0010
0000
,
0100
0000
0000
0010
0001
0100
0000
0010
,
0000
1010
0110
0000
,
0101
0001
0011
0101
,
1000
0000
0100
0010
0001
0000
0010
0000
,
0110
0100
1100
0110
,
0001
0000
0010
0100
1000
0000
0001
0000
,
1001
0010
1010
1001
,
0100
0000
0010
1000
0001
0000
0010
0000
,
1100
0010
0011
1100
,
1000
0000
0001
0100
0010
0000
1000
0000
,
1001
0000
0001
0010
0100
1000
0100
0010
,
0001
0000
0100
0010
1000
0000
0001
0000
,
1010
0000
1000
0010
0100
0001
0010
0100
,
1000
0000
0001
1000
0100
0000
0010
0000
,
1001
0000
0100
0001
0100
0010
0100
1000
,
0100
0000
0001
1000
0100
0000
0010
0000
,
0011
0000
0100
1000
0001
0100
0010
0100
,
0001
0000
0000
0000
0000
0000
0000
0000
0000
0000
0000
0010
0000
0000
0000
0000
0000
0000
0000
0000
0000
0000
0100
0000
0000
0000
0000
0000
0000
0000
0000
0000
1000
0000
0000
0000
0000
0000
0000
0000
0000
0000
0000
0100
0000
0000
0000
0000
0000
0000
0000
0000
0000
0000
0010
0000
0000
0000
0000
0000
0000
0000
0000
0000
,
0001
0100
0010
1000
0001
0000
0010
0000
0100
0010
0100
1000
0001
0000
1001
0000
,
1000
0100
0010
0100
1000
0001
0100
0010
1000
0001
0100
0001
1000
0001
0010
0001
,
1000
0100
0010
0001
0010
0000
0100
0000
1000
0001
0100
0010
0100
0000
1001
0000
,
0001
0010
0100
1000
0001
1000
0100
0010
0001
0000
0100
0000
1001
0000
0000
0000
,
1000
0010
0100
0001
0010
0000
0100
0000
,
1000
0100
1000
0001
0100
0000
0000
0000
,
0010
0100
0001
0100
0010
1000
0001
0010
,
0011
1010
0101
1100
,
0010
0100
0001
1000
0100
0000
0010
0000
,
0100
0010
0100
1000
0010
0000
0000
0000
,
0100
0001
1000
0100
0010
0100
1000
0001
,
0100
0000
0020
0000
1030
0001
0100
0010
,
0100
0000
0001
0010
0100
0010
0001
0100
,
0010
0100
0001
1000
0000
0001
0010
0100
,
0010
0000
0000
0100
1000
0000
0100
0000
,
0011
0110
1100
1001
,
0001
0000
1000
0010
0100
0010
1000
0100
,
0010
0100
1000
0001
0000
1000
0010
0100
,
0001
0000
0000
0100
0010
0000
1000
0000
,
0001
0000
0000
0000
,
0010
0000
0000
0100
1000
0000
0010
0000
,
0100
0000
0000
0000
,
0000
0000
0000
0000
0000
0002
0000
0000
0000
0000
0000
0000
0000
0000
0000
0000
0000
0000
0000
0000
0000
0000
0000
0000
0000
0000
0000
0000
0000
0000
0000
0000
,
0000
0000
0000
0000
0000
0000
0000
0003
;
#NOTES:
     dance-single:
     :
     Challenge:
     9:
     :
0000
0000
0000
0000
,
0000
0000
0000
0000
,
0000
0000
0000
0000
,
1001
0000
0000
1000
0100
0010
0000
0100
,
0000
0100
0000
1000
0001
0000
0100
0000
,
1010
0000
0000
0100
0001
0010
0000
0100
,
0000
0100
0000
1000
0001
0000
1000
0000
,
0110
0000
0000
0001
1000
0100
0000
0010
,
0000
0010
0000
0001
1000
0000
0100
0000
,
1100
0000
0000
0001
0010
0100
0000
1000
,
0002
0000
1003
1100
,
0101
0000
0000
0000
0000
0000
0000
0000
0000
0000
0000
0000
0000
0000
0000
0000
0100
0000
0000
0000
0000
0000
0000
0000
0010
1000
0000
0000
0000
0000
0000
0000
0001
0000
0000
0000
0000
0000
0000
0000
0010
0000
0000
0000
0000
0000
0000
0000
0000
0000
0000
0000
0000
0000
0000
0000
0100
0000
0000
0000
0000
0000
0000
0000
,
0010
0000
0100
0000
1000
0000
0001
0100
0000
0100
0010
0000
1000
0000
0000
0000
,
1100
0000
0000
0000
0000
0000
0000
0000
0000
0000
0000
0000
0000
0000
0000
0000
0100
0000
0000
0000
0000
0000
0000
0000
1000
0100
0000
0000
0000
0000
0000
0000
0010
0000
0000
0000
0000
0000
0000
0000
0001
0000
0000
0000
0000
0000
0000
0000
0000
0000
0000
0000
0000
0000
0000
0000
0001
0000
0000
0000
0000
0000
0000
0000
,
0100
0000
0010
0000
1000
0000
0001
0100
0000
0100
0001
0000
0010
0000
0000
0000
,
0110
0000
0000
0000
0000
0000
0000
0000
0000
0000
0000
0000
0000
0000
0000
0000
0100
0000
0000
0000
0000
0000
0000
0000
1000
0001
0000
0000
0000
0000
0000
0000
0100
0000
0000
0000
0000
0000
0000
0000
0010
0000
0000
0000
0000
0000
0000
0000
0000
0000
0000
0000
0000
0000
0000
0000
1000
0000
0000
0000
0000
0000
0000
0000
,
0001
0000
1000
0000
0010
0000
0100
0001
0000
0001
0010
0000
0100
0000
0000
0000
,
0011
0000
0000
0000
0000
0000
0000
0000
0000
0000
0000
0000
0000
0000
0000
0000
0001
0000
0000
0000
0000
0000
0000
0000
1000
0010
0000
0000
0000
0000
0000
0000
0100
0000
0000
0000
0000
0000
0000
0000
0001
0000
0000
0000
0000
0000
0000
0000
0000
0000
0000
0000
0000
0000
0000
0000
0010
0000
0000
0000
0000
0000
0000
0000
,
0001
0000
1000
0000
0001
0000
0100
0001
0000
0001
0010
0000
0100
0000
1000
0000
,
0001
0000
0101
0000
0000
1100
0000
0000
,
0010
0000
0000
0000
0000
0000
0000
0000
0000
0000
0000
0000
0000
0000
0000
0000
0101
0000
0000
0000
0000
0000
0000
0000
0000
0000
0000
0000
0000
0000
0000
0000
0000
0000
0000
0000
0000
0000
0000
0000
0100
0000
0000
0000
0000
0000
0000
0000
0001
0000
0000
0000
0000
0000
0000
0000
1000
0001
0000
0000
0000
0000
0000
0000
,
0010
0000
1100
0000
0000
0101
0000
0000
,
0010
0000
1001
0000
0000
0010
0100
0001
,
1000
0000
1100
0000
0000
0011
0000
0000
,
0001
0000
0000
0000
0000
0000
0000
0000
0000
0000
0000
0000
0000
0000
0000
0000
0101
0000
0000
0000
0000
0000
0000
0000
0000
0000
0000
0000
0000
0000
0000
0000
0000
0000
0000
0000
0000
0000
0000
0000
0010
0000
0000
0000
0000
0000
0000
0000
1000
0000
0000
0000
0000
0000
0000
0000
0001
1000
0000
0000
0000
0000
0000
0000
,
0010
0000
0000
0100
0001
0010
0000
0100
,
0000
0000
1100
0000
0101
0000
0000
0010
,
1000
0100
1000
0100
0001
0100
1000
0100
,
0010
0001
0010
0001
0100
0001
0100
0001
,
1000
0010
0100
0010
0001
0010
1000
0100
,
1001
0010
0001
0010
0100
1000
0100
1000
,
0010
0100
0001
0100
1000
0100
0010
0100
,
0001
1000
0001
1000
0100
0010
0100
0010
,
0001
0100
0010
0100
1000
0100
0001
0100
,
0010
0000
1000
0000
0010
0000
0000
0000
0100
0001
0000
0001
1000
0000
0100
0000
,
0011
1000
0100
1000
0100
0010
0100
0001
,
0100
0001
0100
0010
0001
1000
0010
1000
,
0101
0010
1000
0010
0100
0001
0100
1000
,
0100
1000
0100
0001
0010
0100
1000
0100
,
0011
1000
0001
1000
0010
0100
0010
0001
,
0010
0001
0010
0100
0001
1000
0010
0100
,
1001
0010
0100
0001
0100
0010
1000
0100
,
0010
0000
0000
0000
0000
0000
0000
0000
0000
0000
0000
0001
0000
0000
0000
0000
0000
0000
0000
0000
0000
0000
1000
0000
0000
0000
0000
0000
0000
0000
0000
0000
0010
0000
0000
0000
0000
0000
0000
0000
0000
0000
0000
1000
0000
0000
0000
0000
0000
0000
0000
0000
0000
0000
0001
0000
0000
0000
0000
0000
0000
0000
0000
0000
,
0100
0000
0000
0000
0001
0000
0000
0000
0010
0000
0000
0000
0100
0000
0000
0000
1000
0000
0000
0000
0000
0000
0000
0000
0001
0000
0000
0000
0000
0000
0000
0000
0010
0000
0000
0000
0100
0000
0000
0000
0010
0000
0000
0000
0001
0000
0000
0000
1000
0000
0000
0000
0000
0000
0000
0000
0001
0100
0000
0000
0000
0000
0000
0000
,
0010
1000
0001
0100
0001
0010
0100
1000
0001
0100
0010
0100
0001
0100
1000
0100
,
0010
1000
0001
0010
0100
0000
1000
0000
0100
0010
0100
1000
0001
0000
1001
0000
,
0010
0100
1000
0001
0100
0010
1000
0001
0010
0000
0100
0000
1001
0000
0000
0000
,
0001
0010
0100
1000
0001
0100
0010
0100
,
0001
1000
0100
0010
0001
1000
0010
0010
,
0100
0001
1000
0001
0010
0100
1000
0100
,
0010
0001
1000
0001
0100
0001
1000
0001
,
0100
0010
1000
0001
0010
0100
0010
0001
,
1000
0010
1000
0001
0100
0010
1000
1000
,
0001
0010
0100
1000
0001
1000
0100
0010
,
0001
0000
0200
0000
0310
1000
0001
0010
,
0100
0000
1000
0001
0001
0001
0100
0010
,
0010
0010
1000
0001
0000
0001
0010
0100
,
1000
0000
0010
0001
1000
0000
0100
0000
,
0011
1100
0101
1010
,
1000
0000
0001
0100
0100
0100
0010
1000
,
1000
1000
0001
0010
0000
0010
0100
1000
,
0001
0000
0010
0100
0001
0000
0010
0000
,
0100
0000
1000
0100
0010
0000
0001
0100
,
0010
0000
0001
1000
0100
0000
0010
0000
,
0001
0000
0000
0000
,
0000
0000
0000
0000
0000
2002
0000
0000
0000
0000
0000
0000
0000
0000
0000
0000
0000
0000
0000
0000
0000
0000
0000
0000
0000
0000
0000
0000
0000
0000
0000
0000
,
0000
0000
0000
0000
0000
0000
0000
3003
;
#NOTES:
     dance-double:
     :
     Beginner:
     1:
     :
00000000
00000000
00000000
00000000
,
00000000
00000000
00000000
00000000
,
00000000
00000000
00000000
00000000
,
10000000
00000000
00000000
00000000
,
00000000
00000000
00000000
00000000
,
00100000
00000000
00000000
00000000
,
00000000
00000000
00000000
00000000
,
01000000
00000000
00000000
00000000
,
00000000
00000000
00000000
00000000
,
00001000
00000000
00000000
00000000
,
00000000
00000000
00000000
00000000
,
00011000
00000000
00000000
00000000
,
00000000
00000000
00000000
00000000
,
00000100
00000000
00000000
00000000
,
00000000
00000000
00000000
00000000
,
00001000
00000000
00000000
00000000
,
00000000
00000000
00000000
00000000
,
00000001
00000000
00000000
00000000
,
00000000
00000000
00000000
00000000
,
00001001
00000000
00000000
00000000
,
00001000
00000000
00000000
00000000
,
00001000
00000000
00000000
00000000
,
00001000
00000000
00000000
00000000
,
00011000
00000000
00000000
00000000
,
00001000
00000000
00000000
00000000
,
00001000
00000000
00000000
00000000
,
00001000
00000000
00000000
00000000
,
00010000
00000000
00000000
00000000
,
00000000
00000000
00000000
00000000
,
00100000
00000000
00000000
00000000
,
00000000
00000000
00000000
00000000
,
01000000
00000000
00000000
00000000
,
00000000
00000000
00000000
00000000
,
10000000
00000000
00000000
00000000
,
00000000
00000000
00000000
00000000
,
00100000
00000000
00000000
00000000
,
00100000
00000000
00000000
00000000
,
01000000
00000000
00000000
00000000
,
01000000
00000000
00000000
00000000
,
00001000
00000000
00000000
00000000
,
00001000
00000000
00000000
00000000
,
00010000
00000000
00000000
00000000
,
00010000
00000000
00000000
00000000
,
00001000
00000000
00000000
00000000
,
00010000
00000000
00000000
00000000
,
00000100
00000000
00000000
00000000
,
00000010
00000000
00000000
00000000
,
00000001
00000000
00000000
00000000
,
00001000
00000000
00000000
00000000
,
00000001
00000000
00000000
00000000
,
00000000
00000000
00000000
00000000
,
00000100
00000000
00000000
00000000
,
00010000
00000000
00000000
00000000
,
00000100
00000000
00000000
00000000
,
00000000
00000000
00000000
00000000
,
00010000
00000000
00000000
00000000
,
00001000
00000000
00000000
00000000
,
00100000
00000000
00000000
00000000
,
00000000
00000000
00000000
00000000
,
00010000
00000000
00000000
00000000
,
01000000
00000000
00000000
00000000
,
00010000
00000000
00000000
00000000
,
00000000
00000000
00000000
00000000
,
10000000
00000000
00000000
00000000
,
00100000
00000000
00000000
00000000
;
#NOTES:
     dance-double:
     :
     Easy:
     2:
     :
00000000
00000000
00000000
00000000
,
00000000
00000000
00000000
00000000
,
00000000
00000000
00000000
00000000
,
00001001
00000000
00000000
00000000
,
00000000
00000000
00000000
00000000
,
00011000
00000000
00000000
00000000
,
00000000
00000000
00000000
00000000
,
10010000
00000000
00000000
00000000
,
00000000
00000000
00000000
00000000
,
01100000
00000000
00000000
00000000
,
00020000
00000000
00000000
00030000
,
00010000
00000000
00000000
00000000
,
00100000
00000000
00000000
00000000
,
00001000
00000000
00000000
00000000
,
00010000
00000000
00000000
00000000
,
00000010
00000000
00000000
00000000
,
00001000
00000000
00000000
00000000
,
00000001
00000000
00000000
00000000
,
00000010
00000000
00000000
00000000
,
00000110
00000000
00000000
00000000
,
00000000
00000000
00000000
00000000
,
00010000
00000000
00000000
00000000
,
00001000
00000000
00000000
00000000
,
00011000
00000000
00000000
00000000
,
00000000
00000000
00000000
00000000
,
00100000
00000000
00000000
00000000
,
00010000
00000000
00000000
00000000
,
10000000
00000000
10000000
00000000
,
10000000
00000000
00000000
00000000
,
00100000
00000000
00100000
00000000
,
00100000
00000000
00000000
00000000
,
01000000
00000000
01000000
00000000
,
01000000
00000000
00000000
00000000
,
00001000
00000000
00001000
00000000
,
00001000
00000000
00000000
00000000
,
00011000
00000000
00000000
00000000
,
00010000
00000000
00000000
00000000
,
00011000
00000000
00000000
00000000
,
00001000
00000000
00000000
00000000
,
00011000
00000000
00000000
00000000
,
00010000
00000000
00000000
00000000
,
00011000
00000000
00000000
00000000
,
00001000
00000000
00000000
00000000
,
00010000
00000000
00000100
00000000
,
00000010
00000000
00000001
00000000
,
00001000
00000000
00000100
00000000
,
00010000
00001000
00010000
00010000
,
00001000
00000000
00000000
00000000
,
01000000
00000000
00000000
00000000
,
00100000
00000000
00000000
00000000
,
10000000
00000000
10000000
00000000
,
01000000
00000000
00000000
00000000
,
00010000
00000000
00000000
00000000
,
00001000
00000000
00001000
00000000
,
00010000
00000000
00000000
00000000
,
00000010
00000000
00000100
00000000
,
00000010
00000000
00000000
00000000
,
00001000
00000000
00000001
00000000
,
00001000
00000000
00001000
00000000
,
00000010
00000000
00010000
00000000
,
00001000
00000000
00000000
00000000
,
00100000
00000000
00010000
00000000
,
00100000
00000000
00000000
00000000
,
01000000
00000000
10000000
00000000
,
00010000
00000000
00000000
00000000
;
#NOTES:
     dance-double:
     :
     Medium:
     6:
     :
00000000
00000000
00000000
00000000
,
00000000
00000000
00000000
00000000
,
00000000
00000000
00000000
00000000
,
10010000
01000000
00000000
01000000
,
00000000
00001000
00000000
00001000
,
00011000
00010000
00000000
00010000
,
00000000
00000100
00000000
00000100
,
00000110
00000010
00000000
00000010
,
00000000
00000001
00000000
00000001
,
00001001
00001000
00000000
00001000
,
00000200
00000000
00010300
00001000
,
00011000
00000000
00010000
00000000
01000000
00100000
01000000
00000000
,
00100000
00000000
00010000
00000000
10000000
00100000
10000000
00000000
,
00100000
00000000
00010000
00000000
00001000
00010000
00001000
00000000
,
00010000
00000000
00000100
00001000
00000100
00000000
00000010
00000000
,
00001001
00000000
00000001
00000000
00000100
00000010
00010000
00000000
,
00001000
00000000
00100000
00000000
01000000
10000000
00010000
00000000
,
01000000
00000000
00100000
00000000
00010000
00100000
00010000
00000000
,
00001000
00000000
00010000
00001000
00010000
00000000
00000100
00000000
,
00001000
00000000
00001100
00000000
00000000
00001001
00000000
00000000
,
00000001
00000000
00000101
00000000
00000000
00001100
00000000
00000000
,
00001000
00000000
00011000
00000000
00000000
00101000
00000000
00000000
,
00100000
00000000
01100000
00000000
00000000
11000000
00000000
00000000
,
10000000
00000000
10100000
00000000
00000000
01100000
00000000
00000000
,
00010000
00000000
01010000
00000000
00000000
01001000
00000000
00000000
,
00010000
00000000
00011000
00000000
00000000
00010100
00000000
00000000
,
00001100
00000100
00000010
00000000
,
00000011
00000000
00000110
00000011
,
00000010
00000100
00010000
00001000
,
00011000
00000000
00101000
00011000
,
00001000
01000000
00100000
10000000
,
10100000
00000000
10010000
10100000
,
10000000
01000000
00010000
00001000
,
00011000
00000000
00010100
00011000
,
00001000
00010000
00001000
00010000
,
00000100
00000000
00000100
00000000
00001000
00000001
00001000
00000000
,
00000010
00000100
00000001
00000001
,
00000010
00000000
00000010
00000000
00000100
00001000
00000100
00000000
,
00010000
00001000
01000000
01000000
,
00100000
00000000
00100000
00000000
10000000
00010000
10000000
00000000
,
01000000
00100000
00001000
00001000
,
00010000
00000000
00010000
00000000
00000010
00001000
00000010
00000000
,
00000100
00000001
00000100
00001000
,
00010000
00000000
00000000
00001000
00100000
00000000
00000000
00010000
10000000
00000000
01000000
00000000
00100000
00000000
00000000
00000000
,
01000000
00000000
00000000
01000000
00010000
00000000
00000000
00010000
00001000
00000000
00000010
00000000
00000001
00000000
00001000
00000000
,
00000010
00000000
00000000
00000010
00010000
00000000
00000000
00001000
00010000
00000000
00000000
00001000
00100000
00000000
00000000
00100000
,
01000000
00000000
00000000
01000000
10000000
00000000
00000000
10000000
00100000
00000000
00000000
00000000
01000000
00000000
00000000
00000000
,
00001000
00000000
00000000
00010000
00000100
00000000
00000000
00000100
,
00000010
00000000
00000000
00000001
00001000
00000000
00000000
00000010
,
00010000
00000000
00000000
00010000
00001000
00000000
00000000
00001000
,
01000000
00100000
10000000
00010000
,
00100000
00000000
00000000
00100000
01000000
00000000
00000000
01000000
,
00010000
00000000
00000000
00001000
00010000
00000000
00000000
00000010
,
00001000
00000000
00000000
00001000
00000001
00000000
00000000
00000001
,
00000010
00000000
00000100
00000000
,
00010000
00000000
00001000
00100000
00001000
00000000
01000000
00000000
,
00100000
00000000
10000000
00100000
10000000
00000000
00010000
00000000
,
01000000
00000000
00001000
00010000
00001000
00000000
00010000
00000000
,
00000010
00000100
00001000
00000100
,
00000001
00000000
00000010
00000100
00010000
00000000
00001000
00000000
,
00100000
00000000
00010000
10000000
00100000
00000000
01000000
00000000
,
00010000
00000000
01000000
00100000
10000000
00000000
01000000
00000000
,
00010000
00000000
00001000
00010000
00001000
00000000
00010000
00000000
,
00000010
00000000
00001000
00000010
00001000
00000000
00000001
00000000
,
00000010
00000000
00000000
00000000
;
#NOTES:
     dance-double:
     :
     Hard:
     8:
     :
00000000
00000000
00000000
00000000
,
00000000
00000000
00000000
00000000
,
00000000
00000000
00000000
00000000
,
00001001
00000000
00000000
00000010
00010000
00001000
00000000
00010000
,
00000000
00010000
00000000
00001000
00100000
00000000
01000000
00000000
,
10010000
00000000
00000000
00100000
01000000
00001000
00000000
00010000
,
00000000
00010000
00000000
00000100
00000010
00000000
00000001
00000000
,
00000101
00000000
00000000
00000010
00010000
00001000
00000000
00010000
,
00000000
00010000
00000000
00001000
00010000
00000000
01000000
00000000
,
11000000
00000000
00000000
00100000
00010000
00100000
00000000
00001000
,
00020000
00000000
00031000
00001000
,
00011000
00000000
00000000
00010000
00000010
00001000
00000000
00000001
,
00000000
00000001
00000000
00000100
00001000
00010000
00001000
00000000
,
00011000
00000000
00000000
00001000
00010000
01000000
00000000
10000000
,
00000000
00100000
00000000
00010000
00000000
00001000
00000000
00000000
,
00011000
00000000
00000000
00010000
00000100
00000010
00000000
00000001
,
00000000
00000001
00000000
00000010
00001000
00010000
00001000
00000000
,
00011000
00000000
00000000
00001000
01000000
00100000
00000000
10000000
,
00000000
00010000
00000000
01000000
00000000
10000000
01000000
00010000
,
00100000
00000000
00000000
00001000
00010000
00000100
00000000
00001000
,
00000000
00000000
00000000
00000010
00000100
00000000
00000001
00000000
,
00000010
00000000
00000000
00000100
00010000
00001000
00000000
00100000
,
00000000
00000000
00000000
00010000
01000000
00100000
10000000
01000000
,
00010000
00000000
00000000
00001000
00010000
00000010
00000000
00000100
,
00000000
00000000
00000000
00000001
00000100
00000000
00001000
00000000
,
00010000
00000000
00000000
00001000
00010000
00100000
00000000
10000000
,
00000000
01100000
10010000
00000000
,
11000000
00000000
01100000
11000000
,
00100000
00000000
00001000
00010000
00001000
00000000
00010000
00000000
,
00011000
00000000
00010010
00011000
,
00010000
00000000
00000100
00001000
00000100
00000000
00000010
00000000
,
00000011
00000000
00001010
00000011
,
00000001
00000000
00000100
00001000
00000100
00000000
00001000
00000000
,
00011000
00000000
00101000
00011000
,
00001000
00000000
00100000
01000000
10000000
00000000
01000000
00000000
,
10010000
00000000
10000000
00100000
01000000
00001000
00000000
00010000
,
00000000
00000000
00000000
00000100
00001000
00000000
00000001
00000000
,
00000011
00000000
00000010
00000100
00010000
00001000
00000000
00100000
,
00000000
00000000
00000000
00010000
10000000
00000000
00100000
00000000
,
10100000
00000000
10000000
00100000
00010000
00001000
00000000
00010000
,
00000000
00000000
00000000
00000100
00001000
00000000
00000100
00000000
,
00001001
00000000
00000001
00000100
00001000
00000100
00000000
00001000
,
00010000
00000000
00000000
00000000
00000000
00000000
00000000
00000000
00000000
00000000
00000000
00100000
00000000
00000000
00000000
00000000
00000000
00000000
00000000
00000000
00000000
00000000
10000000
00000000
00000000
00000000
00000000
00000000
00000000
00000000
00000000
00000000
00010000
00000000
00000000
00000000
00000000
00000000
00000000
00000000
00000000
00000000
00000000
01000000
00000000
00000000
00000000
00000000
00000000
00000000
00000000
00000000
00000000
00000000
10000000
00000000
00000000
00000000
00000000
00000000
00000000
00000000
00000000
00000000
,
01000000
00010000
10000000
01000000
00100000
00000000
00001000
00000000
00010000
00001000
00010000
00000010
00001000
00000000
00001010
00000000
,
00000001
00000100
00001000
00000100
00000010
00010000
00001000
00100000
01000000
10000000
01000000
00100000
01000000
10000000
01000000
00010000
,
00001000
01000000
00100000
00010000
00001000
00000000
00010000
00000000
00000100
00001000
00000100
00000010
00000001
00000000
00000011
00000000
,
00000010
00001000
00010000
00100000
00010000
00001000
00000100
00000010
00010000
00000000
00001000
00000000
00011000
00000000
00000000
00000000
,
00100000
00010000
10000000
01000000
00100000
00000000
01000000
00000000
,
10000000
01000000
10000000
00100000
01000000
00000000
00000000
00000000
,
00001000
00100000
01000000
00100000
00010000
01000000
00001000
00010000
,
00011000
00010010
00000110
00000101
,
00000010
00001000
00000001
00000010
00000100
00000000
00010000
00000000
,
00001000
01000000
00001000
00100000
00010000
00000000
00000000
00000000
,
00100000
01000000
10000000
00010000
10000000
01000000
00100000
00001000
,
00010000
00000000
00002000
00000000
00013000
00000010
00001000
00000010
,
00000100
00000000
00000001
00001000
00000100
00001000
00000001
00000100
,
00001000
00000100
00000010
00010000
00000000
00001000
00100000
00010000
,
01000000
00000000
00000000
00100000
10000000
00000000
00100000
00000000
,
01010000
01001000
00011000
00010100
,
00001100
00000000
00001000
00000100
00000001
00000100
00001000
00000001
,
00000100
00000001
00000010
00001000
00000000
00010000
01000000
00100000
,
00010000
00000000
00000000
10000000
01000000
00000000
00100000
00000000
,
00001000
00000000
00000000
00000000
,
00010000
00000000
00000000
00000100
00001000
00000000
00000010
00000000
,
00000100
00000000
00000000
00000000
,
00000000
00000000
00000000
00000000
00000000
00000002
00000000
00000000
00000000
00000000
00000000
00000000
00000000
00000000
00000000
00000000
00000000
00000000
00000000
00000000
00000000
00000000
00000000
00000000
00000000
00000000
00000000
00000000
00000000
00000000
00000000
00000000
,
00000000
00000000
00000000
00000000
00000000
00000000
00000000
00000003
;
#NOTES:
     dance-double:
     :
     Challenge:
     9:
     :
00000000
00000000
00000000
00000000
,
00000000
00000000
00000000
00000000
,
00000000
00000000
00000000
00000000
,
10100000
00000000
00000000
10000000
00100000
00010000
00000000
00100000
,
00000000
00100000
00000000
01000000
00001000
00000000
00010000
00000000
,
00011000
00000000
00000000
00000100
00001000
00000001
00000000
00000010
,
00000000
00000010
00000000
00000100
00010000
00000000
00001000
00000000
,
00101000
00000000
00000000
00100000
00010000
01000000
00000000
00100000
,
00000000
00100000
00000000
10000000
01000000
00000000
00010000
00000000
,
01010000
00000000
00000000
01000000
10000000
00100000
00000000
00010000
,
00002000
00000000
00013000
00011000
,
00010100
00000000
00000000
00000000
00000000
00000000
00000000
00000000
00000000
00000000
00000000
00000000
00000000
00000000
00000000
00000000
00001000
00000000
00000000
00000000
00000000
00000000
00000000
00000000
00000100
00000010
00000000
00000000
00000000
00000000
00000000
00000000
00000001
00000000
00000000
00000000
00000000
00000000
00000000
00000000
00001000
00000000
00000000
00000000
00000000
00000000
00000000
00000000
00000000
00000000
00000000
00000000
00000000
00000000
00000000
00000000
00000010
00000000
00000000
00000000
00000000
00000000
00000000
00000000
,
00000100
00000000
00001000
00000000
00010000
00000000
00001000
00100000
00000000
00100000
00010000
00000000
01000000
00000000
00000000
00000000
,
10100000
00000000
00000000
00000000
00000000
00000000
00000000
00000000
00000000
00000000
00000000
00000000
00000000
00000000
00000000
00000000
10000000
00000000
00000000
00000000
00000000
00000000
00000000
00000000
00100000
01000000
00000000
00000000
00000000
00000000
00000000
00000000
00010000
00000000
00000000
00000000
00000000
00000000
00000000
00000000
00100000
00000000
00000000
00000000
00000000
00000000
00000000
00000000
00000000
00000000
00000000
00000000
00000000
00000000
00000000
00000000
00001000
00000000
00000000
00000000
00000000
00000000
00000000
00000000
,
00010000
00000000
00000100
00000000
00000010
00000000
00001000
00000010
00000000
00000010
00000001
00000000
00001000
00000000
00000000
00000000
,
00001001
00000000
00000000
00000000
00000000
00000000
00000000
00000000
00000000
00000000
00000000
00000000
00000000
00000000
00000000
00000000
00000010
00000000
00000000
00000000
00000000
00000000
00000000
00000000
00010000
00001000
00000000
00000000
00000000
00000000
00000000
00000000
00100000
00000000
00000000
00000000
00000000
00000000
00000000
00000000
00010000
00000000
00000000
00000000
00000000
00000000
00000000
00000000
00000000
00000000
00000000
00000000
00000000
00000000
00000000
00000000
01000000
00000000
00000000
00000000
00000000
00000000
00000000
00000000
,
00100000
00000000
10000000
00000000
00010000
00000000
01000000
10000000
00000000
10000000
01000000
00000000
00100000
00000000
00000000
00000000
,
10100000
00000000
00000000
00000000
00000000
00000000
00000000
00000000
00000000
00000000
00000000
00000000
00000000
00000000
00000000
00000000
01000000
00000000
00000000
00000000
00000000
00000000
00000000
00000000
00010000
00100000
00000000
00000000
00000000
00000000
00000000
00000000
00001000
00000000
00000000
00000000
00000000
00000000
00000000
00000000
00010000
00000000
00000000
00000000
00000000
00000000
00000000
00000000
00000000
00000000
00000000
00000000
00000000
00000000
00000000
00000000
00001000
00000000
00000000
00000000
00000000
00000000
00000000
00000000
,
00000100
00000000
00000010
00000000
00001000
00000000
00000010
00000100
00000000
00000100
00000001
00000000
00000010
00000000
00000100
00000000
,
00001000
00000000
00010100
00000000
00000000
00011000
00000000
00000000
,
00100000
00000000
00000000
00000000
00000000
00000000
00000000
00000000
00000000
00000000
00000000
00000000
00000000
00000000
00000000
00000000
00110000
00000000
00000000
00000000
00000000
00000000
00000000
00000000
00000000
00000000
00000000
00000000
00000000
00000000
00000000
00000000
00000000
00000000
00000000
00000000
00000000
00000000
00000000
00000000
01000000
00000000
00000000
00000000
00000000
00000000
00000000
00000000
10000000
00000000
00000000
00000000
00000000
00000000
00000000
00000000
00010000
10000000
00000000
00000000
00000000
00000000
00000000
00000000
,
00100000
00000000
01010000
00000000
00000000
00011000
00000000
00000000
,
00010000
00000000
00010100
00000000
00000000
00000100
00000010
00001000
,
00000010
00000000
00000011
00000000
00000000
00001100
00000000
00000000
,
00010000
00000000
00000000
00000000
00000000
00000000
00000000
00000000
00000000
00000000
00000000
00000000
00000000
00000000
00000000
00000000
00011000
00000000
00000000
00000000
00000000
00000000
00000000
00000000
00000000
00000000
00000000
00000000
00000000
00000000
00000000
00000000
00000000
00000000
00000000
00000000
00000000
00000000
00000000
00000000
00001000
00000000
00000000
00000000
00000000
00000000
00000000
00000000
01000000
00000000
00000000
00000000
00000000
00000000
00000000
00000000
00010000
01000000
00000000
00000000
00000000
00000000
00000000
00000000
,
00100000
00000000
00000000
00100000
10000000
01000000
00000000
00100000
,
00000000
00000000
00110000
00000000
11000000
00000000
00000000
01000000
,
10000000
00100000
10000000
00100000
00010000
00100000
01000000
00010000
,
00100000
00001000
00100000
00001000
00010000
00000100
00010000
00000100
,
00001000
00000010
00001000
00000010
00000001
00000010
00000100
00000001
,
00001010
00000100
00000001
00000010
00001000
00010000
01000000
00100000
,
00010000
00100000
00010000
00100000
10000000
00100000
01000000
10000000
,
00100000
01000000
00100000
01000000
00001000
00010000
00001000
00010000
,
00000010
00001000
00000010
00001000
00000001
00000100
00001000
00000100
,
00000010
00000000
00010000
00000000
00001000
00000000
00000000
00000000
00100000
00010000
00000000
00010000
10000000
00000000
01000000
00000000
,
11000000
00100000
00001000
00100000
00001000
00010000
00001000
00000010
,
00001000
00000010
00000100
00001000
00000001
00000100
00000010
00000100
,
00001001
00000010
00010000
00000010
00010000
00001000
00100000
00010000
,
00100000
01000000
00100000
01000000
10000000
00100000
01000000
00010000
,
10100000
01000000
00001000
01000000
00001000
00100000
00010000
00100000
,
00010000
00100000
00001000
00010000
00000100
00001000
00000010
00000100
,
00001001
00000010
00001000
00000010
00000100
00000001
00000100
00001000
,
00010000
00000000
00000000
00000000
00000000
00000000
00000000
00000000
00000000
00000000
00000000
00001000
00000000
00000000
00000000
00000000
00000000
00000000
00000000
00000000
00000000
00000000
00010000
00000000
00000000
00000000
00000000
00000000
00000000
00000000
00000000
00000000
01000000
00000000
00000000
00000000
00000000
00000000
00000000
00000000
00000000
00000000
00000000
00010000
00000000
00000000
00000000
00000000
00000000
00000000
00000000
00000000
00000000
00000000
01000000
00000000
00000000
00000000
00000000
00000000
00000000
00000000
00000000
00000000
,
10000000
00000000
00000000
00000000
00100000
00000000
00000000
00000000
01000000
00000000
00000000
00000000
00100000
00000000
00000000
00000000
00010000
00000000
00000000
00000000
00000000
00000000
00000000
00000000
10000000
00000000
00000000
00000000
00000000
00000000
00000000
00000000
01000000
00000000
00000000
00000000
00010000
00000000
00000000
00000000
01000000
00000000
00000000
00000000
00001000
00000000
00000000
00000000
00010000
00000000
00000000
00000000
00000000
00000000
00000000
00000000
00000100
00001000
00000000
00000000
00000000
00000000
00000000
00000000
,
00000001
00000010
00000100
00010000
00001000
01000000
00100000
00010000
00100000
01000000
00010000
01000000
00100000
01000000
10000000
01000000
,
00010000
00100000
01000000
10000000
01000000
00000000
00010000
00000000
00001000
00010000
00000010
00001000
00000100
00000000
00001100
00000000
,
00000010
00000001
00000100
00001000
00010000
00001000
00100000
01000000
10000000
00000000
00100000
00000000
01010000
00000000
00000000
00000000
,
00100000
10000000
00010000
00100000
00001000
00010000
00000100
00010000
,
00001000
00000100
00000010
00001000
00000001
00000010
00000100
00000100
,
00010000
00001000
00100000
00010000
10000000
01000000
00010000
01000000
,
10000000
00010000
01000000
00010000
00100000
00001000
00010000
00001000
,
00000100
00000001
00001000
00000100
00000010
00001000
00010000
00001000
,
00100000
00010000
00100000
01000000
10000000
00100000
01000000
01000000
,
00100000
00010000
00001000
00000100
00000010
00001000
00000001
00000010
,
00000100
00000000
00020000
00000000
00031000
00100000
00010000
00100000
,
01000000
00000000
10000000
00100000
00100000
00100000
01000000
00001000
,
00001000
00001000
00010000
00000100
00000000
00000100
00000010
00000001
,
00001000
00000000
00000010
00000001
00001000
00000000
00000010
00000000
,
00001010
00011000
00101000
00110000
,
00100000
00000000
01000000
10000000
10000000
10000000
00100000
01000000
,
01000000
01000000
00001000
00010000
00000000
00010000
00000100
00000010
,
00001000
00000000
00000000
00000010
00000001
00000000
00001000
00000000
,
00000010
00000000
00000000
00000010
00001000
00000000
00000000
00000100
,
00010000
00000000
00000000
00001000
00100000
00000000
01000000
00000000
,
10000000
00000000
00000000
00000000
,
00000000
00000000
00000000
00000000
00000000
20020000
00000000
00000000
00000000
00000000
00000000
00000000
00000000
00000000
00000000
00000000
00000000
00000000
00000000
00000000
00000000
00000000
00000000
00000000
00000000
00000000
00000000
00000000
00000000
00000000
00000000
00000000
,
00000000
00000000
00000000
00000000
00000000
00000000
00000000
30030000
;
