#TITLE:Yoru Funk;
#ARTIST:oo39.com;
#BANNER:Yoru Funk.png;
#BACKGROUND:Yoru Funk-bg.png;
#CDTITLE:./CDTITLES/Dance Dance Revolution UNIVERSE 2.png;
#MUSIC:Yoru Funk.ogg;
#SAMPLESTART:16.797;
#SAMPLELENGTH:15;
#BPMS:0=100.02;

//---------------dance-single - ----------------
#NOTES:
     dance-single:
     :
     Beginner:
     1:
     :
0000
0000
0000
0000
,
0000
0000
0000
0000
,
0000
0000
0000
0000
,
1000
0000
1000
0000
,
0001
0000
0001
0000
,
0010
0000
0010
0000
,
0000
0000
1001
0000
,
1000
1000
0000
1000
,
0000
1000
0000
1000
,
0001
0001
0000
0001
,
0000
0001
0000
0001
,
0010
0010
0010
0000
,
0100
0100
0100
0000
,
0001
0001
0001
0000
,
1000
1000
1000
0000
,
0010
0010
0000
0010
,
0000
1000
0000
1000
,
0000
0100
0000
0100
,
0000
0001
0000
0001
,
0000
0100
0000
0100
,
0000
0010
0000
0010
,
0000
0001
0000
0001
,
0000
1000
0000
1000
,
1000
1000
0000
0000
,
0100
0100
0000
0000
,
0010
0010
0000
0000
,
0001
0001
0000
0000
,
1000
0000
1000
0000
,
0010
0000
0010
0000
,
0001
0000
0001
0000
,
0010
0000
0010
0000
,
0220
0000
0000
0330
,
0000
0100
0000
0100
,
0000
0001
0000
0001
,
0000
1000
0000
1000
,
0000
0010
0000
0010
,
0110
0000
0000
0000
;

//---------------dance-single - ----------------
#NOTES:
     dance-single:
     :
     Easy:
     3:
     :
0000
0000
0000
0000
,
0000
0000
0000
0000
,
0000
0000
0000
0000
,
1000
0100
0010
0001
,
0100
0010
1000
0100
,
0001
0100
1000
0010
,
0001
0010
2002
3003
,
0010
0100
0000
0001
,
1000
0100
0000
0010
,
0001
1000
0000
0100
,
0010
1000
0010
0001
,
1000
0100
0000
0001
,
0100
1000
0000
0010
,
0001
0010
0000
0100
,
0001
1000
0000
0010
,
1000
0100
0010
0001
,
1000
0100
0001
0100
,
0010
0001
1000
0100
,
1000
0010
0001
0010
,
1001
0100
0000
0010
,
0000
1000
0000
0001
,
0000
0010
0000
0100
,
0000
0001
0000
1000
,
0110
1000
0000
0001
,
1000
0010
0000
0100
,
0001
1000
0000
0100
,
0010
0100
0000
0001
,
1000
0000
0010
0100
,
0001
0000
0010
0100
,
1000
0001
0000
0010
,
0001
1000
0000
0100
,
2002
0000
0000
3003
,
0000
1000
0000
0100
,
0000
0010
0000
0001
,
0000
0100
0000
0010
,
0000
1000
0000
0100
,
1001
0000
0000
0000
;

//---------------dance-single - ----------------
#NOTES:
     dance-single:
     :
     Medium:
     6:
     :
0000
0000
0000
0000
,
0000
0000
0000
0000
,
0000
0000
0000
0000
,
0110
0001
1000
0010
0000
0010
0100
0001
,
0000
0001
0010
0100
0000
0100
1000
0001
,
1001
1000
0100
0010
0000
0010
0001
1000
,
0000
0000
1000
0000
0010
0000
0200
0002
0000
0000
0000
0000
0303
0000
0000
0000
,
1000
0000
0000
0100
0010
0000
0000
0000
0001
0000
1000
0000
0100
0000
0000
0000
,
0010
0000
0000
0001
0100
0000
0000
0000
1000
0000
0100
0000
0010
0000
0000
0000
,
0001
0000
0000
0010
1000
0000
0000
0000
0001
0000
0100
0000
0010
0000
0000
0000
,
0100
0000
0000
0001
1000
0000
0000
0000
0100
0000
1000
0000
0001
0000
0010
0000
,
0100
1000
0010
0000
0100
0000
0001
0000
,
1000
0100
0010
0000
0001
0000
0100
0000
,
0010
1000
0001
0000
0100
0000
0010
0000
,
1000
0000
0100
0000
0010
0010
0001
0001
,
1000
0000
0001
0000
0100
0100
0010
0000
,
1000
0000
0010
0000
0001
0001
0010
0000
,
1000
0000
0100
0000
0010
0010
1000
0000
,
0010
0000
0001
0000
1000
1000
0100
0100
,
0011
0000
0000
1000
0000
0000
0100
0000
0000
0010
0000
0000
1000
0000
0000
0000
,
0010
0000
0000
0001
0000
0000
1000
0000
0000
0010
0000
0000
0100
0000
0000
0000
,
1000
0000
0000
0100
0000
0000
0010
0000
0000
0100
0000
0000
0001
0000
0000
0000
,
1000
0000
0000
0100
0000
0000
0010
0000
0000
0001
0000
0000
1100
0000
0000
0000
,
0010
0000
0001
1000
0001
0000
0000
0000
1000
0000
0000
0000
0100
0000
0000
0000
,
0001
0000
0100
1000
0100
0000
0000
0000
1000
0000
0000
0000
0010
0000
0000
0000
,
0100
0000
0010
0001
0010
0000
0000
0000
0100
0000
0000
0000
0001
0000
0000
0000
,
1000
0000
0001
0100
0001
0000
0000
0000
1000
0000
1000
0000
0010
0000
0010
0000
,
0001
0010
1000
0000
0100
1000
0010
0000
,
1000
0100
0001
0000
1000
0010
0001
0000
,
0100
0010
0001
0000
0010
1000
0001
0000
,
0010
0100
1000
0000
0010
0010
0100
0100
,
2002
0000
0000
3003
,
0110
0000
0000
1000
0000
0000
0100
0000
0000
0001
0000
0000
0101
0000
0000
0000
,
1001
0000
0000
0100
0000
0000
0001
0000
0000
0010
0000
0000
0011
0000
0000
0000
,
0110
0000
0000
0001
0000
0000
0010
0000
0000
1000
0000
0000
1010
0000
0000
0000
,
1001
0000
0000
0010
0000
0010
1000
0000
0000
0000
1000
0000
0100
0000
0011
0000
;

//---------------dance-single - ----------------
#NOTES:
     dance-single:
     :
     Hard:
     8:
     :
0000
0000
0000
0000
,
0000
0000
0000
0000
,
0000
0000
0000
0000
0000
0000
0000
0100
,
1001
0010
0000
1000
0000
0100
0000
0001
,
0000
0010
0000
1000
0000
0100
0000
0001
,
1100
0010
0000
0001
0000
0100
0000
1000
,
0000
0000
0010
0000
0100
0000
2000
0002
0000
0000
0000
0000
3003
0000
0000
0000
,
0010
0000
1000
0100
1000
0001
0000
0100
0000
0001
0000
1000
0010
1000
0000
0001
,
0000
0010
0100
0010
0001
1000
0000
0100
0000
0010
0000
0100
2000
0000
0000
0000
,
0000
3010
0001
0010
1000
0100
0000
1000
0000
0001
0000
0010
0001
0100
0000
0001
,
0000
1000
0001
0100
0010
0100
0000
0001
0000
1010
0000
1001
0000
0101
0000
0010
,
0000
1000
0100
0010
0001
1000
0000
0010
0000
0100
0000
0001
0010
0000
1100
0000
,
0000
0001
0010
1000
0010
0001
0000
1000
0000
0100
0000
0010
0001
0010
0000
0100
,
0000
1000
0001
0100
0010
0001
0000
0010
0000
0100
0000
0001
0000
0010
0100
0000
,
0001
0000
0100
0010
0000
1000
0000
0010
0100
0010
0000
0011
0000
1001
0000
1100
,
0000
0000
0010
0001
0010
1000
0000
0001
0000
0100
0000
1000
0001
0010
0000
0100
,
0000
1000
0010
0001
0010
1000
0000
0001
0000
0100
0000
0010
0002
0000
0000
0000
,
0000
0013
1000
0001
0100
0010
0000
0100
0000
0001
0000
1000
0010
0100
0000
0001
,
0000
1000
0100
0010
0001
1000
0000
0100
0000
1010
0000
0110
0000
0101
0000
1001
,
0100
0000
0000
0100
1000
0000
0001
0000
0000
0100
0000
0000
1001
0000
0000
0000
,
0010
0000
0000
0001
1000
0000
0010
0000
0000
0100
0000
0000
1001
0000
0000
0000
,
1000
0000
0000
1000
0100
0000
0010
0000
0000
0001
0000
0000
1001
0000
0000
0000
,
0001
0000
0000
0001
0010
0000
0100
0000
0000
1100
0000
0110
0000
0011
0000
0100
,
0000
0000
1000
0100
1000
0001
0000
0010
0000
0001
0000
1000
0010
0100
0000
0001
,
0000
1000
0100
0001
0100
0010
0000
0001
0000
0100
0000
0001
2000
0000
0000
0000
,
0000
3001
0010
1000
0010
0100
0000
1000
0000
0001
0000
0010
0001
1000
0000
0001
,
0000
0100
1000
0100
0010
1000
0000
0100
0000
0011
0000
1001
0000
0101
0000
0001
,
0000
0000
0010
0100
0010
1000
0000
0010
0000
0001
0000
1000
0100
0010
0000
1000
,
0000
0010
0100
0001
0100
1000
0000
0010
0000
0100
0000
0001
2000
0000
0000
0000
,
0000
3001
0010
0001
0100
0001
0000
1000
0000
0010
0000
0100
0010
1000
0000
0100
,
0000
0001
0100
1000
0100
0010
0000
0001
0000
1001
0000
1010
0000
0110
0000
0202
,
0000
0000
0000
0000
0000
0000
0000
0303
0000
0110
0000
1010
0000
1001
0000
0000
,
0101
0000
0001
0000
0001
0010
0100
1000
0001
0100
0000
0010
0000
0100
0001
0010
,
0000
0000
0100
0000
0100
1000
0010
0001
0010
1000
0000
0001
0000
0100
0001
0010
,
0000
0000
0100
0000
0100
1000
0010
0001
0010
1000
0000
0001
0000
1000
0010
0001
,
0000
0000
0010
0000
0010
1000
0100
0001
0100
0010
0000
1100
0000
0101
0000
0110
;

//---------------dance-double - ----------------
#NOTES:
     dance-double:
     :
     Beginner:
     1:
     :
00000000
00000000
00000000
00000000
,
00000000
00000000
00000000
00000000
,
00000000
00000000
00000000
00000000
,
00000001
00000000
00000001
00000000
,
00000100
00000000
00000100
00000000
,
00001000
00000000
00001000
00000000
,
00010000
00000000
00011000
00000000
,
00010000
00010000
00000000
00010000
,
00000000
01000000
00000000
01000000
,
00000000
00100000
00000000
00100000
,
00000000
00010000
00000000
00010000
,
10010000
00010000
00000000
00010000
,
00000000
10000000
00000000
10000000
,
00000000
01000000
00000000
01000000
,
00000000
00010000
00000000
00010000
,
00011000
00010000
00000000
00010000
,
00000000
00001000
00000000
00001000
,
00000000
00000010
00000000
00000010
,
00000000
00000100
00000000
00000100
,
00000110
00000100
00000000
00000100
,
00000000
00000001
00000000
00000001
,
00000000
00001000
00000000
00001000
,
00000000
00000100
00000000
00000110
,
00000010
00000010
00000000
00000010
,
00000000
00001000
00000000
00001000
,
00000000
00010000
00000000
00010000
,
00000000
00100000
00000000
00100000
,
01100000
00100000
00000000
00100000
,
00000000
10000000
00000000
10000000
,
00000000
01000000
00000000
01000000
,
00000000
00010000
00000000
00010000
,
00022000
00000000
00000000
00033000
,
00011000
00001000
00000000
00001000
,
00000000
00000100
00000000
00000100
,
00000000
00001000
00000000
00001000
,
00000000
00010000
00000000
00011000
;

//---------------dance-double - ----------------
#NOTES:
     dance-double:
     :
     Easy:
     3:
     :
00000000
00000000
00000000
00000000
,
00000000
00000000
00000000
00000000
,
00000000
00000000
00000000
00000000
,
10000000
01000000
00100000
00001000
,
00010000
00000100
00000010
00000001
,
00001000
00000001
00000100
00000010
,
00010000
01000000
20020000
30030000
,
00100000
01000000
00000000
00010000
,
10000000
01000000
00000000
00100000
,
00001000
00010000
00000000
00000100
,
00001000
00000001
00000000
00000110
,
00000001
00001000
00000000
00000010
,
00000100
00000010
00000000
00000001
,
00000010
00001000
00000000
00000100
,
00010000
00001000
00000000
00011000
,
00010000
01000000
00000000
00100000
,
00010000
10000000
00000000
00100000
,
01000000
00100000
00000000
00010000
,
00100000
10000000
00000000
01000000
,
10010000
00010000
00000000
01000000
,
00000000
00001000
00000000
00010000
,
00000000
00000010
00000000
00001000
,
00000000
00000100
00000000
00000010
,
00001001
00000010
00000000
00000100
,
00000001
00000100
00000000
00001000
,
00010000
01000000
00000000
10000000
,
00010000
01000000
00000000
00100000
,
10000000
01000000
00100000
01100000
,
00100000
00010000
00001000
00011000
,
00001000
00000100
00000001
00001001
,
00000001
00000010
00000100
00000110
,
00002002
00000000
00003003
00000110
,
00001001
00000001
00000000
00001000
,
00000000
00000100
00000000
00010000
,
00000000
00001000
00000000
00100000
,
01000000
00010000
00000010
00001000
,
00001001
00000000
00000000
00000000
;

//---------------dance-double - ----------------
#NOTES:
     dance-double:
     :
     Medium:
     6:
     :
00000000
00000000
00000000
00000000
,
00000000
00000000
00000000
00000000
,
00000000
00000000
00000000
00000000
,
00000101
00000001
00001000
00000100
00000000
00000100
00000010
00000001
,
00000000
00000001
00000100
00000010
00000000
00000010
00010000
00001000
,
00011000
00001000
00100000
00010000
00000000
00010000
10000000
01000000
,
00000000
00000000
01000000
00000000
10000000
00000000
00020000
00200000
00000000
00000000
00000000
00000000
00330000
00000000
00000000
00000000
,
00001000
00000000
00000000
00010000
00000100
00000000
00000000
00000000
00001000
00000000
00000001
00000000
00000100
00000000
00000000
00000000
,
00000010
00000000
00000000
00001000
00000100
00000000
00000000
00000000
00000010
00000000
00000001
00000000
00001000
00000000
00000000
00000000
,
00000100
00000000
00000000
00010000
00001000
00000000
00000000
00000000
01000000
00000000
00100000
00000000
10000000
00000000
00000000
00000000
,
00010000
00000000
00000000
00100000
01000000
00000000
00000000
00000000
01000000
00000000
10000000
00000000
00010000
00000000
01000000
00000000
,
00100000
10000000
00010000
00000000
00100000
00000000
01000000
00000000
,
10000000
00100000
01000000
00000000
00010000
00000000
00100000
00000000
,
00001000
00010000
00000010
00000000
00000100
00000000
00000001
00000000
,
00000010
00000100
00001000
00000000
00000001
00000001
00001000
00001000
,
00000010
00000000
00000100
00000000
00000001
00000010
00001000
00000000
,
00010000
00000000
00000100
00000000
00001000
00000010
00010000
00000000
,
00001000
00000000
01000000
00000000
00010000
00100000
10000000
00000000
,
00100000
00000000
00100000
00000000
00010000
00010000
10000000
10000000
,
01100000
00000000
00000000
10000000
00000000
00000000
00010000
00000000
00000000
01000000
00000000
00000000
10010000
00000000
00000000
00000000
,
00100000
00000000
00000000
01000000
00000000
00000000
00001000
00000000
00000000
00010000
00000000
00000000
00001100
00000000
00000000
00000000
,
00010000
00000000
00000000
00000010
00000000
00000000
00001000
00000000
00000000
00000001
00000000
00000000
00000110
00000000
00000000
00000000
,
00001000
00000000
00000000
00000100
00000000
00000000
00000010
00000000
00000000
00000001
00000000
00000000
00001100
00000000
00000000
00000000
,
00000001
00000000
00000100
00000010
00000100
00000000
00000000
00000000
00001000
00000000
00000000
00000000
00010000
00000000
00000000
00000000
,
00001000
00000000
00010000
01000000
00010000
00000000
00000000
00000000
01000000
00000000
00000000
00000000
10000000
00000000
00000000
00000000
,
00100000
00000000
00010000
00001000
00010000
00000000
00000000
00000000
00001000
00000000
00000000
00000000
00000010
00000000
00000000
00000000
,
00000001
00000000
00000100
00001000
00000100
00000000
00000000
00000000
00001000
00000000
00001000
00000000
00010000
00000000
00010000
00000000
,
00001000
00100000
00010000
00000000
01000000
00010000
00100000
00000000
,
00100000
00001000
00010000
00000000
00000100
00001000
00000010
00000000
,
00000100
00001000
00010000
00000000
01000000
00100000
00010000
00000000
,
01000000
00001000
00010000
00000000
00000010
00000010
00000100
00000100
,
00002002
00000000
00003003
00000110
,
00000001
00000000
00000000
00000100
00000000
00000000
00001000
00000000
00000000
00010000
00000000
00000000
00000010
00000000
00000000
00000000
,
00000100
00000000
00000000
00001000
00000000
00000000
00010000
00000000
00000000
00100000
00000000
00000000
01000000
00000000
00000000
00000000
,
00010000
00000000
00000000
00100000
00000000
00000000
00001000
00000000
00000000
00010000
00000000
00000000
00000100
00000000
00000000
00000000
,
00010000
00000000
00000000
00001000
00000000
00001000
00010000
00000000
00000000
00000000
00001000
00000000
00010000
00000000
00011000
00000000
;

//---------------dance-double - ----------------
#NOTES:
     dance-double:
     :
     Hard:
     8:
     :
00000000
00000000
00000000
00000000
,
00000000
00000000
00000000
00000000
,
00000000
00000000
00000000
00000000
00000000
00000000
00000000
01000000
,
00110000
10000000
00000000
00010000
00000000
00100000
00000000
00001000
,
00000000
00010000
00000000
00000100
00000000
00001000
00000000
00000001
,
00001010
00000100
00000100
00000001
00000001
00000010
00000010
00000100
,
00000100
00000000
00001000
00000000
00001000
00000000
00000002
00002000
00000000
00000000
00000000
00000000
00003003
00000000
00000000
00000000
,
00000001
00000000
00001000
00000100
00000010
00000100
00000000
00001000
00000000
00000001
00000000
00000010
00000100
00000010
00000000
00000001
,
00000000
00000100
00001000
00010000
00001000
00000100
00000000
00001000
00000000
00010000
00000000
00100000
20000000
00000000
00000000
00000000
,
00000000
30010000
01000000
00010000
10000000
01000000
00000000
10000000
00000000
00100000
00000000
10000000
00010000
00100000
00000000
00001000
,
00000000
00010000
00100000
00010000
00001000
00010000
00000000
00001000
00000000
00001100
00000000
00000101
00000000
00000011
00000000
00000010
,
00000000
00000001
00000100
00000010
00000100
00000010
00000000
00001000
00000000
00000100
00000000
00000010
00000002
00000000
00000200
00000000
,
00000303
00000100
00000001
00000010
00000001
00000100
00000000
00000001
00000000
00001000
00000000
00000100
00000010
00000001
00000000
00000100
,
00000000
00001000
00010000
00100000
00010000
00001000
00000000
00100000
00000000
00010000
00000000
00001000
00000000
00000100
00010000
00000000
,
00001000
00000000
01000000
00100000
00000000
00010000
00000000
00001000
00010000
00100000
00000000
10100000
00000000
10010000
00000000
11000000
,
00000000
00000000
00100000
10000000
01000000
10000000
00000000
01000000
00000000
00010000
00000000
01000000
10000000
00100000
00000000
00010000
,
00000000
00001000
00000010
00001000
00010000
00001000
00000000
00000010
00000000
00000001
00000000
00000100
00000002
00000000
00000000
00000000
,
00000003
00001000
00000100
00000001
00000100
00001000
00000000
00000010
00000000
00001000
00000000
00000001
00000100
00001000
00000000
00010000
,
00000000
00001000
00000100
00001000
00010000
00001000
00000000
00010000
00000000
00010010
00000000
00011000
00000000
01001000
00000000
01000000
,
00001000
00000000
00000000
00010000
00000010
00000000
00001000
00000000
00000000
00000100
00000000
00000000
00010100
00000000
00000000
00000000
,
00010000
00000000
00000000
00001000
00100000
00000000
00010000
00000000
00000000
01000000
00000000
00000000
01001000
00000000
00000000
00000000
,
00001000
00000000
00000000
00010000
00000100
00000000
00010000
00000000
00000000
00001000
00000000
00000000
00101000
00000000
00000000
00000000
,
00001000
00000000
00000000
01000000
00010000
00000000
00100000
00000000
00000000
00001000
00000000
00010000
00000000
00000100
00000000
00001010
,
00000000
00000000
00000100
00000001
00000010
00000001
00000000
00001000
00000000
00000010
00000000
00010000
00001000
00010000
00000000
00100000
,
00000000
10000000
01000000
00010000
01000000
10000000
00000000
00010000
00000000
10000000
00000000
01000000
00200000
00000000
00000000
00000000
,
00000000
00310000
00100000
10000000
00100000
00010000
00000000
01000000
00000000
00001000
00000000
00010000
00001000
00010000
00000000
00000100
,
00000000
00001000
00000010
00000001
00000010
00001000
00000000
00000001
00000000
00000011
00000000
00001001
00000000
00001100
00000000
00010100
,
00000000
00000000
00001000
00010000
01000000
00010000
00000000
01000000
00000000
10000000
00000000
00100000
00010000
00001000
00000000
00010000
,
00000000
00001000
00010000
00001000
00000100
00001000
00000000
00000100
00000000
00000001
00000000
00000010
00002000
00000000
00000000
00000000
,
00000000
00013000
00100000
10000000
01000000
00010000
00000000
01000000
00000000
10000000
00000000
00100000
00010000
00001000
00000000
00010000
,
00000000
00001000
00000010
00000001
00000100
00001000
00000000
00000100
00000000
00000101
00000000
00000011
00000000
00001010
00000000
00022000
,
00000000
00000000
00000000
00000000
00000000
00000000
00000000
00033000
00000000
00001010
00000000
00000011
00000000
00000101
00000000
00000000
,
00001010
00000000
00000001
00000000
00000001
00000100
00000010
00001000
00000100
00000010
00000000
00001000
00000000
00000010
00000001
00000100
,
00000000
00000000
00001000
00000000
00001000
00010000
00000010
00000100
00001000
00010000
00000000
00001000
00000000
00010000
01000000
00100000
,
00000000
00000000
00001000
00000000
00001000
00010000
01000000
00100000
00001000
00010000
00000000
00001000
00000000
00010000
00000010
00000100
,
00000000
00000000
00001000
00000000
00001000
00010000
01000000
10000000
00100000
00010000
00000000
00110000
00000000
01100000
00000000
10010000
;
