
//----- song ID: wlae -----//
#TITLE:Walk Like An Egyptian;
#ARTIST:The Bangles;
#BANNER:Walk Like An Egyptian.png;
#BACKGROUND:Walk Like An Egyptian-bg.png;
#CDTITLE:./CDTITLES/DanceDanceRevolution UNIVERSE2.png;
#MUSIC:Walk Like An Egyptian.ogg;
#SAMPLESTART:19.797;
#SAMPLELENGTH:15;
#DISPLAYBPM:206;
#BPMS:0=206.3,20=206.01,36=205.71,52=206.3,68=206.01,84=205.71,100=206.3,116=206.01,132=205.71,148=206.3,164=205.71,180=206.3,212=205.71,228=206.3,244=206.01,276=206.3,292=206.01,308=206.3;
#BGCHANGES:0=Walk Like An Egyptian-bg.png=1=0=0=1,2.5=Walk Like An Egyptian.avi=1=0=0=0;

//---------------dance-single - ----------------
#NOTES:
     dance-single:
     :
     Beginner:
     1:
     :
0000
0000
0000
0000
,
0000
0000
0000
0000
,
0000
0000
0000
0000
,
0000
0000
0000
0000
,
0000
0000
0000
0000
,
1000
0000
0000
0000
,
0001
0000
0000
0000
,
0100
0000
0000
0000
,
0010
0000
0000
0000
,
0001
0000
0000
0000
,
0010
0000
0000
0000
,
0100
0000
0000
0000
,
1000
0000
0000
0000
,
1000
0000
0000
0000
,
0100
0000
0000
0000
,
0010
0000
0000
0000
,
0001
0000
0001
0000
,
0100
0000
0000
0000
,
0001
0000
0000
0000
,
1000
0000
0000
0000
,
0010
0000
0000
0000
,
0010
0000
0000
0000
,
1000
0000
0000
0000
,
0001
0000
0000
0000
,
0100
0000
0000
0000
,
0100
0000
0000
0000
,
0010
0000
0000
0000
,
0110
0000
0000
0000
,
0000
0000
0000
0000
,
1000
0000
0000
0000
,
0001
0000
0000
0000
,
1001
0000
0000
0000
,
0000
0000
0000
0000
,
0100
0000
0000
0000
,
0000
0000
0000
0000
,
0100
0000
0000
0000
,
0000
0000
0000
0000
,
0001
0000
0000
0000
,
0010
0000
0000
0000
,
0100
0000
0000
0000
,
0001
0000
0000
0000
,
1000
0000
0000
0000
,
0100
0000
0000
0000
,
0010
0000
0000
0000
,
1000
0000
0000
0000
,
0001
0000
0000
0000
,
0000
0000
0000
0000
,
1000
0000
0000
0000
,
0000
0000
0000
0000
,
0010
0000
0000
0000
,
0000
0000
0000
0000
,
0100
0000
0000
0000
,
0000
0000
0000
0000
,
0001
0000
0000
0000
,
0010
0000
0000
0000
,
1000
0000
0000
0000
,
0100
0000
0100
0000
,
0010
0000
0000
0000
,
1000
0000
0000
0000
,
0100
0000
0000
0000
,
0001
0000
0001
0000
,
0100
0000
0000
0000
,
1000
0000
0000
0000
,
0001
0000
0000
0000
,
0010
0000
0000
0000
,
0010
0000
0000
0000
,
0001
0000
0000
0000
,
1000
0000
0000
0000
,
0100
0000
0000
0000
,
0010
0000
0010
0000
,
0100
0000
0000
0000
,
1000
0000
1000
0000
,
0001
0000
0000
0000
,
0100
0000
0100
0000
,
0010
0000
0000
0000
,
0001
0000
0001
0000
,
1000
0000
0000
0000
,
1001
0000
0000
0000
,
0000
0000
0000
0000
,
0010
0000
0100
0000
,
1000
0000
0001
0000
,
1001
0000
0000
0000
,
0000
0000
0000
0000
,
0110
0000
0000
0000
,
0000
0000
0000
0000
,
1001
0000
0000
0000
;

//---------------dance-single - ----------------
#NOTES:
     dance-single:
     :
     Easy:
     4:
     :
0000
0000
0000
0000
,
0000
0000
0000
0000
,
0000
0000
0000
0000
,
0000
0000
0000
0000
,
0000
0000
0000
0000
,
2002
0000
0000
0000
,
0000
0000
0000
3003
,
0100
0000
0010
0000
,
0110
0000
0000
0000
,
1000
0000
0001
0000
,
0010
0000
0100
0000
,
0001
0001
0000
0000
,
1000
1000
0000
0000
,
1000
0000
0010
0000
,
0100
0000
0001
0000
,
1001
0000
0000
0000
,
0010
0010
0000
0000
,
1000
0000
0100
0000
,
0010
0000
0001
0000
,
0100
0100
0000
0000
,
0010
0010
0000
0000
,
1000
0000
0001
0000
,
0100
0000
0010
0000
,
1001
0000
0000
0000
,
1000
0001
1000
0000
,
0100
0000
0010
0000
,
0001
0000
1000
0000
,
0020
0000
0230
0000
,
0302
0000
0023
0000
,
0000
0230
0000
0000
,
0000
0000
0000
0000
,
0000
0000
0000
0000
,
0000
0000
0000
0000
,
0300
0000
0000
0000
,
0000
0000
0000
0000
,
1000
0000
0000
0000
,
0000
0000
0000
0000
,
0100
0010
0000
0000
,
1000
0001
0000
0000
,
0001
0100
0000
0000
,
1000
0010
0000
0000
,
0100
0100
0000
0000
,
0010
0010
0000
0000
,
0001
0000
1000
0000
,
1000
0100
0001
0000
,
2002
0000
0000
0000
,
0000
0000
0000
0000
,
0000
0000
0000
0000
,
3003
0000
0000
0000
,
0200
0000
0000
0000
,
0010
0000
0010
0000
,
0302
0000
0000
0000
,
1000
0000
1003
0000
,
0100
0000
0010
0000
,
0001
0000
0100
0000
,
1000
0000
0010
0000
,
0100
0000
0001
0000
,
0100
0000
0010
0000
,
1000
0000
0100
0000
,
0001
0000
0010
0000
,
0100
0000
1000
0000
,
0001
0000
1000
0000
,
1000
0000
0001
0000
,
0100
0000
0001
0000
,
0010
0000
1000
0000
,
1000
0000
0001
0000
,
0001
0000
1000
0000
,
0010
0000
1000
0000
,
0100
0000
0001
0000
,
1001
0000
0001
0000
,
0100
0000
1000
0000
,
0110
0000
0001
0000
,
1000
0000
0010
0000
,
1001
0000
1000
0000
,
1000
0000
0001
0000
,
0110
0000
0001
0000
,
0010
0000
0100
0000
,
1000
0000
0010
0000
,
0100
0000
0001
0000
,
0010
0000
0001
0000
,
1000
0000
0100
0000
,
0010
0010
0000
0000
,
0001
0000
1000
0000
,
0100
0100
0000
0000
,
0001
0000
0010
0000
,
1001
0000
0000
0000
;

//---------------dance-single - ----------------
#NOTES:
     dance-single:
     :
     Medium:
     6:
     :
0000
0000
0000
0000
,
0000
0000
0000
0000
,
0000
0000
0000
0000
,
0000
0000
0000
0000
,
0000
0000
0000
0000
,
1001
0000
1000
0100
0001
0000
0100
0000
,
1000
0010
0100
0001
,
1001
0000
0001
0100
1000
0000
0100
0000
,
0001
0010
0100
1000
,
0010
0000
1000
0100
1000
0000
0001
0000
,
0100
0001
0010
1000
,
0010
0000
0001
0100
0001
0000
1000
0000
,
0100
1000
0010
0001
,
0010
0100
0001
1000
,
0010
0100
0010
0000
1000
0000
0001
0000
,
0100
0010
1000
0001
,
1000
0100
1000
0000
0010
0000
0101
0000
,
0001
0100
1000
0100
,
0010
0100
0001
0100
,
1000
0100
0001
0010
,
1000
0010
0100
0010
,
1000
0010
0001
0010
,
0100
0010
1000
0010
,
0001
0010
1000
0100
,
0001
0000
0100
0000
0010
0001
1000
0000
,
0010
0000
0100
0010
0001
0000
0010
0000
,
1000
0000
0100
1000
0010
0000
0100
0000
,
0001
0000
1000
0001
0100
0000
0010
0100
,
0001
0000
0100
0010
1000
0000
0100
0010
,
0000
2000
0000
3010
,
0100
1000
0100
0001
,
0010
1000
0010
0100
,
0001
0100
0020
0000
,
1030
0000
0000
0000
,
0000
0000
0000
0000
,
0001
0000
0000
0000
,
0000
0000
0000
0000
,
0001
0010
0100
1100
,
0010
0100
0010
0011
,
0001
0010
0100
1100
,
0010
0100
0001
1010
,
1000
0100
0010
0011
,
0100
0010
0100
1100
,
1000
0100
0010
0011
,
0100
0010
1000
0101
,
0001
0000
0100
0000
,
0010
0000
1000
0000
,
0001
0000
1000
0000
,
0010
0000
0100
0000
,
0011
0000
0000
0000
,
0110
0000
0000
0000
,
1100
0000
0000
0000
,
1010
0000
0000
0000
,
0100
0001
0100
0101
,
0010
1000
0010
1010
,
0010
0001
1000
1010
,
0100
1000
0001
0101
,
0010
1000
0100
1010
,
0100
0001
0010
0101
,
0001
1000
0010
0101
,
1000
0001
0100
1010
,
0010
0001
0010
0000
0100
0000
0011
0000
,
0100
1000
0100
0000
0010
0000
1100
0000
,
1000
0001
1000
0000
0010
0000
1100
0000
,
0001
1000
0001
0000
0100
0000
0011
0000
,
0000
0000
0000
0000
,
0000
0000
0000
0000
,
0000
0000
0000
0000
,
0000
0000
0000
0000
,
0010
0001
0010
0000
0100
0000
0011
0000
,
0100
1000
0100
0000
0010
0000
1100
0000
,
1000
0001
1000
0000
0010
0000
1100
0000
,
0001
1000
0001
0000
0100
0000
0011
0000
,
0100
1000
0100
0000
0010
0000
1100
0000
,
0010
0001
0010
0000
0100
0000
0011
0000
,
0001
1000
0001
0000
0100
0000
0011
0000
,
0110
1100
0011
1100
,
1000
0000
0100
0010
0001
0000
0100
0000
,
0010
0000
1000
0100
0001
0000
0001
0100
,
1000
0010
1100
0010
,
0101
0010
1001
0010
,
0000
0000
0110
0000
1000
0000
0010
1000
,
0100
0010
0001
1000
,
0001
0000
0100
0001
0100
0000
1000
0010
,
1000
0000
0100
0000
0010
0001
0010
0000
,
0110
0000
0000
0000
;

//---------------dance-single - ----------------
#NOTES:
     dance-single:
     :
     Hard:
     8:
     :
0000
0000
0000
0000
,
0000
0000
0000
0000
,
0000
0000
0000
0000
,
0000
0000
0000
0000
,
0000
0000
0000
0000
,
0010
0000
1000
0010
0100
0010
0000
0100
,
0000
0001
0000
1000
0100
0000
0010
0000
,
0100
0000
0001
0010
0100
0010
0000
1001
,
0000
0000
0100
0100
,
0001
0010
1000
0010
,
0100
0000
0001
0100
0000
0100
0001
0000
,
0010
0000
1000
0100
0000
0100
1000
0000
,
0001
0000
1000
0010
0000
0010
1000
0000
,
0001
0100
0010
0001
,
1000
0000
0010
0100
0000
0100
0010
0000
,
1000
0001
1000
0010
,
0001
0000
0010
0100
0000
0100
0010
0000
,
1000
0100
0001
0100
,
1000
0000
0010
0001
0000
0001
0010
0000
,
0100
0000
1000
0001
0000
0001
1000
0000
,
0001
0000
0010
1000
0000
1000
0010
0000
,
1000
0100
0010
0001
,
0100
0000
0001
1000
0000
1000
0001
0000
,
0100
0010
1000
0100
,
0010
0000
0100
1000
0000
1000
0100
0000
,
1000
0000
0100
1000
0010
0000
0100
0001
,
0010
0000
0100
1000
0010
0000
1001
0000
,
0001
0000
1000
0100
0001
0000
1000
0000
,
0010
0000
0001
0100
1000
0000
0001
0000
,
0010
1100
0010
0101
,
1000
1010
0010
0011
,
1100
0101
1100
0101
,
1000
0000
0001
0100
0000
0100
0001
0000
,
1000
0100
0001
0100
,
1000
0001
0100
1000
,
0110
1000
0000
0100
,
0000
0100
0000
0100
,
0001
0100
0010
1000
0000
0100
0100
0000
,
1000
0100
0010
0001
0000
0100
0100
0000
,
0010
0000
0100
0001
0000
0001
0100
0000
,
1000
0000
0100
0010
0000
0010
0100
0000
,
1000
0001
1000
0001
0000
0010
0100
0000
,
0001
1000
0001
1000
0000
0100
0010
0000
,
1000
0100
1000
0010
0000
0100
0010
0000
,
0001
0010
0001
0100
0000
0010
0100
0000
,
1000
0010
0100
0001
,
0010
0000
0000
0001
0000
1000
0000
0000
,
0100
0000
0010
1000
0000
1000
0010
0000
,
0100
0000
0001
0010
0000
0010
0001
0000
,
0001
0100
0010
1000
,
0100
0000
0000
1000
0000
0001
0000
0000
,
0010
0000
0100
0001
0000
0001
0100
0000
,
0010
0000
1000
0100
0000
0100
1000
0000
,
0010
0001
0010
0000
0100
0000
1000
0000
,
0010
1000
0001
0010
,
0100
0000
0010
0001
0000
0001
0010
0000
,
0100
0000
1000
0001
0000
0001
1000
0000
,
0010
1000
0010
0000
0100
0000
0001
0000
,
1000
0100
0001
0010
,
0100
1000
0010
1000
,
0001
0000
0010
0001
0000
0001
0100
0010
,
1000
0000
0001
0000
0100
1000
0100
0000
,
0010
0000
0100
0001
0000
0001
0100
0000
,
0010
0000
0100
1000
0000
1000
0100
0000
,
1000
0000
0100
0001
0000
0001
0100
0000
,
0010
0000
0100
0000
0001
0100
0001
0000
,
1000
0000
0010
1000
0000
1000
0010
0000
,
0100
0000
1000
0001
0000
0001
1000
0000
,
0010
0000
0100
0000
1000
0001
1000
0000
,
0001
0100
0010
1000
,
0010
0001
0010
1000
,
0001
0000
0010
0100
0000
0100
0010
0000
,
1000
0000
0001
0100
0000
0100
0001
0000
,
1000
0001
0100
1000
,
0010
0000
1000
0001
0000
0001
1000
0000
,
0010
0100
0001
0010
,
0100
0000
1000
0000
1000
0100
0010
0001
,
1000
0000
0010
0001
0100
0000
0010
1000
,
0100
0000
0010
0001
0100
0000
1001
0000
,
1000
0000
0001
0010
1000
0000
0001
0000
,
0100
0000
1000
0010
0001
0000
1000
0000
,
0100
0011
0100
1010
,
0001
0101
0100
1100
,
0011
1010
0011
1010
,
0001
0000
1000
0010
0000
0010
1000
0000
,
0001
0010
1000
0010
,
0001
1000
0010
0001
,
0100
0000
0000
0000
;

//---------------dance-double - ----------------
#NOTES:
     dance-double:
     :
     Beginner:
     1:
     :
00000000
00000000
00000000
00000000
,
00000000
00000000
00000000
00000000
,
00000000
00000000
00000000
00000000
,
00000000
00000000
00000000
00000000
,
00000000
00000000
00000000
00000000
,
10000000
00000000
00000000
00000000
,
00100000
00000000
00000000
00000000
,
00010000
00000000
00000000
00000000
,
00001000
00000000
00000000
00000000
,
00000100
00000000
00000000
00000000
,
00000010
00000000
00000000
00000000
,
00000001
00000000
00000000
00000000
,
00000010
00000000
00000000
00000000
,
00001000
00000000
00000000
00000000
,
00010000
00000000
00000000
00000000
,
00100000
00000000
00000000
00000000
,
10000000
00000000
00000000
00000000
,
01000000
00000000
00000000
00000000
,
00100000
00000000
00000000
00000000
,
00010000
00000000
00000000
00000000
,
00001000
00000000
00000000
00000000
,
00000100
00000000
00000000
00000000
,
00000001
00000000
00000000
00000000
,
00001001
00000000
00000000
00000000
,
00001001
00000000
00000000
00000000
,
00000100
00000000
00000000
00000000
,
00010000
00000000
00000000
00000000
,
00001000
00000000
00000000
00000000
,
00100000
00000000
00000000
00000000
,
00010000
00000000
00000000
00000000
,
10000000
00000000
00000000
00000000
,
10010000
00000000
00000000
00000000
,
00000000
00000000
00000000
00000000
,
00100000
00000000
00000000
00000000
,
00000000
00000000
00000000
00000000
,
00001000
00000000
00000000
00000000
,
00000000
00000000
00000000
00000000
,
00000100
00000000
00000000
00000000
,
00000001
00000000
00000000
00000000
,
00000100
00000000
00000000
00000000
,
00001000
00000000
00001000
00000000
,
00010000
00000000
00000000
00000000
,
00100000
00000000
00000000
00000000
,
10000000
00000000
00000000
00000000
,
01000000
00000000
01000000
00000000
,
00010000
00000000
00000000
00000000
,
00000000
00000000
00000000
00000000
,
00001000
00000000
00000000
00000000
,
00000000
00000000
00000000
00000000
,
00000100
00000000
00000000
00000000
,
00000000
00000000
00000000
00000000
,
00000010
00000000
00000000
00000000
,
00000000
00000000
00000000
00000000
,
00000100
00000000
00000001
00000000
,
00000001
00000000
00000000
00000000
,
00001000
00000000
00001000
00000000
,
00000100
00000000
00000000
00000000
,
00010000
00000000
00010000
00000000
,
00001000
00000000
00000000
00000000
,
01000000
00000000
00010000
00000000
,
00010000
00000000
00000000
00000000
,
00100000
00000000
00000000
00000000
,
01000000
00000000
00000000
00000000
,
10000000
00000000
00000000
00000000
,
00100000
00000000
00000000
00000000
,
00010000
00000000
00000000
00000000
,
00001000
00000000
00000000
00000000
,
00000100
00000000
00000000
00000000
,
00000010
00000000
00000000
00000000
,
00000001
00000000
00000001
00000000
,
00000100
00000000
00000000
00000000
,
00001000
00000000
00000000
00000000
,
00010000
00000000
00000000
00000000
,
01000000
00000000
01000000
00000000
,
10000000
00000000
00000000
00000000
,
00100000
00000000
00000000
00000000
,
00010000
00000000
00000000
00000000
,
00001000
00000000
00000000
00000000
,
00010000
00000000
00000000
00000000
,
00000010
00000000
00000100
00000000
,
00000001
00000000
00001000
00000000
,
00001001
00000000
00000000
00000000
,
00000000
00000000
00000000
00000000
,
00011000
00000000
00000000
00000000
,
00000000
00000000
00000000
00000000
,
10010000
00000000
00000000
00000000
;

//---------------dance-double - ----------------
#NOTES:
     dance-double:
     :
     Easy:
     4:
     :
00000000
00000000
00000000
00000000
,
00000000
00000000
00000000
00000000
,
00000000
00000000
00000000
00000000
,
00000000
00000000
00000000
00000000
,
00000000
00000000
00000000
00000000
,
00000001
00000000
00000100
00000000
,
00001000
00000000
00010000
00000000
,
00100000
00000000
10000000
00000000
,
00100000
00000000
10000000
00100000
,
00001000
00000000
00000010
00000000
,
00000100
00000000
00000001
00000010
,
00001000
00000000
00010000
00000000
,
01000000
00000000
10000000
00100000
,
01000000
00000000
00001000
00000000
,
00010000
00001000
00000010
00000000
,
00000001
00000000
00000100
00000000
,
00000010
00000000
00010000
00000000
,
00001000
00000000
01000000
00000000
,
00100000
00000000
10000000
00100000
,
01000000
00000000
00001000
00000000
,
00010000
00000000
00000010
00000100
,
00000001
00000000
00000010
00000000
,
00001000
00000000
00010000
00000000
,
00011000
00000000
00100000
00000000
,
10000000
10000000
10000000
00000000
,
01000000
00100000
00010000
00000000
,
00001000
00000000
00010000
00000000
,
00011000
00000000
00000110
00000000
,
00001001
00000000
00000110
00000000
,
00000000
00022000
00000000
00000000
,
00000000
00000000
00000000
00000000
,
00000000
00000000
00000000
00000000
,
00000000
00000000
00000000
00000000
,
00033000
00000000
00000000
00000000
,
00000000
00000000
00000000
00000000
,
00000000
00000000
00000000
00000000
,
00100000
00000000
00000000
00000000
,
10000000
00000000
01000000
00000000
,
00010000
00000000
00001000
00000000
,
00100000
00001000
00000100
00000000
,
00000001
00000010
00000100
00000000
,
00000001
00000000
00000100
00000000
,
00001000
00000000
00010000
00000000
,
00000010
00010000
01000000
00000000
,
10000000
00100000
01000000
00000000
,
20020000
00000000
00000000
00000000
,
00000000
00000000
00000000
00000000
,
00000000
00000000
00000000
00000000
,
30030000
00000000
00000000
00000000
,
00000000
01000000
00000000
00100000
,
00000000
00010000
00000000
00001000
,
00000000
00000010
00000000
00000001
,
00000000
00001000
00000000
00000100
,
00000000
00001001
00000000
00000010
,
00000000
00010000
00000000
00100000
,
00000000
01100000
00000000
10000000
,
00000000
01000000
00000000
00010000
,
00000000
00011000
00000000
00000100
,
00000000
00000010
00000000
00000001
,
00000000
00000100
00000000
00001000
,
00000100
00000000
00010000
00000000
,
00001000
00000000
01000000
00000000
,
00010000
00000000
10000000
00000000
,
01000000
00000000
00100000
00000000
,
00100000
00000000
00001000
00000000
,
00010000
00000000
00000010
00000000
,
00001000
00000000
00000001
00000000
,
00000110
00000000
00010000
00000000
,
00001000
00000000
01000000
00000000
,
10000000
00000000
01000000
00000000
,
00010000
00000000
00001000
00000000
,
00000110
00000000
00000001
00000000
,
00000100
00000000
00000010
00000010
,
00000001
00000000
00000010
00000000
,
00001000
00000000
00010000
00000000
,
01100000
00000000
10000000
00000000
,
00100000
00000000
01000000
01000000
,
00001000
00000000
00010000
00000000
,
00000100
00000000
00001000
00001000
,
00000002
00000000
00000203
00000000
,
00000320
00000000
00020030
00000000
,
00030000
01100000
00000000
00000000
,
00010000
00000000
10000000
00000000
,
00100000
00000000
00010000
00000000
,
00001000
00000000
00000010
00000000
,
00000110
00000000
00000000
00000000
;

//---------------dance-double - ----------------
#NOTES:
     dance-double:
     :
     Medium:
     7:
     :
00000000
00000000
00000000
00000000
,
00000000
00000000
00000000
00000000
,
00000000
00000000
00000000
00000000
,
00000000
00000000
00000000
00000000
,
00000000
00000000
00000000
00000000
,
10010000
00000000
01000000
00010000
00001000
00000000
00100000
00000000
,
00001000
00010000
00000100
00001000
,
00011000
00000000
00010000
00001000
00000100
00000000
00000001
00000000
,
00000010
00000100
00001000
00000001
,
00000110
00000000
00000100
00001000
00010000
00000000
00001000
00000000
,
00100000
00010000
00100000
10000000
,
00100000
00000000
00001000
01000000
00001000
00000000
00010000
00000000
,
00001000
00000100
00000001
00000010
,
00000100
00010000
00001000
00010000
,
01000000
00100000
00010000
00000000
10000000
00000000
00010000
00000000
,
01000000
00100000
00010000
00001000
,
00010000
00001000
00000100
00000000
00000010
00000000
00000100
00000001
,
00000010
00000100
00010000
00001000
,
00100000
01000000
10000000
01000000
,
00100000
00001000
00010000
00000100
,
00000010
00000001
00000110
00000101
,
00000100
00001000
00010000
00001000
,
01000000
00100000
10000000
00100000
,
00010000
00100000
10000000
01000000
,
00010000
00000000
00001000
00000010
00000100
00000000
00000110
00000000
,
00000010
00000001
00001000
00000100
,
00010000
00001000
00100000
01000000
,
10000000
00000000
00100000
10000000
01000000
00000000
00100000
00001000
,
00010000
00000000
00000100
00010000
00000010
00000000
00001000
00000001
,
00000010
00000200
00000000
00000000
,
00010300
00100000
10000000
01000000
,
00010000
01000000
00100000
00001000
,
00010000
00000100
00000020
00000000
,
00000031
00000000
00000100
00000000
,
00000010
00000000
00001000
00000000
,
00010000
00000000
01000000
00000000
,
01100000
00000000
10000000
00000000
,
01000000
00100000
00010000
00101000
,
00000100
00001000
00000010
00001000
,
00000001
00000100
00000001
00000101
,
00000010
00000100
00010000
00011000
,
00100000
01000000
10000000
00110000
,
01000000
00100000
01000000
11000000
,
01000000
00100000
00001000
00011000
,
00000010
00001000
00000100
00000011
,
00000010
00000000
00000100
00000000
,
00001000
00000000
00010000
00000000
,
01000000
00000000
00100000
00000000
,
10000000
00000000
01000000
00000000
,
00101000
00010000
00001000
00000000
,
00010100
00001000
00010000
00000000
,
00001100
00000000
00001001
00000000
,
00000011
00000000
00000000
00000000
00000000
00000100
00001000
00000000
,
00000010
00010000
00000100
00001100
,
00100000
00001000
01000000
01010000
,
00100000
00010000
10000000
10100000
,
01100000
00000000
01010000
00000000
00100000
10000000
01000000
00000000
,
00100000
00001000
00010000
00011000
,
00000100
00001000
00000010
00000110
,
00001000
00000001
00000100
00000011
,
00000010
00001000
00010000
00000000
00001000
00000000
01010000
00000000
,
00100000
10000000
01000000
00110000
,
00001000
00010000
00000010
00001010
,
00000100
00000001
00000010
00000101
,
00000001
00000100
00001000
00000000
00010000
00000000
00011000
00000000
,
00100000
00010000
10000000
01100000
,
00001000
00010000
00000010
00000110
,
00000100
00000001
00000010
00001100
,
00001000
00000100
00010000
00000000
00001000
00000000
00011000
00000000
,
00010000
00100000
00010000
00000000
10000000
00000000
01100000
00000000
,
00100000
10000000
00100000
00000000
01000000
00000000
01010000
00000000
,
00010000
01000000
00001000
00000000
00010000
00000000
00001010
00000000
,
00000001
00000100
00000001
00000000
00000010
00000000
00001100
00000000
,
00001000
00000100
00010000
00000000
00001000
00000000
00110000
00000000
,
01000000
10000000
00100000
00000000
01000000
00000000
01010000
00000000
,
00010000
10000000
00010000
00000000
01000000
00000000
00110000
00000000
,
00101000
00011000
00010100
00001100
,
00000010
00000000
00000001
00000100
00000010
00000000
00001000
00000000
,
00000010
00000000
00000100
00001000
00010000
00000000
00001000
00000000
,
00010000
00000000
01000000
10000000
00100000
00000000
01010000
00000000
,
00011000
00001000
00011000
00010000
,
00000010
00000000
00001010
00000000
00000100
00000000
00000001
00000010
,
00000100
00010000
00001000
01000000
,
00010000
00000000
00100000
00010000
00100000
00000000
01000000
10000000
,
01000000
00000000
00100000
00001000
00010000
00000000
00001000
00000000
,
00022000
00000000
00000000
00000000
,
00000000
00000000
00000000
00000000
,
00033000
00000000
00000000
00000000
;

//---------------dance-double - ----------------
#NOTES:
     dance-double:
     :
     Hard:
     8:
     :
00000000
00000000
00000000
00000000
,
00000000
00000000
00000000
00000000
,
00000000
00000000
00000000
00000000
,
00000000
00000000
00000000
00000000
,
00000000
00000000
00000000
00000000
,
00001001
00000000
00000001
00000010
00000100
00001000
00000000
00000100
,
00000000
00010000
00000000
00001000
00010000
00000000
00100000
00000000
,
01000000
00000000
00100000
10000000
00100000
10000000
00000000
00020000
,
00000000
00000000
00000000
00030000
,
00000000
01000000
00010000
00000000
10000000
00000000
00100000
00000000
,
01000000
00000000
00000000
00001000
00000000
00100000
00000000
00000000
,
00001000
00000000
00010000
00000010
00000000
00000010
00001000
00000000
,
00000001
00000000
00000100
00000001
00000000
00000001
00000100
00000000
,
00001001
00000000
00000010
00000100
00001000
00000000
00000100
00000000
,
00010000
00000000
00001000
00020000
00000000
00000000
02030000
00000000
,
13000000
00000000
10000000
00100000
00000000
00100000
10000000
00000000
,
00100000
00000000
01000000
00010000
01000000
00010000
01000000
00000000
,
00001000
00000000
00010000
00001000
00000100
00000000
00000001
00000000
,
00000010
00000000
00000001
00000010
00000000
00000100
00001000
00000000
,
00000100
00000000
00010000
00001000
00000000
00001000
00100000
00000000
,
00001000
00000000
01000000
00010000
01000000
00010000
10000000
00000000
,
10000000
00000000
01000000
00100000
00010000
00000000
01000000
00000000
,
00001000
00000000
00010000
00001000
00010000
00000010
00010000
00000000
,
00000010
00000000
00000100
00000001
00000000
00000010
00001000
00000000
,
00000010
00000000
00001000
00000100
00000010
00000100
00001000
00000000
,
00000001
00000000
00000100
00001000
00010000
00000000
00001000
00000000
,
00010000
00000000
00100000
01000000
00010000
10000000
00100000
00000000
,
01000000
00100000
00010000
00000000
00100000
00010000
00001000
00000000
,
00010000
00001000
00000100
00000000
00001000
00000100
00000001
00000000
,
00000010
00000001
00000100
00000000
00000110
00000000
00001100
00000000
,
00010000
00001000
00100000
00000000
01100000
00000000
11000000
00000000
,
00100000
00010000
10000000
00000000
00100000
01000000
00010000
00000000
,
00010000
00100000
00001000
00010000
00000010
00001000
00000001
00000100
,
00000101
00000010
00000000
00001000
,
00000000
00000010
00000000
00010000
,
00000000
00001000
00000000
01000000
,
00000000
00000000
00010000
00000000
01000000
00100000
10000000
00010000
,
00100000
00000000
00010000
01000000
10000000
00000000
01000000
00000000
,
00010000
00000000
00100000
00001000
00000000
00001000
00010000
00000000
,
00000010
00000000
00001000
00000100
00000001
00000000
00000100
00000000
,
00001000
00000000
00000010
00010000
00000100
00010000
00001000
00000000
,
00100000
00000000
01000000
10000000
00010000
00000000
00010000
00000000
,
00100000
00000000
01000000
00010000
00001000
00010000
00001000
00000000
,
00010000
00000000
00001000
00000010
00000100
00000010
00000001
00000000
,
00001000
00000000
00000001
00000100
00000010
00000100
00000001
00000000
,
00000010
00000100
00001000
00000001
,
00000100
00001000
00010000
00001000
,
00000010
00001000
00010000
01000000
,
10000000
00000000
00010000
10000000
00000000
10000000
00100000
00000000
,
02000000
00010000
00100000
00010000
,
03002000
00010000
01000000
00010000
,
00023000
00000010
00001000
00000010
,
00030020
00001000
00000100
00000031
,
00000100
00000101
00000010
00001010
,
00010000
00010100
00001000
01001000
,
00100000
00101000
00010000
01010000
,
10100000
00000000
10000000
01000000
00000000
00010000
00100000
00000000
,
00100000
00000000
10000000
00020000
01000000
00000000
01030000
00000000
,
00001000
00000000
00100000
00002000
00010000
00000000
00013000
00000000
,
00000010
00000000
00010000
00000200
00001000
00000000
00001300
00000000
,
00000001
00000010
00000100
00001000
00000010
00000000
00000101
00000000
,
00000010
00000000
00001000
00000100
00000000
00001000
00010000
00000000
,
00001000
00000000
00010000
00001000
00000000
00010000
00100000
00000000
,
01000000
00000000
10000000
01000000
00000000
10000000
00100000
00000000
,
00100000
01000000
00010000
10000000
00100000
00000000
01010000
00000000
,
00001000
00000000
00100000
00001000
00000000
00010000
00000010
00000000
,
00000010
00000000
00000100
00000001
00000000
00000010
00000001
00000000
,
00000100
00000000
00000010
00010000
00000000
00001000
00010000
00000000
,
00100000
00000000
00001000
01000000
00000000
00100000
00010000
00000000
,
10000000
00000000
00100000
01000000
00000000
01000000
00001000
00000000
,
00010000
00000000
00001000
00010000
00000100
00010000
00000010
00000000
,
00000100
00000000
00000001
00000100
00000000
00001000
00000010
00000000
,
00001000
00000000
00000100
00010000
00000010
00010000
00001000
00000000
,
00100000
00000000
00010000
01000000
01010000
00000000
10100000
00000000
,
10010000
00000000
01000000
20000000
00000000
30200000
00000000
00000000
,
02300000
00000000
03001000
00010000
00000000
00010000
00001000
00000000
,
00000100
00000000
00000001
00000010
00001000
00000010
00000001
00000000
,
00000100
00000000
00000001
00000100
00001000
00000000
00010000
00000000
,
00001000
00000000
00100000
01000000
00100000
10000000
00100000
00000000
,
00010000
00000000
10000000
01000000
00010000
00000000
00001000
00000000
,
00000100
00000000
00000010
00000001
00000010
00000100
00000010
00000000
,
00001000
00000000
00000010
00001000
00000000
00001000
00010000
00000000
,
00100000
00000000
00010000
01000000
00000000
10000000
00100000
00000000
,
10000000
00100000
01000000
00000000
00100000
00010000
00001000
00000000
,
00010000
00001000
00000010
00000100
00001000
00000001
00000100
00000001
,
00000022
00000000
00000000
00000000
,
00000000
00000000
00000000
00000000
,
00000033
00000000
00000000
00000000
;
