
//----- song ID: tway -----//
#TITLE:The Way You Move;
#ARTIST:Outkast;
#BANNER:The Way You Move.png;
#BACKGROUND:The Way You Move-bg.png;
#CDTITLE:./CDTITLES/DanceDanceRevolution UNIVERSE2.png;
#MUSIC:The Way You Move.ogg;
#SAMPLESTART:36.19;
#SAMPLELENGTH:15;
#BPMS:0=126;

//---------------dance-single - ----------------
#NOTES:
     dance-single:
     :
     Beginner:
     1:
     :
0000
0000
0000
0000
,
0000
0000
0000
0000
,
0000
0000
0000
0000
,
0010
0000
0000
0000
,
0100
0000
0000
0000
,
1000
0000
0000
0000
,
0001
0000
0000
0000
,
0100
0100
0000
0000
,
0001
0001
0000
0000
,
1000
1000
0000
0000
,
0100
0100
0000
0000
,
0010
0000
0000
0000
,
0001
0000
0000
0000
,
1000
0000
0000
0000
,
0100
0000
0000
0000
,
1001
0000
0000
0000
,
1000
0000
0000
0000
,
1001
0000
0000
0000
,
0001
0000
0000
0000
,
0010
0010
0010
0000
,
0010
0000
0000
0000
,
0100
0100
0100
0000
,
0100
0000
0000
0000
,
1000
1000
1000
0000
,
1000
0000
0000
0000
,
0001
0001
0000
0000
,
1000
1000
0000
0000
,
0100
0000
0000
0000
,
1000
0000
0000
0000
,
0001
0000
0000
0000
,
0010
0000
0000
0000
,
0001
0001
0000
0000
,
1000
1000
0000
0000
,
0100
0100
0000
0000
,
0010
0010
0000
0000
,
0001
0000
0000
1000
,
0000
0000
0000
0000
,
1001
0000
0000
0000
,
0001
0000
0000
0000
,
0100
0000
0000
0000
,
0010
0000
0000
0000
,
1000
0000
0000
0000
,
0001
0000
0000
0000
,
0010
0010
0010
0000
,
0010
0000
0000
0000
,
0100
0100
0100
0000
,
0100
0000
0000
0000
,
1000
1000
1000
0000
,
1000
0000
0000
0000
,
0001
0001
0000
0000
,
1000
1000
0000
1001
;

//---------------dance-single - ----------------
#NOTES:
     dance-single:
     :
     Easy:
     3:
     :
0000
0000
0000
0000
,
0000
0000
0000
0000
,
0000
0000
0000
0000
,
1001
0000
0100
0010
,
1000
0000
0001
0100
,
0010
0000
1000
0100
,
0001
0100
1001
0000
,
1000
0100
0010
0001
,
0110
1001
0000
0110
,
0001
0100
0010
1000
,
0100
0010
1001
0000
,
0001
0010
0100
1001
,
0100
1001
0010
0100
,
1001
0001
0100
0010
,
0001
0010
0100
0001
,
1000
0001
1001
0110
,
0100
1000
0001
0100
,
0001
1000
1001
0110
,
0010
0001
1000
0110
,
0010
0000
1000
0000
,
0100
1000
0010
1001
,
0010
0000
0001
0000
,
0100
0001
0010
1001
,
1000
0000
0010
0000
,
0001
0010
1000
0100
,
0001
0000
0100
0000
,
1000
0000
0010
0000
,
1001
0000
0010
0100
,
0001
1000
0000
0110
,
0010
0000
1000
0100
,
0001
0100
1000
0001
,
0010
0000
0100
0000
,
1000
0000
0001
0000
,
0100
0000
0010
0000
,
1000
0000
0001
0000
,
1001
0010
0000
0100
,
0000
0001
0000
1000
,
0000
0100
0000
0010
,
0001
1000
0100
1001
,
2000
0010
0001
3100
,
0010
1000
0001
0100
,
0002
0010
1000
0103
,
2002
0000
3003
1001
,
0100
0000
0001
0000
,
0010
0001
0100
1001
,
0100
0000
1000
0000
,
0010
1000
0100
1001
,
0001
0000
0100
0000
,
1000
0100
0001
0010
,
1000
0001
0100
0010
,
0001
1000
0010
1001
;

//---------------dance-single - ----------------
#NOTES:
     dance-single:
     :
     Medium:
     7:
     :
0000
0000
0000
0000
,
0000
0000
0000
0000
,
0000
0000
0000
0000
,
1001
0000
0100
0010
0002
0000
2003
0000
,
3100
0000
0010
0001
0100
0010
0100
0001
,
1001
0000
0100
0010
2000
0000
3002
0000
,
0103
0000
0010
1000
0101
0000
1010
0000
,
0110
0000
0001
0000
1000
0100
0010
0000
,
0110
0110
1001
0000
0100
0001
1000
0001
,
1001
0000
0010
1000
0200
0000
2300
0000
,
3001
0000
0010
0001
0100
0202
0303
0000
,
1000
0010
0001
0000
0010
1000
0001
0000
,
0100
0010
0001
0000
0010
1000
0100
0001
,
0100
0110
0011
1001
,
1100
0110
1001
0110
,
1001
1001
1001
1001
0110
0110
0110
0000
,
0001
0100
1000
0100
0001
1000
1001
0000
,
0110
0110
0110
0110
1001
1001
1001
0000
,
1000
0001
0100
0010
1000
0001
1001
0000
,
0010
0001
0100
0020
0000
0000
0130
0001
,
0010
0000
1001
0001
1000
0000
0110
0000
,
0010
1000
0100
0020
0000
0000
0130
1000
,
0010
0000
1001
1000
0001
0000
0110
0000
,
1000
0100
0010
0002
0000
0000
1003
0010
,
0100
0000
1001
0100
0010
0000
1001
0000
,
0010
1000
0100
1000
0000
0010
0001
0000
,
0010
0001
0100
0001
0000
0010
1000
0002
,
0000
0003
0000
1000
0000
0001
0000
0010
,
0000
0100
1000
0001
0000
0100
0000
0001
,
0000
1000
0000
0010
0000
1000
0000
0100
,
0000
0001
0100
1000
0000
0010
0000
0101
,
0000
0011
0000
1001
0000
0100
0010
0000
,
0001
1000
0000
1001
0000
0100
0010
0000
,
1001
0000
0010
0100
0000
0001
1000
0000
,
0110
0000
1000
0001
0000
0100
0010
0000
,
1000
0001
0000
1001
0000
0101
0000
0011
,
0000
1100
0000
1010
0000
1001
0000
1000
,
0000
0100
2002
0000
0000
3003
0000
0110
,
0000
2002
0000
3003
0000
1000
0001
0100
,
0000
0001
0000
0010
0000
0001
1000
0010
,
0000
1000
0000
0100
0000
0010
1001
0000
,
1000
0100
0001
0000
1000
0010
0001
0000
,
1010
0000
0000
0101
0000
0000
1001
0000
,
0100
1000
0010
0200
0000
0000
0310
1000
,
0100
0010
1001
0000
0001
1000
0110
0000
,
0100
0001
0010
0200
0000
0000
0310
0001
,
0100
0010
1001
0000
1000
0001
0110
0000
,
0001
0010
0100
2000
0000
0000
3001
0100
,
0010
1000
0101
0000
0001
0100
0010
1000
,
0001
0010
0011
0000
1000
0100
1100
0000
,
0101
0101
0110
0110
1010
1010
1001
0000
;

//---------------dance-single - ----------------
#NOTES:
     dance-single:
     :
     Hard:
     9:
     :
0000
0000
0000
0000
,
0000
0000
0000
0000
,
0000
0000
0000
0000
,
0000
0010
1000
0100
0010
0000
0100
0010
0001
0100
0010
0100
0000
0001
1000
0010
,
1000
0001
0000
0100
0000
0010
0000
1000
0000
0001
0010
1000
0002
0000
0000
2003
,
0000
0000
3001
0000
0100
0000
1000
0000
0010
0000
0100
0001
0000
1000
0100
0010
,
0001
1000
0010
0100
0001
1000
0100
0010
0002
0000
0000
0103
0000
1000
0100
0001
,
1000
0100
0001
0000
0100
0000
0010
0000
0001
1000
0010
0000
0001
0000
0010
0000
,
1001
0000
1001
0000
0110
0000
1000
0000
0001
0100
1000
0000
0001
0000
0010
0000
,
0000
0000
0100
0010
0001
0010
1000
0100
0010
1000
0010
0100
0000
0010
0001
0100
,
0001
1000
0010
1000
0100
1000
0001
1000
0000
0000
1001
0000
0000
0000
0000
1000
,
0010
0100
0010
1000
0001
1000
0010
0100
0001
0000
0010
0000
0001
0000
0100
0000
,
1000
0000
0100
0000
0010
0000
1000
0100
0001
0100
1000
0010
0001
0000
0010
0000
,
1001
0000
0000
0000
0000
0000
0000
0000
1001
0000
0000
0000
0000
0000
0000
0000
0010
0000
0000
0000
1000
0000
0000
0000
0100
0000
0000
0000
0000
0000
0000
0000
0010
0000
0000
0000
0000
0001
0000
0000
0000
0000
0000
0100
0000
0000
0000
0000
1000
0000
0000
0000
0000
0000
0000
0000
0100
0000
0000
0000
0010
0000
0000
0000
,
0100
0000
0001
0010
0100
0010
1000
0010
0000
0001
1000
0001
0000
0000
0010
0001
,
1000
0000
0100
0000
1000
0001
0010
0000
0100
0000
0010
0000
1001
0000
0010
1000
,
0100
0000
0001
0000
0100
0000
1000
0000
0010
0000
0100
0000
1001
0000
1000
0001
,
0010
0000
0100
0000
0010
0001
1000
0000
0010
0000
0100
0000
1001
0000
0010
0001
,
0100
1000
0100
0001
0010
0100
1001
0000
,
0010
1000
0100
0002
0000
0000
1003
0010
,
0001
0000
1000
0001
0110
0000
1001
0000
,
0010
0001
0100
2000
0000
0000
3001
0010
,
1000
0000
0001
1000
0110
0000
1001
0000
,
0001
0100
1000
0020
0000
0000
1030
0100
,
0001
0000
1000
0100
0011
0000
1100
0000
,
0010
0001
0100
2000
0000
0001
3001
0000
,
0100
0001
0010
2000
0000
0001
3001
0000
,
0010
0001
0000
0100
0010
0000
1000
0100
1000
0100
1000
0000
0010
0000
0000
0000
,
0001
0010
0000
1000
0100
0000
0010
0001
0010
0001
0010
0000
0100
0000
0000
0000
,
1000
0010
0000
0100
0001
0000
0010
0100
0010
0100
0010
0000
0001
0000
0000
0000
,
0100
0010
0000
1000
0001
0000
0010
0100
0010
0100
0010
0000
0001
0000
1100
0000
,
0010
1001
1000
0101
0010
1000
0101
0000
,
1001
0110
0000
1001
0000
0010
0100
0001
,
0220
0330
1000
0001
0010
1000
0110
0000
,
2002
3003
0100
0010
1000
0100
1001
0000
,
1000
0001
1000
1100
1000
1010
1000
1001
,
0001
0101
0001
0011
0001
1000
0010
2002
,
0000
3003
0220
0000
0000
0000
0330
1001
,
0000
0010
0100
1000
0001
0100
0010
0002
,
0000
0013
0100
0001
1000
0100
0010
2000
,
0000
3010
0001
0100
0010
1000
0101
0000
,
0010
1000
0001
0010
0100
1000
0001
0100
,
0010
0000
1000
0100
1000
0000
0001
1000
0001
0000
0010
0001
0010
0000
0000
0000
,
0100
0000
1000
0000
0010
0000
0002
0000
0000
0000
0000
0000
1003
0000
0100
0001
,
1000
0000
0010
0000
1000
0001
0100
0000
0010
0000
0100
0000
1001
0000
0000
0000
,
0100
0000
0001
0000
0010
0000
2000
0000
0000
0000
0000
0000
3001
0000
0100
1000
,
0001
0000
0010
0000
0001
1000
0100
0000
0010
0000
0100
0000
1001
0000
0000
0000
,
1000
0000
0100
0000
0001
0000
0020
0000
0000
0000
0000
0000
0031
0000
0100
1000
,
0100
0000
0010
0000
0001
0100
0001
0000
0010
0000
0001
0000
1100
0000
0001
0100
,
1000
0000
0100
0000
0000
0001
1000
0100
0001
0000
0100
0000
0000
1000
0001
0010
,
1000
0010
0001
0100
1000
0010
1001
0000
;

//---------------dance-double - ----------------
#NOTES:
     dance-double:
     :
     Beginner:
     1:
     :
00000000
00000000
00000000
00000000
,
00000000
00000000
00000000
00000000
,
00000000
00000000
00000000
00000000
,
00100000
00000000
00000000
00000000
,
01000000
00000000
00000000
00000000
,
10000000
00000000
00000000
00000000
,
00010000
00000000
00000000
00000000
,
01000000
01000000
00000000
00000000
,
00001000
00001000
00000000
00000000
,
00010000
00010000
00000000
00000000
,
00000100
00000100
00000000
00000000
,
00000010
00000000
00000000
00000000
,
00000001
00000000
00000000
00000000
,
00001000
00000000
00000000
00000000
,
00000100
00000000
00000000
00000000
,
00001001
00000000
00000000
00000000
,
00001000
00000000
00000000
00000000
,
00011000
00000000
00000000
00000000
,
00010000
00000000
00000000
00000000
,
00100000
00100000
00100000
00000000
,
00100000
00000000
00000000
00000000
,
01000000
01000000
01000000
00000000
,
01000000
00000000
00000000
00000000
,
10000000
10000000
10000000
00000000
,
10000000
00000000
00000000
00000000
,
00010000
00010000
00000000
00000000
,
10000000
10000000
00000000
00000000
,
01000000
00000000
00000000
00000000
,
00010000
00000000
00000000
00000000
,
00001000
00000000
00000000
00000000
,
00000010
00000000
00000000
00000000
,
00000001
00000001
00000000
00000000
,
00001000
00001000
00000000
00000000
,
00000100
00000100
00000000
00000000
,
00000010
00000010
00000000
00000000
,
00001000
00000000
00000000
00000000
,
00010000
00000000
00000000
00000000
,
00011000
00000000
00000000
00000000
,
00001000
00000000
00000000
00000000
,
00000100
00000000
00000000
00000000
,
00000001
00000000
00000000
00000000
,
00000010
00000000
00000000
00000000
,
00001000
00000000
00000000
00000000
,
00000010
00000010
00000010
00000000
,
00000010
00000000
00000000
00000000
,
00000100
00000100
00000100
00000000
,
00000100
00000000
00000000
00000000
,
00001000
00001000
00001000
00000000
,
00001000
00000000
00000000
00000000
,
00000001
00000001
00000000
00000000
,
00001000
00001000
00000000
00001001
;

//---------------dance-double - ----------------
#NOTES:
     dance-double:
     :
     Easy:
     3:
     :
00000000
00000000
00000000
00000000
,
00000000
00000000
00000000
00000000
,
00000000
00000000
00000000
00000000
,
10010000
00000000
01000000
00100000
,
10000000
00000000
00010000
01000000
,
00100000
00000000
10000000
01000000
,
00010000
00001000
00011000
00000000
,
00010000
00000100
00001000
00000001
,
00000110
00001001
00000000
00000110
,
00000001
00000100
00000010
00001000
,
00000100
00010000
00011000
00000000
,
00010000
00100000
01000000
10010000
,
01000000
10010000
00100000
01000000
,
10010000
00010000
01000000
00100000
,
00010000
00001000
00000100
00000010
,
00001000
00000001
00001001
00000110
,
00000100
00001000
00010000
01000000
,
10000000
00010000
10010000
01100000
,
00100000
00010000
00001000
00011000
,
00000010
00000000
00010000
00000000
,
01000000
10000000
00100000
10010000
,
00100000
00000000
00001000
00000000
,
00000100
00000001
00000010
00001001
,
00000001
00000000
00001000
00000000
,
00010000
00100000
10000000
01000000
,
00010000
00000000
00000010
00000000
,
00001000
00000000
01000000
00000000
,
10010000
00000000
00100000
01000000
,
00010000
10000000
00000000
01100000
,
00100000
00000000
10000000
01000000
,
00010000
00001000
00000100
00000001
,
00000010
00000000
00000100
00000000
,
00010000
00000000
00001000
00000000
,
01000000
00000000
00100000
00000000
,
10000000
00000000
00010000
00000000
,
10010000
00100000
00000000
01000000
,
00000000
00010000
00000000
00001000
,
00000000
00000100
00000000
00000010
,
00001000
00000001
00000100
00001001
,
00002000
00000010
00000001
00003100
,
00000010
00010000
00001000
01000000
,
00020000
00100000
10000000
01030000
,
00022000
00000000
00033000
00011000
,
01000000
00000000
00001000
00000000
,
00000010
00000001
00000100
00001001
,
00000100
00000000
00010000
00000000
,
00100000
10000000
01000000
10010000
,
10000000
00000000
00010000
00000000
,
00001000
00000100
00000001
00000010
,
00001000
00100000
00010000
00000100
,
00001000
00000000
00010000
00011000
;

//---------------dance-double - ----------------
#NOTES:
     dance-double:
     :
     Medium:
     7:
     :
00000000
00000000
00000000
00000000
,
00000000
00000000
00000000
00000000
,
00000000
00000000
00000000
00000000
,
10010000
00000000
01000000
00100000
00020000
00000000
20030000
00000000
,
31000000
00000000
00100000
00010000
01000000
00100000
01000000
00010000
,
10010000
00000000
01000000
00100000
00020000
00000000
00032000
00000000
,
00003100
00000000
00000010
00001000
00000101
00000000
00001010
00000000
,
00000110
00000000
00000001
00000000
00001000
00000100
00000010
00000000
,
00000110
00000110
00001001
00000000
00000100
00001000
00010000
00001000
,
00011000
00000000
00000010
00001000
00000200
00000000
00020300
00000000
,
00031000
00000000
00100000
00010000
01000000
02020000
03030000
00000000
,
10000000
00100000
00010000
00000000
00100000
10000000
00010000
00000000
,
01000000
00100000
00010000
00000000
00100000
10000000
01000000
00010000
,
01000000
01100000
00101000
00011000
,
00010100
00000110
00001001
00000110
,
00001001
00001001
00001001
00001001
00000110
00000110
00000110
00000000
,
00000001
00000100
00001000
00010000
00001000
00010000
00011000
00000000
,
01100000
01100000
01100000
01100000
10010000
10010000
10010000
00000000
,
10000000
00010000
01000000
00100000
10000000
00010000
10010000
00000000
,
10000000
01000000
00010000
00002000
00000000
00000000
00003100
00000001
,
00000010
00000000
00001001
00000001
00001000
00000000
00000110
00000000
,
00000001
00000100
00001000
00020000
00000000
00000000
01030000
10000000
,
00100000
00000000
10010000
10000000
00010000
00000000
01100000
00000000
,
10000000
01000000
00100000
00002000
00000000
00000000
00013000
00000010
,
00000100
00000000
00001001
00000100
00000010
00000000
00001001
00000000
,
00000010
00001000
00000100
00001000
00000000
00010000
00001000
00000000
,
00100000
00010000
01000000
00010000
00000000
00001000
00010000
00000020
,
00000000
00000030
00000000
00001000
00000000
00000001
00000000
00000010
,
00000000
00000100
00001000
00000001
00000000
00000100
00000000
00001000
,
00000000
00010000
00000000
00100000
00000000
10000000
00000000
01000000
,
00000000
00010000
01000000
10000000
00000000
00100000
00000000
01010000
,
00000000
00110000
00000000
10010000
00000000
01000000
00100000
00000000
,
00010000
00001000
00000000
00011000
00000000
00000100
00000010
00000000
,
00001001
00000000
00000010
00000100
00000000
00000001
00001000
00000000
,
00000110
00000000
00001000
00000001
00000000
00000100
00000010
00000000
,
00010000
00001000
00000000
01001000
00000000
00101000
00000000
00011000
,
00000000
00010100
00000000
00010010
00000000
00010000
00000000
00100000
,
00000000
01000000
20020000
00000000
00000000
30030000
00000000
01100000
,
00000000
00022000
00000000
00033000
00000000
00010000
00001000
00000100
,
00000000
00000001
00000000
00000010
00000000
00001000
00010000
00100000
,
00000000
10000000
00000000
01000000
00000000
00100000
10010000
00000000
,
10000000
01000000
00010000
00000000
00001000
00000100
00000001
00000000
,
00001010
00000000
00000000
00000101
00000000
00000000
00001001
00000000
,
00000001
00000010
00001000
00020000
00000000
00000000
00130000
10000000
,
01000000
00100000
10010000
00000000
00010000
10000000
01100000
00000000
,
10000000
00100000
00010000
00002000
00000000
00000000
00003010
00000001
,
00000100
00000010
00001001
00000000
00001000
00000001
00000110
00000000
,
00000001
00000010
00000100
00020000
00000000
00000000
00031000
01000000
,
00100000
10000000
01010000
00000000
00010000
01000000
10100000
00000000
,
00010000
00100000
00110000
00000000
00001000
00010000
00011000
00000000
,
00010100
00010100
00011000
00011000
00101000
00101000
00011000
00000000
;

//---------------dance-double - ----------------
#NOTES:
     dance-double:
     :
     Hard:
     9:
     :
00000000
00000000
00000000
00000000
,
00000000
00000000
00000000
00000000
,
00000000
00000000
00000000
00000000
,
00000000
00010000
10000000
00010000
10000000
00000000
00010000
10000000
00100000
10000000
01000000
10000000
00000000
00010000
01000000
00010000
,
00100000
00010000
00000000
10000000
00000000
00100000
00000000
01000000
00000000
00010000
00100000
00010000
02000000
00000000
00000000
03002000
,
00000000
00000000
00003100
00000000
00000001
00000000
00000010
00000000
00000100
00000000
00001000
00000010
00000000
00000001
00000010
00001000
,
00000001
00001000
00000100
00001000
00000010
00001000
00000001
00000100
00002000
00000000
00000000
01003000
00000000
10000000
01000000
00010000
,
10000000
01000000
00010000
00000000
01000000
00000000
00100000
00000000
00010000
10000000
00100000
00000000
00010000
00000000
00100000
00000000
,
10010000
00000000
10010000
00000000
01100000
00000000
10000000
00000000
01000000
00010000
00001000
00000000
00000010
00000000
00000001
00000000
,
00000000
00000000
00000100
00000010
00000001
00000010
00001000
00000100
00000010
00001000
00010000
00001000
00000000
00100000
00010000
01000000
,
00001000
00010000
00000100
00001000
00000010
00010000
00001000
00010000
00000000
00000000
00011000
00000000
00000000
00000000
00000000
00010000
,
00100000
01000000
00010000
00100000
01000000
10000000
00010000
10000000
00100000
00000000
01000000
00000000
00010000
00000000
10000000
00000000
,
01000000
00000000
00010000
00000000
00001000
00000000
00100000
00001000
00010000
00001000
01000000
00100000
00010000
00000000
00001000
00000000
,
00000010
00000000
00000000
00000000
00000000
00000000
00000000
00000000
00000100
00000000
00000000
00000000
00000000
00000000
00000000
00000000
00010000
00000000
00000000
00000000
00001000
00000000
00000000
00000000
00010000
00000000
00000000
00000000
00000000
00000000
00000000
00000000
00100000
00000000
00000000
00000000
00000000
00010000
00000000
00000000
00000000
00000000
00000000
00001000
00000000
00000000
00000000
00000000
00000100
00000000
00000000
00000000
00000000
00000000
00000000
00000000
00000010
00000000
00000000
00000000
00001000
00000000
00000000
00000000
,
00000010
00000000
00010000
00001000
01000000
00010000
01000000
00001000
00000000
00010000
00000100
00010000
00000000
00000000
00000010
00001000
,
00000001
00000000
00000100
00000000
00000001
00001000
00000010
00000000
00000100
00000000
00000010
00000000
00001001
00000000
00000001
00000100
,
00001000
00000000
00010000
00000000
00100000
00000000
10000000
00000000
01000000
00000000
00010000
00000000
01100000
00000000
00010000
10000000
,
00100000
00000000
01000000
00000000
00100000
10000000
00010000
00000000
00100000
00000000
01000000
00000000
10010000
00000000
10000000
01000000
,
00010000
00001000
00000010
00000001
00000100
00001000
00000110
00000000
,
00000001
00001000
00000100
00020000
00000000
00000000
01030000
10000000
,
00100000
00000000
10010000
01000000
00100000
00000000
10010000
00000000
,
10000000
00010000
01000000
00002000
00000000
00000000
00003100
00000001
,
00000010
00000000
00001001
00000100
00000010
00000000
00001001
00000000
,
00000010
00010000
00001000
00200000
00000000
00000000
01300000
00010000
,
00001000
00000000
00000110
00000001
00001000
00000000
00000110
00000000
,
00001000
00000010
00000001
00000200
00000000
00001000
00001300
00000000
,
00010000
00100000
10000000
02000000
00000000
00010000
03010000
00000000
,
01000000
10000000
00000000
00100000
01000000
00000000
00010000
00100000
00010000
00100000
00010000
00000000
01000000
00000000
00001000
00000000
,
00010000
01000000
00000000
00100000
00010000
00000000
10000000
00100000
10000000
00100000
10000000
00000000
01000000
00000000
00010000
00000000
,
00001000
00000010
00000000
00000100
00001000
00000000
00000001
00000100
00000001
00000100
00000001
00000000
00001000
00000000
00000100
00000000
,
00000010
00000001
00000000
00000100
00000010
00000000
00001000
00000100
00001000
00000100
00001000
00000000
00000010
00000000
00020000
00000000
,
00031000
02000000
03010000
20000000
30100000
01000000
00010000
00000000
,
10100000
00020000
01030000
00200000
10300000
00010000
10000000
00000000
,
02002000
03003000
00010000
00100000
00001000
00010000
00011000
00000000
,
00020020
00030030
00001000
00000100
00000010
00000001
00001100
00000000
,
00010000
00001000
00010000
00010010
00010000
00010100
00010000
00011000
,
00001000
00101000
00001000
01001000
00001000
00010000
00100000
20020000
,
00000000
30030000
02200000
00000000
00000000
00000000
03300000
10010000
,
00000000
10000000
00010000
00100000
01000000
10000000
01000000
00020000
,
00000000
00030100
00000010
00000001
00001000
00000001
00000010
00002000
,
00000000
00103000
01000000
10000000
00010000
01000000
10010000
00000000
,
00100000
00010000
01000000
00001000
00010000
00000010
00001000
00000100
,
00010000
00000000
00001000
00010000
00001000
00000000
01000000
00001000
01000000
00000000
00010000
10000000
01000000
00000000
00000000
00000000
,
10000000
00000000
00010000
00000000
00100000
00000000
00002000
00000000
00000000
00000000
00000000
00000000
00003010
00000000
00000100
00001000
,
00000001
00000000
00000010
00000000
00000001
00001000
00000100
00000000
00000010
00000000
00000100
00000000
00001001
00000000
00000000
00000000
,
00000001
00000000
00001000
00000000
00000010
00000000
00020000
00000000
00000000
00000000
00000000
00000000
00130000
00000000
10000000
00010000
,
01000000
00000000
00100000
00000000
01000000
00010000
10000000
00000000
01000000
00000000
00100000
00000000
10010000
00000000
00000000
00000000
,
01000000
00000000
00010000
00000000
00001000
00000000
00000200
00000000
00000000
00000000
00000000
00000000
00000310
00000000
00010000
00001000
,
00100000
00000000
01000000
00000000
00010000
00001000
00000100
00000000
00000010
00000000
00010000
00000000
00001000
00000000
00100000
00010000
,
01000000
00000000
00001000
00000000
00000000
00010000
00000100
00001000
00000010
00000000
00010000
00000000
00000000
00001000
00010000
00001000
,
00010000
01000000
00100000
00001000
00000100
00000010
00011000
00000000
;
