#TITLE:The Tide;
#ARTIST:Noisia;
#BANNER:The Tide.png;
#BACKGROUND:The Tide-bg.png;
#CDTITLE:./CDTITLES/Dance Dance Revolution UNIVERSE 2.png;
#MUSIC:The Tide.ogg;
#SAMPLESTART:13.953;
#SAMPLELENGTH:15;
#BPMS:0=172;

//---------------dance-single - ----------------
#NOTES:
     dance-single:
     :
     Beginner:
     1:
     :
0000
0000
0000
0000
,
0000
0000
0000
0000
,
0000
0000
0000
0000
,
0000
0000
0000
0000
,
0000
0000
0000
0000
,
0000
0000
0000
0000
,
0000
0000
0000
0000
,
0000
0000
0000
0000
,
0000
0000
0000
0000
,
0000
0000
0000
0000
,
0100
0000
0001
0000
,
0010
0000
0001
0000
,
0100
0100
0000
0000
,
0010
0010
0000
0000
,
0000
1000
0000
0001
,
0000
1000
0000
0001
,
0000
0010
0000
0000
,
0000
0010
0000
0000
,
0100
0000
1000
0000
,
0010
0000
1000
0000
,
0100
0100
0000
0000
,
0010
0010
0000
0000
,
0000
0001
0000
1000
,
0000
0001
0000
1000
,
0000
0100
0000
0100
,
0000
0010
0000
0010
,
0010
0000
0001
0000
,
1000
0000
0001
0000
,
0010
0010
0000
0000
,
0100
0100
0000
0000
,
1000
0000
0001
0000
,
1000
0000
0001
0000
,
0000
0100
0000
0010
,
0000
0100
0000
0010
,
0000
2000
0000
0000
,
3000
0000
0000
0000
,
1000
0000
0000
0000
,
0001
0000
0000
0000
,
0000
0200
0000
0000
,
0300
0100
0000
1000
,
0000
0000
0010
0000
,
0100
0000
0001
0000
,
1000
0000
0000
0000
,
0001
0000
0000
0000
,
0100
0000
0000
0000
,
0010
0000
0000
0000
,
1000
0000
0000
0000
,
0100
0000
0000
0000
,
0010
0010
0000
0000
,
0100
0100
0000
0000
,
0010
0000
1000
0000
,
0100
0000
1000
0000
,
0010
0010
0000
0000
,
0100
0100
0000
0000
,
0000
0001
0000
1000
,
0000
0001
0000
1000
,
0000
0100
0000
0000
,
0000
0100
0000
0000
,
0010
0000
0001
0000
,
0100
0000
0001
0000
,
0010
0010
0000
0000
,
0100
0100
0000
0000
,
0000
1000
0000
0001
,
0000
1000
0000
0001
,
0000
0010
0000
0010
,
0000
0100
0000
0100
,
0100
0000
1000
0000
,
0001
0000
1000
0000
,
0100
0100
0000
0000
,
0010
0010
0000
0000
,
0001
0000
1000
0000
,
0001
0000
1000
0000
,
0000
0010
0000
0100
,
0000
0010
0000
0100
,
0100
0000
0000
0000
;

//---------------dance-single - ----------------
#NOTES:
     dance-single:
     :
     Easy:
     4:
     :
0000
0000
0000
0000
,
0000
0000
0000
0000
,
0000
0000
0000
0000
,
0000
0000
0000
0000
,
0000
0000
0000
0000
,
0000
0000
0000
0000
,
0000
0000
0000
0000
,
0000
0000
0000
0000
,
0000
0000
0000
0000
,
0000
0000
0000
0000
,
1000
0001
0000
0100
,
0000
0010
1000
0010
,
0100
0100
0000
0001
,
0010
0010
0000
0100
,
1000
0001
0000
0010
,
0100
1000
0100
0010
,
0002
0000
0000
0003
,
1000
0001
1000
0000
,
0010
1000
0000
0010
,
0000
0100
0001
0100
,
0010
0010
0000
1000
,
0100
0100
0000
0010
,
0010
0001
0010
0100
,
1000
0000
0001
0000
,
0110
0000
1000
0000
,
0110
0000
0001
0000
,
0010
0100
0000
1000
,
0000
0001
0100
0001
,
0010
0010
0000
0100
,
1000
1000
0000
0001
,
1000
0010
0000
0100
,
0001
0100
0010
1000
,
0000
0001
0000
0100
,
0200
0000
0000
0000
0000
0300
0000
0000
,
0100
0220
0000
0000
,
0330
0000
0000
0000
,
1000
0100
0000
0000
,
0001
0100
0000
0000
,
0010
0020
0000
0000
,
0030
0100
0000
1000
,
0000
0010
0100
0000
,
0100
0000
0001
0000
,
1000
0100
0000
0010
,
0001
0100
0000
0010
,
1000
0001
0000
0010
,
0100
1000
0000
0001
,
0100
1000
0000
0001
,
1000
0010
0000
0100
,
0001
1001
0000
0000
,
0100
0110
0000
0000
,
1000
0001
0000
0100
,
0000
0010
1000
0010
,
0100
0100
0000
0001
,
0010
0010
0000
0100
,
1000
0001
0000
0010
,
0100
1000
0100
0010
,
0001
1000
0001
1000
,
0001
0200
0000
0300
,
0010
1000
0000
0010
,
0000
0100
0001
0100
,
0010
0010
0000
1000
,
0100
0100
0000
0010
,
0010
0001
0010
0100
,
1000
0000
0001
0000
,
0110
0000
1000
0000
,
0110
0000
0001
0000
,
0010
0100
0000
1000
,
0000
0001
0100
0001
,
0010
0010
0000
0100
,
1000
1000
0000
0001
,
1000
0010
0000
0100
,
0001
1000
0100
0200
,
0300
0001
0100
1000
,
0020
0000
0030
0100
,
0110
0000
0000
0000
;

//---------------dance-single - ----------------
#NOTES:
     dance-single:
     :
     Medium:
     7:
     :
0000
0000
0000
0000
,
0000
0000
0000
0000
,
0000
0000
0000
0000
,
0000
0000
0000
0000
,
0000
0000
0000
0000
,
0000
0000
0000
0000
,
0000
0000
0000
0000
,
0000
0000
0000
0000
,
0000
0000
0000
0000
,
1000
0001
1000
0001
,
0100
0000
0210
0000
0000
0010
0000
0310
,
0000
1000
1000
0000
0001
0001
0000
0010
,
0100
1000
0010
0001
,
0100
0001
0010
1000
,
0100
0000
0010
0000
0001
1000
0001
0000
,
0100
0000
0010
0000
1000
0001
2000
0000
,
3100
0000
0000
0010
0000
0000
0100
0000
0000
0010
0000
0000
0100
0000
0000
0000
,
1001
0000
0000
0000
0100
0000
0000
0010
0000
0000
0001
0000
0000
0000
0000
0000
,
0100
0000
0120
0000
0000
1000
0000
1030
,
0000
0001
0001
0000
1000
1000
0000
0100
,
0010
0001
0100
1000
,
0010
1000
0100
0001
,
0010
0000
0100
0000
1000
0010
1000
0000
,
0100
0000
0010
0000
0001
0100
0001
0000
,
1000
0000
0010
0000
0100
0100
0000
0000
,
0001
0000
0010
0000
0100
0100
0000
0000
,
0010
0000
0120
0000
0000
0001
0000
0031
,
0000
1000
1000
0000
0001
0000
0000
0100
,
0010
1000
0100
0010
,
1000
0001
0010
1000
,
0001
0000
0100
0000
0010
1000
0001
0000
,
0100
0000
0010
0000
0001
1000
0100
0020
,
0000
0000
0000
0000
0130
0000
0000
0010
0000
0000
0100
0000
0000
0010
0000
0000
,
0002
0000
0003
0000
,
1000
0000
1001
0000
0000
0110
0000
0220
,
0000
0000
0330
0000
,
0001
0100
0001
0000
1000
0000
0010
0000
,
0100
0100
0000
0000
,
0001
2000
0000
3100
,
0000
0000
0000
0000
,
0000
0000
1000
0000
1000
1000
0000
0010
,
0000
0100
0100
0000
0000
0001
0000
0000
,
1000
0000
0100
0000
0000
0001
1000
0001
,
0100
0000
0010
0000
1000
0001
1000
0100
,
0010
0001
0010
0100
,
1000
0000
0010
0000
0100
0001
0000
1000
,
0100
0000
1100
0000
0000
0100
0000
0101
,
0000
0000
0010
0000
0000
1000
0000
0100
,
0001
0000
0000
0000
0010
0000
0000
0001
0000
0000
0010
0000
0000
0000
0100
0000
,
1000
0000
0000
0000
0010
0000
0000
1000
0000
0000
0010
0000
0000
0000
0000
0000
,
0010
0000
0120
0000
0000
0100
0000
0130
,
0000
0001
0001
0000
1000
1000
0000
0100
,
0010
0001
0100
1000
,
0010
1000
0100
0001
,
0010
0000
0100
0000
1000
0001
1000
0000
,
0010
0000
0100
0000
0001
1000
0002
0000
,
0013
0000
0110
0000
0000
1100
0000
0000
,
0101
0000
0000
2002
0000
0000
3003
0000
,
0100
0000
0120
0000
0000
1000
0000
1030
,
0000
0001
0001
0000
1000
1000
0000
0100
,
0010
0001
0100
1000
,
0010
1000
0100
0001
,
0010
0000
0100
0000
1000
0010
1000
0000
,
0100
0000
0010
0000
0001
0100
0001
0000
,
1000
0000
0100
0000
0010
0010
0000
0000
,
0001
0000
0100
0000
0010
0010
0000
1000
,
0001
0000
0210
0000
0000
0001
0000
0301
,
0000
1000
1000
0000
0001
0001
0000
0010
,
0100
1000
0010
0001
,
0100
0001
0010
1000
,
0100
0000
0010
0000
0001
0100
0001
0000
,
0010
0000
0100
0000
1000
0010
2000
0000
,
3000
0000
0000
0000
0001
0000
0000
0100
0000
0000
0010
0000
0000
1000
0000
0000
,
0002
0000
0000
0000
0000
0000
0000
0000
0003
0000
0000
1000
0000
0000
0100
0000
,
0020
0000
0000
0000
,
0000
0000
0000
0000
,
0000
0000
0030
0000
;

//---------------dance-single - ----------------
#NOTES:
     dance-single:
     :
     Hard:
     9:
     :
0000
0000
0000
0000
,
0000
0000
0000
0000
,
0000
0000
0000
0000
,
0000
0000
0000
0000
,
0000
0000
0000
0000
,
0000
0000
0000
0000
,
0000
0000
0000
0000
,
0000
0000
0000
0000
,
0000
0000
0000
0000
,
0100
0100
0100
0100
,
1000
0000
1010
0000
0010
1001
0000
0110
,
0000
1001
0020
0000
0031
2000
0000
3001
,
0100
0000
0100
0000
0010
0000
0000
0001
1000
0000
0010
0000
0000
0000
1000
0000
,
0100
0000
0100
0000
0010
0000
0000
1000
0001
0000
0010
0000
0000
0000
0100
0000
,
1000
0000
0000
0000
1001
0000
0000
0001
0010
0000
0100
0000
1000
0000
0001
0000
,
0100
0000
0001
0000
1000
0000
0000
0010
0100
0000
0001
0000
2000
0000
0000
0000
,
3100
0000
0010
0100
0000
0010
0100
0000
0010
0100
0000
0010
0100
0000
0010
0100
,
1000
0000
0000
0000
1010
0000
0000
0011
0000
0000
1001
0000
0000
0000
0000
0000
,
1100
0000
0011
0000
1000
1001
0000
0110
,
0000
1001
0200
0000
0301
2000
0000
3001
,
0010
0000
0010
0000
0100
0000
0000
0001
1000
0000
0100
0000
0000
0000
1000
0000
,
0010
0000
0010
0000
0100
0000
0000
1000
0001
0000
0100
0000
0000
0000
0010
0000
,
0110
0000
0000
0000
1001
0000
0000
0001
1000
0000
0100
0000
0010
0000
0100
0000
,
1000
0010
0100
0000
0001
0010
0000
0100
,
1000
0000
1000
0000
0010
0000
0000
0100
0001
0000
0010
0000
0000
0000
0001
0000
,
0100
0000
0100
0000
0010
0000
0000
1000
0100
0000
0010
0000
0000
0000
0001
0000
,
1001
0000
0100
0000
0100
1001
0000
0110
,
0000
1001
0200
0000
1300
0002
0000
1003
,
0010
0000
0010
0000
0100
0000
0000
1000
0001
0000
0100
0000
0000
0000
0001
0000
,
0010
0000
0010
0000
0100
0000
0000
0001
1000
0000
0100
0000
0010
0000
0001
0000
,
1000
0000
0100
0000
0010
0000
0000
1000
0100
0000
0010
0000
0001
0000
0000
0100
,
0001
1000
0010
0100
0001
1000
0001
0020
,
0000
0000
0000
0000
0130
0000
1000
0001
0000
0010
0100
0000
1000
0001
0000
0010
,
0200
0000
0000
0000
0000
0300
0000
0000
,
1001
0000
0110
0000
0000
1010
0000
0202
,
0000
0000
0303
0000
,
1000
0000
0001
0000
1000
0000
0000
0100
0000
0000
0010
0000
0000
0100
0000
0000
,
0001
0001
0000
0000
,
1010
0002
0000
0200
,
0000
0303
0000
0000
,
0000
0000
1000
0000
0010
0001
0000
0010
,
0000
1000
0100
0000
0000
0001
0000
0000
,
0110
0000
0000
0000
1001
0000
0000
0000
0000
0000
0100
0010
0100
0000
0001
0000
,
0000
0010
0100
0000
1000
0001
0000
0100
,
0010
0000
0100
0000
0001
0000
0000
1000
0010
0000
0100
0000
0000
0001
0010
0000
,
1000
0000
0010
0000
0100
0000
0000
1000
0100
0000
0010
0000
0000
0000
0001
0000
,
0011
0000
1100
0000
0000
1001
0000
0011
,
0000
0000
1001
0000
0000
1010
0000
0100
,
0001
0000
0000
0000
0101
0000
0000
1001
0000
0000
0101
0000
0000
0000
1000
0000
,
0001
0000
0000
0000
1100
0000
0000
1001
0000
0000
1100
0000
0000
0000
0001
0000
,
1000
0000
1001
0000
0000
0011
0000
1100
,
0000
1000
0010
0000
1000
0001
0000
1000
,
0100
0000
0100
0000
0010
0000
0000
0001
1000
0000
0001
0000
0000
0000
0001
0000
,
0100
0000
0100
0000
0010
0000
0000
1000
0001
0000
1000
0000
0000
0000
0100
0000
,
0010
0000
0000
0000
0011
0000
0000
0000
1100
0000
0000
1000
0001
0000
1000
0000
,
0010
0000
0100
0000
0010
0000
0000
1000
0001
0000
1000
0000
0000
0000
0100
0000
,
0010
0000
0000
0000
0110
0000
0000
0011
0000
0000
0110
0000
0000
1100
0000
0000
,
0110
0000
0000
0011
0000
0000
2002
0000
0000
0000
0000
0000
3003
0000
0000
0000
,
0101
0000
1010
0000
0001
1001
0000
0110
,
0000
1001
0200
0000
1300
0002
0000
1003
,
0010
0000
0010
0000
0100
0000
0000
1000
0001
0000
0100
0000
0000
0000
0001
0000
,
0010
0000
0010
0000
0100
0000
0000
0001
1000
0000
0100
0000
0000
0000
0010
0000
,
0110
0000
0000
0000
1001
0000
0000
1000
0001
0000
0100
0000
0010
0000
0100
0000
,
0001
0010
0100
0000
1000
0010
0000
0100
,
0001
0000
0001
0000
0010
0000
0000
0100
1000
0000
0010
0000
0000
0000
1000
0000
,
0100
0000
0100
0000
0010
0000
0000
0001
0100
0000
0010
0000
0000
0000
1000
0000
,
1001
0000
0100
0000
0100
1001
0000
0110
,
0000
1001
0200
0000
0301
2000
0000
3001
,
0010
0000
0010
0000
0100
0000
0000
0001
1000
0000
0100
0000
0000
0000
1000
0000
,
0010
0000
0010
0000
0100
0000
0000
1000
0001
0000
0100
0000
0010
0000
1000
0000
,
0001
0000
0100
0000
0010
0000
0000
0001
0100
0000
0010
0000
0000
0000
1000
0000
,
0001
0000
0010
0000
0100
0000
0000
0001
1000
0000
0200
0000
0000
0000
0000
0000
,
0300
0000
0000
0000
0010
0000
0001
0010
0000
1000
0010
0000
0001
0100
0000
1000
,
0200
0000
0000
0000
0000
0000
0000
0000
0000
0000
0000
0001
0300
0000
1000
0000
,
2002
0000
0000
0000
,
0000
0000
0000
0000
,
0000
0000
3003
0000
;

//---------------dance-double - ----------------
#NOTES:
     dance-double:
     :
     Beginner:
     1:
     :
00000000
00000000
00000000
00000000
,
00000000
00000000
00000000
00000000
,
00000000
00000000
00000000
00000000
,
00000000
00000000
00000000
00000000
,
00000000
00000000
00000000
00000000
,
00000000
00000000
00000000
00000000
,
00000000
00000000
00000000
00000000
,
00000000
00000000
00000000
00000000
,
00000000
00000000
00000000
00000000
,
00000000
00000000
00000000
00000000
,
01000000
00000000
00100000
00000000
,
00010000
00000000
01000000
00000000
,
00100000
00100000
00000000
00000000
,
01000000
01000000
00000000
00000000
,
00000000
00010000
00000000
00001000
,
00000000
00010000
00000000
00001000
,
00000000
00000100
00000000
00000000
,
00000000
00000010
00000000
00000000
,
00000100
00000000
00000010
00000000
,
00001000
00000000
00000100
00000000
,
00000010
00000010
00000000
00000000
,
00000100
00000100
00000000
00000000
,
00000000
00001000
00000000
00010000
,
00000000
00001000
00000000
00010000
,
00000000
01000000
00000000
00100000
,
00000000
00010000
00000000
10000000
,
10000000
00000000
00100000
00000000
,
01000000
00000000
00010000
00000000
,
00100000
00100000
00000000
00000000
,
01000000
01000000
00000000
00000000
,
00010000
00000000
00001000
00000000
,
00010000
00000000
00001000
00000000
,
00000000
00000100
00000000
00000001
,
00000000
00000100
00000000
00001000
,
00000000
00020000
00000000
00000000
,
00030000
00000000
00000000
00000000
,
01000000
00000000
00000000
00000000
,
10000000
00000000
00000000
00000000
,
00000000
00200000
00000000
00000000
,
00300000
00100000
00000000
01000000
,
00000000
00000000
00010000
00000000
,
00100000
00000000
00001000
00000000
,
00010000
00000000
00000000
00000000
,
00001000
00000000
00000000
00000000
,
00000100
00000000
00000000
00000000
,
00000001
00000000
00000000
00000000
,
00000010
00000000
00000000
00000000
,
00001000
00000000
00000000
00000000
,
00010000
00010000
00000000
00000000
,
00001000
00001000
00000000
00000000
,
01000000
00000000
00010000
00000000
,
00100000
00000000
01000000
00000000
,
10000000
10000000
00000000
00000000
,
00010000
00010000
00000000
00000000
,
00000000
01000000
00000000
00100000
,
00000000
01000000
00000000
00100000
,
00000000
00010000
00000000
00000000
,
00000000
00001000
00000000
00000000
,
00000100
00000000
00000010
00000000
,
00001000
00000000
00000001
00000000
,
00000010
00000010
00000000
00000000
,
00000100
00000100
00000000
00000000
,
00000000
00001000
00000000
00010000
,
00000000
00001000
00000000
00010000
,
00000000
00100000
00000000
00100000
,
00000000
01000000
00000000
01000000
,
01000000
00000000
00010000
00000000
,
00100000
00000000
01000000
00000000
,
10000000
10000000
00000000
00000000
,
00010000
00010000
00000000
00000000
,
01000000
00000000
00100000
00000000
,
00010000
00000000
00001000
00000000
,
00000000
00000100
00000000
00000010
,
00000000
00001000
00000000
00000001
,
00000001
00000000
00000000
00000000
;

//---------------dance-double - ----------------
#NOTES:
     dance-double:
     :
     Easy:
     4:
     :
00000000
00000000
00000000
00000000
,
00000000
00000000
00000000
00000000
,
00000000
00000000
00000000
00000000
,
00000000
00000000
00000000
00000000
,
00000000
00000000
00000000
00000000
,
00000000
00000000
00000000
00000000
,
00000000
00000000
00000000
00000000
,
00000000
00000000
00000000
00000000
,
00000000
00000000
00000000
00000000
,
00000000
00000000
00000000
00000000
,
00001000
00010000
00000000
01000000
,
00000000
10000000
00100000
10000000
,
00010000
00010000
00000000
00100000
,
01000000
01000000
00000000
00010000
,
00001000
00000100
00000000
00000001
,
00001000
00000001
00000010
00000100
,
00002000
00000000
00000000
00003000
,
00000001
00000100
00001000
00000000
,
00010000
00001000
00000000
00100000
,
00000000
00010000
01000000
00010000
,
10000000
10000000
00000000
01000000
,
00010000
00010000
00000000
00001000
,
00001000
00000100
00000010
00000100
,
00000001
00000000
00001000
00000000
,
00001001
00000000
00000100
00000000
,
00000110
00000000
00001000
00000000
,
00010000
00001000
00000000
01000000
,
00000000
00100000
10000000
00100000
,
01000000
01000000
00000000
00010000
,
00100000
00100000
00000000
00001000
,
00010000
00001000
00000000
00000100
,
00000010
00000100
00000001
00001000
,
00000000
00000100
00000000
00000010
,
00000200
00000000
00000000
00000300
,
00001000
00022000
00000000
00000000
,
00033000
00000000
00000000
00000000
,
00100000
01000000
00000000
00000000
,
10000000
00010000
00000000
00000000
,
01000000
02000000
00000000
00000000
,
03000000
00010000
00000000
00100000
,
00000000
00001000
00010000
00000000
,
00010000
00000000
00000100
00000000
,
00001000
00000010
00000000
00000100
,
00000001
00001000
00000000
00000100
,
00010000
00001000
00000000
00010000
,
01000000
10000000
00000000
00100000
,
00010000
01000000
00000000
00010000
,
10000000
00100000
00000000
00010000
,
00001000
00011000
00000000
00000000
,
00010000
00011000
00000000
00000000
,
00000100
00000010
00000000
00001000
,
00000000
00000001
00000100
00000001
,
00000010
00000010
00000000
00001000
,
00010000
00010000
00000000
01000000
,
10000000
00010000
00000000
01000000
,
00100000
01000000
00010000
00100000
,
00001000
00010000
00001000
00010000
,
00001000
00000200
00000000
00000300
,
00000001
00001000
00000000
00000100
,
00000000
00000010
00000100
00000010
,
00001000
00001000
00000000
00010000
,
00100000
00100000
00000000
10000000
,
10000000
00010000
00100000
01000000
,
10000000
00000000
00100000
00000000
,
01100000
00000000
00010000
00000000
,
00011000
00000000
00001000
00000000
,
00000100
00000001
00000000
00000010
,
00000000
00000100
00001000
00000100
,
00000010
00000010
00000000
00001000
,
00010000
00010000
00000000
00100000
,
10000000
00010000
00000000
01000000
,
00010000
10000000
01000000
02000000
,
03000000
00010000
00001000
00010000
,
00002000
00000000
00003000
00010000
,
00011000
00000000
00000000
00000000
;

//---------------dance-double - ----------------
#NOTES:
     dance-double:
     :
     Medium:
     7:
     :
00000000
00000000
00000000
00000000
,
00000000
00000000
00000000
00000000
,
00000000
00000000
00000000
00000000
,
00000000
00000000
00000000
00000000
,
00000000
00000000
00000000
00000000
,
00000000
00000000
00000000
00000000
,
00000000
00000000
00000000
00000000
,
00000000
00000000
00000000
00000000
,
00000000
00000000
00000000
00000000
,
00000100
00000100
00000100
00000100
,
00000001
00000000
00001001
00000000
00000000
00000001
00000000
00001000
,
00000000
00000100
00000100
00000000
00010000
00010000
00000000
00001000
,
00001000
01000000
00010000
00100000
,
01000000
10000000
00100000
01000000
,
00001000
00000000
00010000
00000000
00000100
00001000
00000100
00000000
,
00010000
00000000
00001000
00000000
01000000
00010000
02000000
00000000
,
03100000
00000000
00000000
01000000
00000000
00000000
00100000
00000000
00000000
01000000
00000000
00000000
00100000
00000000
00000000
00000000
,
01100000
00000000
00000000
00000000
00010000
00000000
00000000
00001000
00000000
00000000
00010000
00000000
00000000
00000000
00000000
00000000
,
00000100
00000000
00001100
00000000
00000000
00001000
00000000
00000100
,
00000000
00000010
00000010
00000000
00000001
00000001
00000000
00001000
,
00001000
00000010
00000100
00000001
,
00000010
00001000
00010000
01000000
,
10000000
00000000
00100000
00000000
01000000
00010000
01000000
00000000
,
00001000
00000000
00010000
00000000
00000100
00001000
00000100
00000000
,
00000010
00000000
00000001
00000000
00001000
00000010
00000000
00000000
,
00010000
00000000
00001000
00000000
00100000
00010000
00000000
00000000
,
10000000
00000000
10010000
00000000
00000000
00010000
00000000
10000000
,
00000000
00100000
00100000
00000000
01000000
01000000
00000000
00001000
,
00001000
00010000
00000100
00001000
,
00000010
00000100
00000001
00000010
,
00000100
00000000
00010000
00000000
00001000
00100000
00001000
00000000
,
00010000
00000000
00000100
00000000
00010000
00000010
00010000
00002000
,
00000000
00000000
00000000
00000000
00013000
00000000
00000000
00001000
00000000
00000000
00010000
00000000
00000000
00001000
00000000
00000000
,
00200000
00000000
00300000
00000000
,
01000000
00000000
01100000
00000000
00000000
11000000
00000000
22000000
,
00000000
00000000
33000000
00000000
,
00010000
00010000
00010000
00000000
00100000
00000000
00001000
00000000
,
00011000
00011000
00000000
00000000
,
00000200
00000002
00000300
00002000
,
00000000
00003003
00000000
00000000
,
00000000
00000000
00000010
00000000
00000100
00000100
00000000
00010000
,
00000000
00001000
00001000
00000000
00000000
00100000
00000000
00000000
,
01000000
00000000
10000000
00000000
00000000
00100000
01000000
00100000
,
01000000
00000000
00010000
00000000
00100000
01000000
00100000
01000000
,
00100000
00001000
00010000
00000100
,
00001000
00000000
00000010
00000000
00000100
00000001
00000000
00001000
,
00000100
00000000
00010100
00000000
00000000
00001000
00000000
01001000
,
00000000
00000000
00100000
00000000
00000000
10000000
00000000
00010000
,
01000000
00000000
00000000
00000000
00100000
00000000
00000000
00010000
00000000
00000000
00001000
00000000
00000000
00000000
00000100
00000000
,
00001000
00000000
00000000
00000000
00010000
00000000
00000000
00001000
00000000
00000000
00000010
00000000
00000000
00000000
00000000
00000000
,
00000001
00000000
00001001
00000000
00000000
00001000
00000000
00000001
,
00000000
00000100
00000100
00000000
00001000
00001000
00000000
00010000
,
00010000
01000000
10000000
00100000
,
01000000
00010000
00100000
01000000
,
10000000
00000000
01000000
00000000
00010000
01000000
00010000
00000000
,
00001000
00000000
00000100
00000000
00001000
00000100
00002000
00000000
,
00013000
00000000
00011000
00000000
00000000
00001100
00000000
00000000
,
00000110
00000000
00000000
00000220
00000000
00000000
00000330
00000000
,
00001000
00000000
00001100
00000000
00000000
00000100
00000000
00001000
,
00000000
00000010
00000010
00000000
00010000
00010000
00000000
00001000
,
00001000
01000000
00010000
00100000
,
01000000
10000000
00100000
00010000
,
00100000
00000000
01000000
00000000
00010000
00100000
00010000
00000000
,
01000000
00000000
00001000
00000000
00010000
00000100
00010000
00000000
,
00001000
00000000
00000100
00000000
00000001
00000001
00000000
00000000
,
00000100
00000000
00001000
00000000
00010000
01000000
00000000
10000000
,
01000000
00000000
01100000
00000000
00000000
01000000
00000000
00100000
,
00000000
00010000
00010000
00000000
01000000
01000000
00000000
00001000
,
00001000
00010000
00000100
00001000
,
00000010
00000100
00000001
00000010
,
00000100
00000000
00010000
00000000
00001000
01000000
00001000
00000000
,
00100000
00000000
00010000
00000000
01000000
00001000
02000000
00000000
,
03000000
00000000
00000000
00000000
00010000
00000000
00000000
00100000
00000000
00000000
01000000
00000000
00000000
10000000
00000000
00000000
,
00200000
00000000
00000000
00000000
00000000
00000000
00000000
00000000
00300000
00000000
00000000
00010000
00000000
00000000
00001000
00000000
,
00020000
00000000
00000000
00000000
,
00000000
00000000
00000000
00000000
,
00000000
00000000
00030000
00000000
;

//---------------dance-double - ----------------
#NOTES:
     dance-double:
     :
     Hard:
     9:
     :
00000000
00000000
00000000
00000000
,
00000000
00000000
00000000
00000000
,
00000000
00000000
00000000
00000000
,
00000000
00000000
00000000
00000000
,
00000000
00000000
00000000
00000000
,
00000000
00000000
00000000
00000000
,
00000000
00000000
00000000
00000000
,
00000000
00000000
00000000
00000000
,
00000000
00000000
00000000
00000000
,
10000000
00100000
00010000
00001000
,
00000110
00000000
00001001
00000000
00000100
00001000
00000000
00000011
,
00000000
00000100
00010000
00000000
00001000
01000000
00000000
00100000
,
10000000
00000000
10000000
00000000
00010000
00000000
00000000
01000000
00001000
00000000
00001000
00000000
00000000
00000000
00010000
00000000
,
00000100
00000000
00000100
00000000
00001000
00000000
00000000
00000001
00000010
00000000
00000010
00000000
00000000
00000000
00000100
00000000
,
00001000
00000000
00000000
00000000
00001001
00000000
00000000
00000010
00000100
00000000
00000001
00000000
00000100
00000000
00000000
00000000
,
00001000
00000000
00010000
00000000
00001000
00000000
00000000
00100000
01000000
00000000
10000000
00000000
02000000
00000000
00000000
00000000
,
03010000
00000000
00001000
00010000
00000000
00001000
00010000
00000000
00001000
00010000
00000000
00001000
00010000
00000000
00001000
00010000
,
00000100
00000000
00000000
00000000
00000110
00000000
00000000
00000011
00000000
00000000
00001001
00000000
00000000
00000000
00000000
00000000
,
00000100
00000000
00000110
00000000
00000001
00000010
00000000
00001100
,
00000000
00010000
00001000
00000000
01000000
00100000
00000000
10000000
,
00010000
00000000
00010000
00000000
00100000
00000000
00000000
00001000
00010000
00000000
00010000
00000000
00000000
00000000
00000100
00000000
,
00001000
00000000
00001000
00000000
00000010
00000000
00000000
00000100
00000001
00000000
00000001
00000000
00000000
00000000
00000010
00000000
,
00000100
00000000
00000000
00000000
00001000
00000000
00000000
00000010
00010000
00000000
00001000
00000000
00100000
00000000
00001000
00000000
,
00010000
00000100
00010000
00001000
01000000
00100000
00000000
10000000
,
00010000
00000000
00010000
00000000
00100000
00000000
00000000
01000000
10000000
00000000
01000000
00000000
00000000
00000000
00010000
00000000
,
00001000
00000000
00001000
00000000
00000100
00000000
00000000
00000001
00000100
00000000
00000010
00000000
00000000
00000000
00000000
00000000
,
00000110
00000000
00001001
00000000
00000010
00001000
00000000
00000101
,
00000000
00000010
00010000
00000000
00001000
00100000
00000000
01000000
,
10000000
00000000
10000000
00000000
00010000
00000000
00000000
00100000
00001000
00000000
00001000
00000000
00000000
00000000
00010000
00000000
,
00000010
00000000
00000010
00000000
00001000
00000000
00000000
00000001
00000100
00000000
00000100
00000000
00000000
00000000
00000010
00000000
,
00001000
00000000
00000000
00000000
00001001
00000000
00000000
00000100
00000010
00000000
00000001
00000000
00000010
00000000
00000000
00000000
,
00001000
00000000
00010000
00000000
00001000
00000000
00000000
01000000
00100000
00000000
10000000
00000000
00010000
00000000
00200000
00000000
,
00000000
00000000
00000000
00000000
01300000
00000000
01000000
10000000
00000000
10000000
00100000
00000000
00100000
00010000
00000000
00010000
,
00002000
00000000
00000000
00003000
,
00011000
00000000
00011000
00000000
00000000
00010100
00000000
00002200
,
00000000
00000000
00003300
00000000
,
00000001
00000000
00000100
00000000
00000001
00000000
00000000
00001000
00000000
00000000
00000100
00000000
00000000
00010000
00000000
00000000
,
00001000
00010000
00000000
00000000
,
01000000
20000000
00000000
00020000
,
00000000
30030000
00000000
00000000
,
00000000
00000000
00100000
00000000
00010000
00001000
00000000
00000100
,
00000000
00001000
00010000
00000000
00000000
01000000
00000000
00000000
,
01010000
00000000
00000000
00000000
01100000
00000000
00000000
00000000
00000000
00000000
01000000
10000000
01000000
00000000
00010000
00000000
,
00000000
00001000
00000100
00000000
00000001
00000010
00000000
00000100
,
00000001
00000000
00000100
00000000
00001000
00000000
00000000
00000001
00000100
00000000
00000010
00000000
00000000
00001000
00000001
00000000
,
00000010
00000000
00001000
00000000
00010000
00000000
00000000
01000000
00100000
00000000
00010000
00000000
00000000
00000000
10000000
00000000
,
11000000
00000000
01010000
00000000
00000000
10100000
00000000
01010000
,
00000000
00000000
11000000
00000000
00000000
00101000
00000000
00010000
,
00001000
00000000
00000000
00000000
00011000
00000000
00000000
00010100
00000000
00000000
00001100
00000000
00000000
00000000
00000001
00000000
,
00001000
00000000
00000000
00000000
00000101
00000000
00000000
00001001
00000000
00000000
00001010
00000000
00000000
00000000
00000001
00000000
,
00000100
00000000
00000110
00000000
00001000
00000100
00000000
00011000
,
00000000
01000000
00010000
00000000
10000000
00100000
00000000
10000000
,
01000000
00000000
00100000
00000000
00010000
00000000
00000000
00100000
00001000
00000000
00010000
00000000
00000000
00010000
00000100
00000000
,
00001000
00000000
00000010
00000000
00000100
00000000
00000000
00000001
00001000
00000000
00000001
00000000
00000000
00000000
00000010
00000000
,
00000100
00000000
00000000
00000000
00000110
00000000
00000000
00000000
00001001
00000000
00000000
00000001
00000100
00000000
00001000
00000000
,
00010000
00000000
00100000
00000000
10000000
00000000
00000000
10000000
01000000
00000000
00010000
00000000
00000000
00000000
00001000
00000000
,
00010000
00000000
00000000
00000000
00010100
00000000
00000000
00001100
00000000
00000000
00000110
00000000
00000000
00000101
00000000
00000000
,
00000110
00000000
00000000
00001100
00000000
00000000
00020200
00000000
00000000
00000000
00000000
00000000
00030300
00000000
00000000
00000000
,
00011000
00000000
00101000
00000000
00010000
01000000
00000000
01010000
,
00000000
00100000
20000000
00000000
30010000
00200000
00000000
01300000
,
10000000
00000000
10000000
00000000
00100000
00000000
00000000
00100000
00010000
00000000
00001000
00000000
00000000
00001000
00000100
00000000
,
00000010
00000000
00000010
00000000
00000001
00000000
00000000
00000001
00000010
00000000
00001000
00000000
00000000
00000000
00000100
00000000
,
00001001
00000000
00000000
00000000
00000101
00000000
00000000
00000001
00000100
00000000
00001000
00000000
00000100
00000000
00000010
00000000
,
00010000
00001000
00100000
00000000
00010000
10000000
00000000
00100000
,
01000000
00000000
01000000
00000000
00001000
00000000
00000000
00010000
00000100
00000000
00001000
00000000
00000000
00000000
00000001
00000000
,
00000100
00000000
00000100
00000000
00001000
00000000
00000000
00010000
01000000
00000000
10000000
00000000
00000000
00000000
00010000
00000000
,
01000000
00000000
01100000
00000000
01000000
00001000
00000000
00011000
,
00000000
00000100
00000020
00000000
00000130
00002000
00000000
00003001
,
00000100
00000000
00000100
00000000
00001000
00000000
00000000
00001000
00010000
00000000
00001000
00000000
00000000
00000000
00010000
00000000
,
01000000
00000000
01000000
00000000
10000000
00000000
00000000
10000000
00010000
00000000
01000000
00000000
00100000
00000000
10000000
00000000
,
00010000
00000000
01000000
00000000
00100000
00000000
00000000
00010000
00001000
00000000
00000100
00000000
00000000
00000000
00000001
00000000
,
00000100
00000000
00000010
00000000
00010000
00000000
00000000
00001000
00100000
00000000
02000000
00000000
00000000
00000000
00000000
00000000
,
03000000
00000000
00000000
00000000
01000000
00000000
01000000
10000000
00000000
10000000
00100000
00000000
00100000
00010000
00000000
00010000
,
00002000
00000000
00000000
00000000
00000000
00000000
00000000
00000000
00000000
00000000
00000000
00000100
00003000
00000000
00000001
00000000
,
00002002
00000000
00000000
00000000
,
00000000
00000000
00000000
00000000
,
00000000
00000000
00003003
00000000
;
