#TITLE:Synergy;
#ARTIST:C-14;
#BANNER:Synergy.png;
#BACKGROUND:Synergy-bg.png;
#CDTITLE:./CDTITLES/Dance Dance Revolution UNIVERSE 2.png;
#MUSIC:Synergy.ogg;
#SAMPLESTART:8.571;
#SAMPLELENGTH:15;
#BPMS:0=140;

//---------------dance-single - ----------------
#NOTES:
     dance-single:
     :
     Beginner:
     1:
     :
0000
0000
0000
0000
,
0000
0000
0000
0000
,
0000
0000
0000
0000
,
1001
0000
0000
0000
,
0100
0000
0000
0000
,
0010
0000
0100
0000
,
1000
0000
0000
0000
,
0010
0010
0000
0000
,
0010
0010
0000
0000
,
1000
0000
0100
0000
,
0001
0000
0000
0000
,
0100
0100
0000
0000
,
0100
0100
0000
0000
,
0100
0000
1000
0000
,
0001
0000
1000
0000
,
0001
0000
0100
0000
,
0010
0010
0000
0000
,
1000
0000
0010
0000
,
0100
0000
0000
0000
,
0001
0001
0000
0000
,
1000
1000
0000
0000
,
0020
0000
0030
0000
,
0010
0000
0000
0000
,
0200
0000
0300
0000
,
0100
0000
0000
0000
,
0001
0000
0010
0000
,
0001
0000
0100
0100
,
0100
0000
0010
0000
,
0100
0000
1000
1000
,
2000
0000
0000
3000
,
1000
0000
0000
0000
,
0002
0000
0000
0003
,
0001
0000
0000
0000
,
0220
0000
0000
0330
,
0000
0000
0000
0000
,
1000
0000
0000
0000
,
0010
0000
0100
0000
,
0001
0000
0000
0000
,
0010
0000
0000
0000
,
0001
0000
0100
0000
,
1000
0000
0010
0010
,
0010
0000
1000
0000
,
0100
0000
0000
0000
,
1000
1000
0000
0000
,
0001
0001
0000
0000
,
0010
0000
0100
0000
,
0001
0000
0000
0000
,
0010
0010
0000
0000
,
0100
0100
0000
0000
,
0010
0000
0100
0000
,
1000
0000
0001
0000
,
0010
0000
0100
0000
,
1000
1000
0000
0000
,
0001
0000
0100
0000
,
1000
0000
0000
0000
,
0010
0010
0000
0000
,
1000
1000
0000
0000
,
0001
0000
0000
0000
;

//---------------dance-single - ----------------
#NOTES:
     dance-single:
     :
     Easy:
     4:
     :
0000
0000
0000
0000
,
0000
0000
0000
0000
,
0000
0000
0000
0000
,
0010
0000
0100
0000
,
0010
0000
0001
1000
,
0100
0000
0010
0000
,
0001
0000
0100
0010
,
1000
0000
0100
0000
,
1000
0100
0001
0100
,
0010
0000
0001
0000
,
1000
0000
0100
0010
,
0001
0000
0100
0000
,
0010
0001
1000
1000
,
0100
0100
0010
0000
,
0001
0000
0100
0010
,
1000
1000
0100
0000
,
0001
0010
0100
1000
,
0001
0001
0100
0000
,
0010
0000
1000
0100
,
0001
0001
0100
0000
,
0010
0000
0100
0100
,
2000
0000
0000
3000
,
0020
0000
0000
0030
,
0002
0000
0000
0003
,
0100
0000
0010
0100
,
1001
0000
0100
0000
,
0001
0100
1000
0100
,
1001
0000
0010
0000
,
0100
1000
0100
1000
,
0002
0000
0000
0003
,
1000
0010
1000
0000
,
0200
0000
0000
0300
,
0010
0001
0010
0000
,
0220
0330
0000
0000
,
0010
0100
0010
0000
,
0220
0330
0000
0000
,
0100
1000
0100
0000
,
2002
3003
0000
0000
,
0110
0000
1000
0000
,
0100
0010
0100
0010
,
1000
1000
0001
0001
,
1000
0100
1000
0001
,
0100
0001
0010
0000
,
0100
1000
0100
0010
,
0001
0100
0001
0000
,
1000
0001
0100
1000
,
0100
0001
0010
0000
,
0100
1000
0100
0010
,
0001
0000
1000
0010
,
0100
0001
0100
0000
,
1000
0100
1000
0010
,
0100
0001
0100
0000
,
0010
0100
0001
0010
,
0100
1000
0000
0100
,
0010
0001
0000
0100
,
1000
0010
0100
0001
,
1000
1000
0001
0100
,
0110
0000
0000
0000
;

//---------------dance-single - ----------------
#NOTES:
     dance-single:
     :
     Medium:
     7:
     :
0000
0000
0000
0000
,
0000
0000
0000
0000
,
0000
0000
0000
0000
,
0001
0000
1000
0010
0100
0000
0001
0010
,
0100
0000
1000
0100
1000
0000
0010
0000
,
0001
0100
1000
0010
0000
0100
0000
0001
,
0000
0010
0000
1000
0000
0100
0010
0100
,
0000
0110
0000
1100
0000
0011
0000
1001
,
0000
0100
0000
0010
0000
0100
1000
0010
,
0100
0001
0000
1000
0000
0010
0000
0100
,
0000
1000
0000
0010
0000
0001
0100
0001
,
0000
1001
0000
1100
0000
0101
0000
1001
,
0000
0010
0000
0001
0000
0100
1000
0010
,
0100
0010
0100
0000
0001
0000
0010
0000
,
1000
0000
0100
0000
0010
0100
1000
0000
,
0011
0011
0100
1000
,
0010
0000
1000
0000
0010
0100
0010
0000
,
1000
0100
1000
0000
0010
0000
0100
0000
,
0001
0000
0010
0000
0100
0010
0001
0000
,
1100
1100
0001
0100
,
0010
0000
0100
0000
0001
1000
0001
0000
,
1000
0010
0100
0001
,
0010
0000
0100
0000
0010
0001
0100
0000
,
0010
1000
0100
0001
,
1000
0000
0010
0000
0100
0001
1000
0000
,
0010
0100
0001
0100
0000
0010
0000
0010
,
0000
1000
0000
1000
0000
0100
0010
0001
,
1000
0100
1000
0100
0000
1000
0000
1000
,
0000
0020
0000
0000
0100
0000
0130
0000
,
1001
0000
0000
0000
,
1000
0010
0100
0000
0001
0010
0100
0000
,
1000
0100
0001
0010
,
0100
1000
0010
0000
0100
0001
0010
0000
,
0100
1000
0010
0001
,
0200
0010
0010
0310
,
0001
0010
0100
1000
,
0020
0100
0100
0130
,
0001
0010
1000
0100
,
1000
0010
0100
0001
,
0010
0001
0100
0000
0010
1000
0100
0000
,
1000
0001
1000
0001
,
1000
0010
0001
0100
0000
0010
0000
1000
,
0000
0100
0000
0001
0000
0010
0100
0010
,
0000
0110
0000
0011
0000
1100
0000
1001
,
0000
0010
0000
0100
0000
0010
0001
0100
,
0010
1000
0000
0001
0000
0100
0000
0010
,
0000
0001
0000
0100
0000
1000
0010
1000
,
0000
1001
0000
0011
0000
1010
0000
1001
,
0000
0100
0000
1000
0000
0010
0001
0100
,
0010
0100
0010
0000
1000
0000
0100
0000
,
0001
0000
0010
0000
0100
0010
0001
0000
,
1100
1100
0010
0001
,
0100
0000
0001
0000
0100
0010
0100
0000
,
0001
0010
0001
0000
0100
0000
0010
0000
,
1000
0000
0100
0000
0010
0100
1000
0000
,
0011
0011
1000
0010
,
0100
0000
0010
0000
1000
0001
1000
0000
,
0110
0000
0000
0000
;

//---------------dance-single - ----------------
#NOTES:
     dance-single:
     :
     Hard:
     8:
     :
0000
0000
0000
0000
,
0000
0000
0000
0000
,
0000
0000
0000
0000
,
0010
0000
0000
0001
0100
0000
0000
1000
,
0100
0000
0000
0001
0010
0000
0100
0000
,
1000
0001
2000
0000
0000
3010
0200
0000
,
0000
0301
0020
0000
0000
0130
0100
0100
,
0010
0001
0200
0000
0000
0310
2000
0000
,
0000
3001
0200
0000
0000
0310
0010
0010
,
1000
0001
2000
0000
0000
3010
2000
0000
,
0000
3001
0020
0000
0000
0130
0100
0100
,
1000
0010
0200
0000
0000
0301
1000
0000
,
2001
0000
0000
0000
0000
0100
3100
0000
,
0001
0000
1000
0000
0100
0000
0000
0010
0000
0000
0001
0000
0100
0000
0000
0010
,
0000
0000
1000
0000
0010
0000
0000
0100
0000
0000
0001
0000
0100
0000
0010
0000
,
0000
0000
1000
0000
0001
0000
0000
0100
0000
0000
0001
0000
0010
0000
0000
0100
,
0000
0000
1000
0000
0001
0000
0000
1000
0000
0000
0100
0000
0010
0000
0001
0000
,
1000
0000
0001
0000
0010
0000
0000
0100
0000
0000
1000
0000
0010
0000
0000
0100
,
0000
0000
0001
0000
0100
0000
0000
0010
0000
0000
1000
0000
0010
0000
0100
0000
,
0000
0000
0001
0000
1000
0000
0000
0010
0000
0000
1000
0000
0100
0000
0000
0010
,
0000
0000
0001
0000
1000
0000
0000
0001
0000
0000
0010
0000
0100
0000
1000
0000
,
1100
0100
0010
0001
0000
0100
1000
0010
,
0000
1000
0010
0002
,
0000
1003
0010
0100
0000
0001
0100
0010
,
0000
1000
0100
0001
,
1000
0010
0100
0010
0000
0010
1000
0100
,
0000
0100
0010
0001
0000
0001
1000
0010
,
0000
0010
1000
0100
0000
0100
1000
0010
,
0000
0110
0000
0000
1100
0000
0101
0000
,
1001
0000
0000
0000
,
0100
0000
0010
0000
1000
0000
0010
0100
0000
0100
0000
0001
0010
0000
0100
0000
,
0110
0000
0000
0000
1000
0000
0001
0010
0000
0010
0000
0100
1000
0000
0001
0000
,
1001
0000
0000
0000
0100
0000
0010
1000
0000
1000
0000
0100
0010
0000
0001
0000
,
0011
0000
0000
0000
1000
0000
0010
0100
0000
0100
0000
0001
1000
0000
0010
0000
,
0100
0000
0001
0000
0100
0000
0001
0010
0000
0010
0000
0100
0010
0000
0001
0000
,
0011
0000
0000
0000
1000
0000
0000
0000
0001
0000
0000
1000
0100
0000
0010
0000
,
0110
0000
0000
0000
0001
0000
0000
0000
0100
0000
0000
0010
1000
0000
0001
0000
,
1001
0000
0000
0000
0100
0000
0000
0000
0001
0000
0000
0010
1000
0000
0100
0000
,
1100
0000
0000
0000
0100
0000
0000
0000
0010
0000
0000
0100
1000
0000
0001
0000
,
0110
1000
0110
0001
,
1000
0010
0100
0010
0001
0010
0100
1000
,
0001
0000
0010
0000
0001
0000
0000
0100
0000
0000
0010
0000
1000
0000
0000
0100
,
0000
0000
0001
0000
0010
0000
0000
0100
0000
0000
1000
0000
0100
0000
0010
0000
,
0000
0000
0001
0000
1000
0000
0000
0100
0000
0000
1000
0000
0010
0000
0000
0100
,
0000
0000
0001
0000
1000
0000
0000
0001
0000
0000
0100
0000
0010
0000
1000
0000
,
0001
0000
0010
0000
0100
0000
0000
1000
0000
0000
0001
0000
0100
0000
0000
0001
,
0000
0000
0010
0000
0100
0000
0000
1000
0000
0000
0010
0000
0100
0000
0010
0000
,
0000
0000
1000
0000
0010
0000
0000
0001
0000
0000
0010
0000
0100
0000
0000
1000
,
0000
0000
0100
0000
0010
0000
0000
1000
0000
0000
0100
0000
0010
0000
0001
0000
,
0100
0000
0020
0000
1000
0000
0000
1030
0000
0000
0200
0000
0010
0000
0000
0310
,
0000
0000
0002
0000
1000
0000
0000
1003
0000
0000
0010
0000
1000
0000
0100
0000
,
0001
0000
0200
0000
0010
0000
0000
0310
0000
0000
0002
0000
0100
0000
0000
0103
,
0000
0000
0020
0000
1000
0000
0000
1030
0000
0000
0100
0000
0001
0000
0010
0000
,
0100
0000
1000
0000
0001
0000
0000
0100
0000
0000
0010
0000
0100
0000
0000
0001
,
0000
0000
1000
0000
0100
0000
0000
0010
0000
0000
0100
0000
1000
0000
0001
0000
,
0100
0000
0001
0000
0010
0000
0000
0100
0000
0000
1000
0000
0010
0000
0000
0100
,
0000
0000
0010
0000
0100
0000
0000
0001
0000
0000
0010
0000
0100
0000
0010
0000
,
1001
0000
0000
0000
;

//---------------dance-double - ----------------
#NOTES:
     dance-double:
     :
     Beginner:
     1:
     :
00000000
00000000
00000000
00000000
,
00000000
00000000
00000000
00000000
,
00000000
00000000
00000000
00000000
,
00000110
00000000
00000000
00000000
,
00000100
00000000
00000000
00000000
,
00001000
00000000
00010000
00000000
,
00001000
00000000
00000000
00000000
,
00100000
00100000
00000000
00000000
,
00010000
00010000
00000000
00000000
,
01000000
00000000
00100000
00000000
,
10000000
00000000
00000000
00000000
,
00010000
00010000
00000000
00000000
,
00100000
00100000
00000000
00000000
,
00001000
00000000
00010000
00000000
,
00001000
00000000
00000100
00000000
,
00000010
00000000
00000100
00000000
,
00000001
00000001
00000000
00000000
,
00000100
00000000
00000010
00000000
,
00010000
00000000
00000000
00000000
,
00001000
00001000
00000000
00000000
,
00010000
00010000
00000000
00000000
,
00002000
00000000
00003000
00000000
,
00100000
00000000
00000000
00000000
,
00020000
00000000
00030000
00000000
,
10000000
00000000
00000000
00000000
,
01000000
00000000
10000000
00000000
,
00010000
00000000
00100000
00100000
,
00100000
00000000
00001000
00000000
,
00010000
00000000
00001000
00001000
,
00002000
00000000
00000000
00003000
,
00001000
00000000
00000000
00000000
,
00020000
00000000
00000000
00030000
,
00010000
00000000
00000000
00000000
,
00022000
00000000
00000000
00033000
,
00000000
00000000
00000000
00000000
,
00000100
00000000
00000000
00000000
,
00000010
00000000
00001000
00000000
,
00000001
00000000
00000000
00000000
,
00000010
00000000
00000000
00000000
,
00000100
00000000
00010000
00000000
,
00001000
00000000
01000000
01000000
,
01000000
00000000
00100000
00000000
,
01000000
00000000
00000000
00000000
,
00010000
00010000
00000000
00000000
,
10000000
10000000
00000000
00000000
,
00100000
00000000
00010000
00000000
,
00001000
00000000
00000000
00000000
,
00010000
00010000
00000000
00000000
,
00000100
00000100
00000000
00000000
,
00000010
00000000
00000100
00000000
,
00001000
00000000
00000010
00000000
,
00000100
00000000
00000001
00000000
,
00000010
00000010
00000000
00000000
,
00000100
00000000
00010000
00000000
,
00001000
00000000
00000000
00000000
,
00010000
00010000
00000000
00000000
,
01000000
01000000
00000000
00000000
,
00100000
00000000
00000000
00000000
;

//---------------dance-double - ----------------
#NOTES:
     dance-double:
     :
     Easy:
     3:
     :
00000000
00000000
00000000
00000000
,
00000000
00000000
00000000
00000000
,
00000000
00000000
00000000
00000000
,
00000100
00000000
00000010
00000000
,
00001000
00000000
00010000
01000000
,
00100000
00000000
10000000
00000000
,
00010000
00000000
00100000
01000000
,
00100000
00000000
00001000
00000000
,
00010000
00001000
00000100
00000010
,
00000001
00000000
00001000
00000000
,
00000001
00000000
00000100
00000010
,
00010000
00000000
00001000
00000000
,
00010000
01000000
00100000
00100000
,
00010000
00010000
01000000
00000000
,
00100000
00000000
10000000
01000000
,
10000000
10000000
00010000
00000000
,
01000000
00010000
00100000
00001000
,
00010000
00010000
00001000
00000000
,
00000100
00000000
00000010
00001000
,
00000100
00000100
00000010
00000000
,
00000001
00000000
00000100
00000100
,
00000020
00000000
00000000
00000030
,
00000200
00000000
00000000
00000300
,
00002000
00000000
00000000
00003000
,
00010000
00000000
00100000
10000000
,
01100000
00000000
10000000
00000000
,
01000000
00100000
00010000
00100000
,
00011000
00000000
00001000
00000000
,
00010000
00001000
00010000
00001000
,
00000200
00000000
00000000
00000300
,
00000001
00001000
00000001
00000000
,
00000020
00000000
00000000
00000030
,
00000100
00010000
00000100
00000000
,
00022000
00033000
00000000
00000000
,
00001000
00100000
00001000
00000000
,
00220000
00330000
00000000
00000000
,
00010000
10000000
00010000
00000000
,
02200000
03300000
00000000
00000000
,
10010000
00000000
01000000
00000000
,
00010000
00100000
00010000
00100000
,
00001000
00001000
00010000
00010000
,
00001000
00000100
00000001
00000010
,
00000100
00000010
00000001
00000000
,
00000100
00001000
00010000
00001000
,
00010000
01000000
00100000
00000000
,
00010000
10000000
00100000
10000000
,
00100000
01000000
00010000
00000000
,
00100000
00001000
00010000
00000100
,
00000010
00000000
00000100
00001000
,
00000010
00000100
00000001
00000000
,
00001000
00000010
00001000
00000100
,
00010000
00001000
00010000
00000000
,
00001000
00010000
00100000
01000000
,
10000000
01000000
00000000
00010000
,
10000000
01000000
00000000
00100000
,
00010000
00100000
00001000
00010000
,
00001000
00001000
00000100
00000010
,
00000110
00000000
00000000
00000000
;

//---------------dance-double - ----------------
#NOTES:
     dance-double:
     :
     Medium:
     6:
     :
00000000
00000000
00000000
00000000
,
00000000
00000000
00000000
00000000
,
00000000
00000000
00000000
00000000
,
00001000
00000000
00010000
00001000
00000100
00000000
00000010
00000001
,
00001000
00000000
00000001
00000100
00001000
00000000
00010000
00000000
,
00001000
00010000
01000000
00100000
00000000
01000000
00000000
10000000
,
00000000
00100000
00000000
01000000
00000000
00010000
00100000
00010000
,
00000000
00110000
00000000
00011000
00000000
00001100
00000000
00000110
,
00000000
00000001
00000000
00000100
00000000
00000001
00000100
00000010
,
00001000
00000010
00000000
00000100
00000000
00001000
00000000
01000000
,
00000000
00100000
00000000
01000000
00000000
00010000
10000000
00010000
,
00000000
11000000
00000000
00110000
00000000
00011000
00000000
00001100
,
00000000
00000100
00000000
00001000
00000000
00000010
00000100
00000001
,
00000010
00000001
00000010
00000000
00000100
00000000
00001000
00000000
,
00000001
00000000
00000100
00000000
00001000
00010000
00100000
00000000
,
01100000
01100000
00010000
00100000
,
01000000
00000000
10000000
00000000
00010000
01000000
00010000
00000000
,
10000000
00100000
10000000
00000000
00100000
00000000
00010000
00000000
,
00001000
00000000
00000010
00000000
00000100
00001000
00000010
00000000
,
00000110
00000110
00000001
00000100
,
00000010
00000000
00001000
00000000
00000100
00010000
00000100
00000000
,
00001000
01000000
00100000
01000000
,
00010000
00000000
00100000
00000000
01000000
10000000
01000000
00000000
,
10000000
01000000
00100000
00010000
,
00001000
00000000
00000100
00000000
00000010
00000100
00001000
00000000
,
00000010
00000100
00000001
00000100
00000000
00000010
00000000
00000010
,
00000000
00000100
00000000
00000100
00000000
00000001
00000100
00001000
,
00010000
00001000
00010000
00001000
00000000
00100000
00000000
00100000
,
00000000
00020000
00000000
00000000
10000000
00000000
10030000
00000000
,
01100000
00000000
00000000
00000000
,
10000000
01000000
00010000
00000000
00001000
00000100
00000001
00000000
,
00000010
00000001
00001000
00001000
,
00000001
00000010
00001000
00000000
00010000
00100000
10000000
00000000
,
00010000
01000000
00100000
00100000
,
20000000
01000000
01000000
31000000
,
00100000
00001000
00010000
00001000
,
00000200
00000010
00000010
00000310
,
00001000
00000100
00000010
00000001
,
00000100
00000010
00000100
00000001
,
00000010
00000100
00001000
00000000
00000100
00010000
00001000
00000000
,
00010000
01000000
00010000
00000100
,
00010000
00001000
00010000
01000000
00000000
00100000
00000000
00010000
,
00000000
01000000
00000000
00100000
00000000
01000000
00010000
01000000
,
00000000
10100000
00000000
01100000
00000000
00110000
00000000
00011000
,
00000000
00010000
00000000
00001000
00000000
00000100
00000010
00001000
,
00000100
00000010
00000000
00000001
00000000
00000010
00000000
00000100
,
00000000
00000010
00000000
00000001
00000000
00000100
00000010
00000100
,
00000000
00000110
00000000
00001100
00000000
00011000
00000000
00110000
,
00000000
01000000
00000000
00100000
00000000
00010000
01000000
10000000
,
01000000
00100000
01000000
00000000
00010000
00000000
10000000
00000000
,
01000000
00000000
10000000
00000000
00010000
00100000
00001000
00000000
,
00011000
00011000
00001000
00010000
,
01000000
00000000
00010000
00000000
00000010
00000100
00000010
00000000
,
00001000
00000100
00001000
00000000
00000010
00000000
00000100
00000000
,
00000001
00000000
00000100
00000000
00001000
00000100
00000001
00000000
,
00000011
00000011
00000100
00001000
,
00000010
00000000
00010000
00000000
00001000
00010000
00001000
00000000
,
00011000
00000000
00000000
00000000
;

//---------------dance-double - ----------------
#NOTES:
     dance-double:
     :
     Hard:
     8:
     :
00000000
00000000
00000000
00000000
,
00000000
00000000
00000000
00000000
,
00000000
00000000
00000000
00000000
,
00000010
00000000
00000000
00000001
00000100
00000000
00000000
00001000
,
00010000
00000000
00001000
00100000
01000000
10000000
00100000
01000000
,
00100000
00000000
10000000
00000000
00010000
00000000
00000000
00100000
00000000
00000000
00001000
00000000
01000000
00000000
00000000
00100000
,
00000000
00000000
10000000
00000000
01000000
00000000
00000000
00010000
00000000
00000000
00001000
00000000
00010000
00000000
00000000
00001000
,
00000000
00000000
00000100
00000000
00000001
00000000
00000000
00000010
00000000
00000000
00000100
00000000
00001000
00000000
00000000
00000001
,
00000000
00000000
00000100
00000000
00000010
00000000
00000000
00010000
00000000
00000000
00001000
00000000
00000100
00000000
00000000
00000001
,
00000000
00000000
00000010
00000000
00000100
00000000
00000000
00010000
00000000
00000000
00001000
00000000
00010000
00000000
00000000
00000100
,
00000000
00000000
00010000
00000000
00001000
00000000
00000000
01000000
00000000
00000000
00100000
00000000
00010000
00000000
00000000
00001000
,
00000000
00000000
00100000
00000000
01000000
00000000
00000000
10000000
00000000
00000000
01000000
00000000
00010000
00000000
00001000
00000000
,
00000100
00000010
00000110
00001001
,
00000010
00000001
00000100
00000010
00000001
00000010
00001000
00000100
,
00000001
00000000
00000100
00000000
00001000
00000000
00000010
00000000
00010000
00000000
00001000
00000000
00100000
00000000
00000000
01000000
,
00000000
10000000
00100000
01000000
00001000
00100000
00010000
00100000
,
10000000
00000000
00100000
00000000
01000000
00000000
10000000
00000000
00100000
00000000
00010000
00000000
00001000
00000000
00000000
01000000
,
00000000
00001000
00010000
01000000
00100000
00001000
00010000
00000010
,
00000100
00000000
00001000
00000000
00000100
00000000
00000001
00000000
00000010
00000000
00000100
00000000
00010000
00000000
00000000
00001000
,
00000000
00000010
00000001
00000100
00000010
00001000
00000001
00000100
,
00001000
00010000
01000000
10000000
,
00010000
10000000
00100000
00010000
00000000
00001000
00010000
00001000
,
01000000
00000000
00100000
00000000
01000000
00000000
00000000
00010000
00000000
00000000
10000000
00000000
01000000
00000000
00000000
00000000
,
00100000
00001000
00010000
00000010
00000000
00000100
00000001
00000100
,
00000010
00000000
00010000
00000000
00000010
00000000
00000000
00001000
00000000
00000000
00000100
00000000
00000010
00000000
00000000
00000000
,
00000001
00000100
00000010
00000100
00000000
00000001
00000010
00000001
,
00000000
00001000
00000100
00001000
00000000
00000010
00010000
00000010
,
00001000
00000100
00010000
00000100
00000000
00010000
00001000
00010000
,
00000000
00001000
00100000
00001000
00000000
01000000
00100000
01000000
,
00010000
00000000
10000000
01000000
,
00010000
00000000
00001000
00000100
,
00000001
00000000
00000010
00000100
,
00010000
00000000
00001000
01000000
,
00100000
00000000
10000000
00000000
01000000
00000000
00000000
10000000
00000000
00010000
00000000
00000000
01000000
00000000
00001000
00000000
,
00000000
00000000
00010000
00000000
00000100
00000000
00000000
00000010
00000000
00000001
00000000
00000000
00000100
00000000
00000010
00000000
,
00000000
00000000
00001000
00000000
00000001
00000000
00000000
00000010
00000000
00001000
00000000
00000000
00010000
00000000
00001000
00000000
,
00000000
00000000
01000000
00000000
00001000
00000000
00000000
00100000
00000000
01000000
00000000
00000000
10000000
00000000
00010000
00000000
,
00000000
00000000
00100000
00000000
01000000
00000000
00000000
10000000
00000000
00100000
00000000
00000000
01000000
00000000
00001000
00000000
,
00000000
00000000
00100000
00000000
00010000
00000000
00000000
10000000
00000000
00100000
00000000
00000000
00010000
00000000
00001000
00000000
,
00000000
00000000
00000010
00000000
00000001
00000000
00000000
00000100
00000000
00000010
00000000
00000000
00000100
00000000
00000001
00000000
,
00000000
00000000
00001000
00000000
00000100
00000000
00000000
00010000
00000000
00001000
00000000
00000000
00000100
00000000
00000001
00000000
,
00000000
00000000
00000010
00000000
00000100
00000000
00000000
00010000
00000000
00000000
00000010
00000000
00000100
00000000
00000000
00000001
,
00000000
00000000
00001000
00000000
00000100
00000000
00000000
00000010
00000000
00000000
00000001
00000000
00000100
00000000
00000000
00001000
,
00000000
00000000
00010000
00000000
00001000
00000000
00000000
00100000
00000000
00000000
01000000
00000000
00010000
00000000
00000000
01000000
,
00000000
00000000
10000000
00000000
00100000
00000000
00000000
00010000
00000000
00000000
00001000
00000000
01000000
00000000
00000000
00100000
,
00000000
00000000
01000000
00000000
00010000
00000000
10000000
01000000
00000000
00000000
00100000
00000000
00001000
00000000
00010000
00000100
,
00000000
00000000
00000010
00000000
00000001
00000000
00001000
00000100
00000000
00000000
00000010
00000000
00000001
00000000
00000000
00000010
,
00000000
00000000
00000100
00000000
00010000
00000000
00001000
00000100
00000000
00000000
00000001
00000000
00000010
00000000
00000100
00010000
,
00000000
00000000
00001000
00000000
01000000
00000000
00010000
00100000
00000000
00000000
01000000
00000000
10000000
00000000
00000000
01000000
,
00000000
00100000
00010000
01000000
10000000
01000000
00010000
00100000
,
00001000
00000000
00010000
00000000
00000010
00000000
00001000
00000000
00000100
00000000
00000001
00000000
00000100
00000000
00000000
00001000
,
00000000
00000001
00000010
00001000
00010000
00001000
00100000
00001000
,
00010000
00000000
00000010
00000000
00000100
00000000
00000001
00000000
00000100
00000000
00001000
00000000
00010000
00000000
00000000
00000100
,
00000000
00000010
00001000
00010000
00100000
00010000
00001000
00000010
,
00000001
00000000
00000100
00000000
00000010
00000000
00010000
00000000
00001000
00000000
01000000
00000000
00100000
00000000
00000000
10000000
,
00000000
00000000
01000000
00000000
00100000
00000000
00000000
00001000
00000000
00000000
00010000
00000000
01000000
00000000
00000000
10000000
,
00000000
00000000
00100000
00000000
01000000
00000000
00000000
00001000
00000000
00000000
00010000
00000000
00001000
00000000
00000100
00000000
,
00000001
00000000
00000000
00000000
;
