#TITLE:Sunshine In London;
#ARTIST:The Sunchasers feat. Victoria Pope;
#BANNER:Sunshine In London.png;
#BACKGROUND:Sunshine In London-bg.png;
#CDTITLE:./CDTITLES/Dance Dance Revolution UNIVERSE 2.png;
#MUSIC:Sunshine In London.ogg;
#SAMPLESTART:90.469;
#SAMPLELENGTH:15;
#BPMS:0=128;

//---------------dance-single - ----------------
#NOTES:
     dance-single:
     :
     Beginner:
     1:
     :
0000
0000
0000
0000
,
0000
0000
0000
0000
,
0000
0000
0000
0000
,
0000
0000
0000
0000
,
0000
0000
0000
0000
,
1000
0000
0000
0000
,
0010
0000
0001
0000
,
0010
0000
0000
0000
,
0100
0000
0100
0100
,
0100
0000
0000
0000
,
1000
0000
0001
0000
,
1000
0000
0000
0000
,
0010
0000
0100
0000
,
0010
0000
0000
0000
,
0001
0000
0000
0000
,
1000
0000
0000
0000
,
0010
0000
0100
0100
,
0100
0000
0000
0000
,
0010
0000
0001
0000
,
0010
0000
0000
0000
,
1000
0000
0100
0000
,
0001
0000
0000
0000
,
1000
0000
0010
0000
,
1000
0000
0100
0000
,
1000
1000
1000
0000
,
0001
0000
0100
0000
,
0010
0000
0100
0100
,
0100
0000
0000
0000
,
1000
0000
0000
0000
,
0020
0000
0000
0030
,
0010
0000
0000
0000
,
1000
0000
0001
0000
,
1000
0000
0010
0010
,
0010
0000
0000
0000
,
0001
0000
1000
0000
,
0001
0000
0000
0000
,
0100
0000
0010
0000
,
0100
0000
0000
0000
,
1000
0000
0000
0000
,
0001
0000
0000
0000
,
0100
0000
0010
0010
,
0010
0000
0000
0000
,
0100
0000
1000
0000
,
0100
0000
0000
0000
,
0001
0000
0010
0000
,
1000
0000
0000
0000
,
0001
0000
0100
0000
,
1000
0000
0000
0000
,
0001
0001
0001
0000
,
0001
0000
0100
0000
,
0010
0000
0100
0100
,
0100
0000
0000
0000
,
1000
0000
0000
0000
,
0020
0000
0000
0030
,
0010
0000
0000
0000
,
1000
0000
0001
0000
,
1000
0000
0010
0010
,
0020
0000
0000
0030
,
0010
0000
0100
0000
,
0010
0000
0000
0000
;

//---------------dance-single - ----------------
#NOTES:
     dance-single:
     :
     Easy:
     4:
     :
0000
0000
0000
0000
,
0000
0000
0000
0000
,
0000
0000
0000
0000
,
0000
0000
0000
0000
,
0000
0000
0000
0000
,
2000
0000
0000
3000
,
0001
0000
0010
0000
,
0100
1000
0100
0000
,
1001
0000
0000
0010
,
0100
1000
0100
0010
,
0001
0000
0100
0000
,
0010
0000
0000
1000
,
1000
1000
0100
1000
,
0010
0000
0000
0001
,
0100
0000
1000
0000
,
0010
0100
0010
0100
,
0001
0100
1000
0000
,
1001
0000
0010
0100
,
1000
0000
0001
0100
,
0010
0000
0100
0010
,
0001
0001
1000
0001
,
1000
0000
0010
0100
,
0110
0000
1001
0000
,
0100
0100
0100
0010
,
1000
0001
1000
0001
,
1000
0020
0000
0000
,
0130
0001
0100
1000
,
0001
0001
1000
1000
,
0001
1000
0010
0100
,
0002
0003
0020
0030
,
0100
1000
0100
0001
,
0200
0300
2000
3000
,
0010
0010
0010
0100
,
0010
0001
0010
0100
,
1000
0000
0010
0000
,
0100
0000
0000
0001
,
0001
0001
0010
0001
,
0100
0000
0000
1000
,
0010
0000
0001
0000
,
0100
0010
0100
0010
,
1000
0010
0001
0000
,
1001
0000
0100
0010
,
0001
0000
1000
0010
,
0100
0000
0010
0100
,
1000
1000
0001
1000
,
0001
0000
0100
0010
,
0110
0000
1001
0000
,
0110
0000
0000
0000
,
0001
1000
0001
1000
,
0001
0200
0000
0000
,
0310
1000
0010
0001
,
1000
1000
0001
0001
,
1000
0001
0100
0010
,
2000
3000
0200
0300
,
0010
0001
0010
1000
,
0020
0030
0002
0003
,
0100
0100
0100
0010
,
1000
0001
1000
0100
,
0001
1000
0001
0100
,
0010
0000
0000
0000
;

//---------------dance-single - ----------------
#NOTES:
     dance-single:
     :
     Medium:
     6:
     :
0000
0000
0000
0000
,
0000
0000
0000
0000
,
0000
0000
0000
0000
,
0000
0000
0000
0000
,
0000
0000
0000
0000
,
0020
0000
0130
0010
,
1000
0100
1000
0010
,
0001
0100
0000
0010
,
0110
0000
0000
0000
0000
0100
0100
0000
,
0001
1000
0100
0010
,
1000
0100
1000
0000
0001
0000
1000
0000
,
1010
0000
0100
0100
,
1000
0000
0001
0000
0100
0000
0001
0010
,
0001
0000
0000
0100
,
0002
0023
0230
2300
,
3100
0000
1000
0000
0010
0100
0001
0000
,
1000
0000
0001
0000
0000
1000
0001
0000
,
0100
0000
0100
0000
0010
1000
0010
0000
,
1000
0100
0001
0100
,
0001
0000
1000
0000
0100
1000
0100
0000
,
0010
0100
1000
0001
,
1001
0000
0100
0000
0100
0000
0001
0010
,
0100
0000
1000
0010
0100
0000
1000
0000
,
0001
0100
1000
0001
,
1001
0000
0000
0000
0010
0100
0010
0000
,
1000
0100
0010
0100
,
1000
0000
0010
0000
0100
0001
0100
0000
,
0010
1000
0100
1000
,
0010
0000
0100
0001
0100
0000
1000
0100
,
1000
0000
0001
0000
1000
0000
0001
1000
,
0001
0000
0100
0000
1000
0000
0010
1000
,
0100
0000
0010
0001
0100
0000
1000
0000
,
0001
0000
0000
0000
0000
1000
0001
0000
,
1000
0001
0010
0100
,
0001
0010
0001
0000
1000
0000
0001
0000
,
0101
0000
0010
0010
,
0001
0000
1000
0000
0010
0000
1000
0100
,
1000
0000
0000
0010
,
2000
3200
0320
0032
,
0013
0000
0001
0000
0100
0010
1000
0000
,
0001
0000
1000
0000
0000
0001
1000
0000
,
0010
0000
0010
0000
0100
0001
0100
0000
,
0001
0010
1000
0010
,
1000
0000
0001
0000
0010
0001
0010
0000
,
0100
0010
0001
1000
,
1001
0000
0010
0000
0010
0000
1000
0100
,
0010
0000
0001
0100
0010
0000
0001
0000
,
0200
0000
0300
0000
,
1001
0000
0000
0000
0100
0010
0100
0000
,
0001
0010
0100
0010
,
0001
0000
0100
0000
0010
1000
0010
0000
,
0100
0001
0010
0001
,
0100
0000
0010
1000
0010
0000
0001
0010
,
0001
0000
1000
0000
0001
0000
1000
0001
,
1000
0000
0010
0000
0001
0000
0100
0001
,
0010
0000
0100
1000
0010
0000
0001
0000
,
1000
0000
0000
0000
0000
0001
1000
0000
,
0001
0010
1000
0100
,
0001
0010
1000
0100
,
0011
0000
0000
0000
;

//---------------dance-single - ----------------
#NOTES:
     dance-single:
     :
     Hard:
     7:
     :
0000
0000
0000
0000
,
0000
0000
0000
0000
,
0000
0000
0000
0000
,
0000
0000
0000
0000
,
0000
0000
0000
0000
,
1000
0000
0001
0000
1000
0000
0100
1000
,
0010
0000
0100
0001
0010
0000
1000
0001
,
0100
1000
0010
0100
,
1001
0000
0000
0000
0000
0001
0010
0000
,
0100
1000
0100
0000
0010
0000
0010
0000
,
0001
1000
0100
0010
,
0001
0000
1000
0100
,
1000
0000
0001
0000
0010
0100
1000
0001
,
0100
0000
0010
0000
1000
0000
0100
0001
,
0010
0000
0100
1000
0010
0000
0100
0001
,
0010
0000
1000
0000
0001
0000
0100
1000
,
0010
0000
0100
0000
0100
0000
0001
0010
,
0100
1000
0001
0100
1000
0000
0001
0000
,
1000
0010
0100
0000
1000
0010
0100
0000
,
0001
0000
0100
0000
1000
0001
0010
0000
,
1001
0110
1001
0110
,
1000
0100
1000
0000
0010
0001
0010
0000
,
0100
1000
0001
0010
0100
0000
1000
0000
,
0001
0100
1000
0100
,
0001
0000
1000
0001
0100
0001
1000
0000
,
0001
0100
0001
0000
1000
0100
1000
0000
,
0110
0000
0110
0000
1000
0100
0010
0000
,
0001
0010
0100
1000
,
0100
1000
0010
0000
0001
0000
1000
0000
,
0001
0010
0001
0000
1000
0010
1000
0000
,
0100
0000
0010
0000
0001
0100
1000
0000
,
1000
0010
0100
0001
,
1001
0000
0000
0000
0000
0100
0100
0000
,
0010
0001
0010
0000
0100
0000
0100
0000
,
1000
0001
0010
0100
,
1000
0000
0001
0010
,
0001
0000
1000
0000
0100
0010
0001
1000
,
0010
0000
0100
0000
0001
0000
0010
1000
,
0100
0000
0010
0001
0100
0000
0010
1000
,
0100
0000
0001
0000
1000
0000
0010
0001
,
0100
0000
0010
0000
0010
0000
1000
0100
,
0010
0001
1000
0010
0001
0000
1000
0000
,
0001
0100
0010
0000
0001
0100
0010
0000
,
1000
0000
0010
0000
0001
1000
0100
0000
,
1001
0110
1001
0110
,
0001
0010
0001
0000
0100
1000
0100
0000
,
0010
0001
1000
0100
0010
0000
0001
0000
,
2002
0000
0000
3003
,
1000
0000
0001
1000
0010
1000
0001
0000
,
1000
0010
1000
0000
0001
0010
0001
0000
,
0110
0000
0110
0000
0001
0010
0100
0000
,
1000
0100
0010
0001
,
0010
0001
0100
0000
1000
0000
0001
0000
,
1000
0100
1000
0000
0001
0100
0001
0000
,
0010
0000
0100
0000
1000
0010
0001
0000
,
0001
0100
0010
1000
,
1001
0000
0000
0000
0000
0010
0010
0000
,
1000
0100
1000
0000
0010
0001
0010
0000
,
0001
0100
0001
0000
0010
1000
0010
0000
,
1001
0000
0000
0000
;

//---------------dance-double - ----------------
#NOTES:
     dance-double:
     :
     Beginner:
     1:
     :
00000000
00000000
00000000
00000000
,
00000000
00000000
00000000
00000000
,
00000000
00000000
00000000
00000000
,
00000000
00000000
00000000
00000000
,
00000000
00000000
00000000
00000000
,
00000100
00000000
00000000
00000000
,
00000010
00000000
00010000
00000000
,
00000010
00000000
00000000
00000000
,
00010000
00000000
00001000
00001000
,
00001000
00000000
00000000
00000000
,
00100000
00000000
00010000
00000000
,
01000000
00000000
00000000
00000000
,
00100000
00000000
10000000
00000000
,
00100000
00000000
00000000
00000000
,
01000000
00000000
00000000
00000000
,
00001000
00000000
00000000
00000000
,
00010000
00000000
00000100
00000100
,
00000100
00000000
00000000
00000000
,
00000010
00000000
00000001
00000000
,
00000010
00000000
00000000
00000000
,
00000100
00000000
00010000
00000000
,
00000100
00000000
00000000
00000000
,
00010000
00000000
00001000
00000000
,
01000000
00000000
00010000
00000000
,
00100000
00100000
00100000
00000000
,
01000000
00000000
10000000
00000000
,
00100000
00000000
01000000
01000000
,
01000000
00000000
00000000
00000000
,
00001000
00000000
00000000
00000000
,
00020000
00000000
00000000
00030000
,
00010000
00000000
00000000
00000000
,
00000100
00000000
00000010
00000000
,
00000100
00000000
00001000
00001000
,
00001000
00000000
00000000
00000000
,
00000001
00000000
00000100
00000000
,
00000001
00000000
00000000
00000000
,
00001000
00000000
00000100
00000000
,
00001000
00000000
00000000
00000000
,
00000010
00000000
00000000
00000000
,
00010000
00000000
00000000
00000000
,
00001000
00000000
01000000
01000000
,
01000000
00000000
00000000
00000000
,
00100000
00000000
10000000
00000000
,
00100000
00000000
00000000
00000000
,
10000000
00000000
01000000
00000000
,
00100000
00000000
00000000
00000000
,
00001000
00000000
00010000
00000000
,
00000100
00000000
00000000
00000000
,
00000010
00000010
00000010
00000000
,
00001000
00000000
00000100
00000000
,
00000010
00000000
00000001
00000001
,
00000001
00000000
00000000
00000000
,
00001000
00000000
00000000
00000000
,
00000200
00000000
00000000
00000300
,
00000100
00000000
00000000
00000000
,
00010000
00000000
00001000
00000000
,
00100000
00000000
00010000
00010000
,
00020000
00000000
00000000
00030000
,
00010000
00000000
10000000
00000000
,
01000000
00000000
00000000
00000000
;

//---------------dance-double - ----------------
#NOTES:
     dance-double:
     :
     Easy:
     4:
     :
00000000
00000000
00000000
00000000
,
00000000
00000000
00000000
00000000
,
00000000
00000000
00000000
00000000
,
00000000
00000000
00000000
00000000
,
00000000
00000000
00000000
00000000
,
00000200
00000000
00000000
00000300
,
00001000
00000000
00000010
00000000
,
00000100
00000001
00000100
00000000
,
00000110
00000000
00000000
00010000
,
00001000
00100000
00010000
01000000
,
00100000
00000000
10000000
00000000
,
00010000
00000000
00000000
00100000
,
00100000
00100000
00001000
00010000
,
00001000
00000000
00000000
00010000
,
00000100
00000000
00000010
00000000
,
00000100
00001000
00000100
00001000
,
00000001
00000100
00000010
00000000
,
00000110
00000000
00010000
00001000
,
00010000
00000000
00001000
00100000
,
00010000
00000000
10000000
00100000
,
01000000
00010000
00100000
00010000
,
00100000
00000000
00001000
00010000
,
00011000
00000000
00000110
00000000
,
00000010
00000010
00000010
00000100
,
00001000
00000001
00001000
00000001
,
00000100
00000020
00000000
00000000
,
00001030
00000100
00010000
00001000
,
00010000
00010000
01000000
01000000
,
00100000
00010000
10000000
00100000
,
02000000
03000000
00020000
00030000
,
00100000
00001000
00010000
00000100
,
00000020
00000030
00000200
00000300
,
00001000
00001000
00001000
00000100
,
00000001
00000100
00001000
00000010
,
00000100
00000000
00010000
00000000
,
01000000
00000000
00000000
00100000
,
00100000
00100000
10000000
00010000
,
01000000
00000000
00000000
00010000
,
00100000
00000000
00001000
00000000
,
00010000
00001000
00010000
00001000
,
00000100
00000010
00001000
00000000
,
00001001
00000000
00000010
00000100
,
00001000
00000000
00000010
00000100
,
00010000
00000000
01000000
00100000
,
01000000
01000000
00010000
10000000
,
01000000
00000000
10000000
00010000
,
10010000
00000000
01100000
00000000
,
00011000
00000000
00000000
00000000
,
00010000
00001000
00010000
00001000
,
00010000
00002000
00000000
00000000
,
00003100
00000010
00001000
00000100
,
00000010
00000010
00000100
00000100
,
00001000
00000010
00000100
00000001
,
00000200
00000300
00000020
00000030
,
00010000
00001000
00100000
00010000
,
02000000
03000000
00200000
00300000
,
10000000
10000000
10000000
01000000
,
00010000
00001000
00000010
00000001
,
00001000
00000010
00000100
00000010
,
00001000
00000000
00000000
00000000
;

//---------------dance-double - ----------------
#NOTES:
     dance-double:
     :
     Medium:
     6:
     :
00000000
00000000
00000000
00000000
,
00000000
00000000
00000000
00000000
,
00000000
00000000
00000000
00000000
,
00000000
00000000
00000000
00000000
,
00000000
00000000
00000000
00000000
,
00002000
00000000
00003010
00000100
,
00000001
00000010
00000001
00000100
,
00000010
00000100
00000000
00001000
,
00001100
00000000
00000000
00000000
00000000
00001000
00010000
00000000
,
00001000
00100000
01000000
10000000
,
00010000
00100000
00010000
00000000
10000000
00000000
00100000
00000000
,
01100000
00000000
01000000
01000000
,
00010000
00000000
00100000
00000000
00001000
00000000
00010000
00001000
,
00010000
00000000
00000000
00000100
,
00002000
00003020
00000230
00000302
,
00000013
00000000
00000001
00000000
00001000
00000100
00000010
00000000
,
00000100
00000000
00010000
00000000
00000000
00001000
00010000
00000000
,
00001000
00000000
00001000
00000000
01000000
00010000
01000000
00000000
,
00100000
10000000
00100000
00010000
,
00100000
00000000
01000000
00000000
00010000
00100000
00010000
00000000
,
00100000
00001000
00010000
00001000
,
00011000
00000000
00000100
00000000
00000100
00000000
00001000
00000010
,
00000100
00000000
00000010
00000100
00000001
00000000
00000010
00000000
,
00000100
00001000
00000010
00000100
,
00000110
00000000
00000000
00000000
00010000
00001000
00010000
00000000
,
00001000
01000000
00100000
10000000
,
00010000
00000000
10000000
00000000
01000000
00100000
01000000
00000000
,
10000000
01000000
00010000
00000100
,
00000010
00000000
00000001
00000010
00000001
00000000
00001000
00000100
,
00001000
00000000
00000010
00000000
00010000
00000000
00001000
00010000
,
00001000
00000000
01000000
00000000
00001000
00000000
00010000
00001000
,
00000100
00000000
00001000
00010000
01000000
00000000
00100000
00000000
,
00010000
00000000
00000000
00000000
00000000
10000000
01000000
00000000
,
10000000
00100000
01000000
00100000
,
01000000
00010000
01000000
00000000
00010000
00000000
00100000
00000000
,
00011000
00000000
00010000
00010000
,
00001000
00000000
00010000
00000000
00000100
00000000
00000010
00000100
,
00000010
00000000
00000000
00001000
,
00000002
00000203
00000320
00002030
,
00003100
00000000
00000100
00000000
00001000
00000100
00010000
00000000
,
00001000
00000000
00100000
00000000
00000000
00001000
00010000
00000000
,
00001000
00000000
00001000
00000000
00100000
00010000
00100000
00000000
,
00010000
00100000
10000000
00100000
,
00010000
00000000
01000000
00000000
10000000
01000000
10000000
00000000
,
01000000
00010000
00100000
00001000
,
00011000
00000000
00001000
00000000
00001000
00000000
00010000
00000100
,
00000010
00000000
00000100
00000010
00000001
00000000
00000100
00000000
,
00000002
00000000
00000003
00000000
,
00001100
00000000
00000000
00000000
00000100
00010000
00000100
00000000
,
00010000
00001000
01000000
00100000
,
01000000
00000000
00010000
00000000
00100000
01000000
00100000
00000000
,
01000000
10000000
00010000
01000000
,
00100000
00000000
01000000
00001000
01000000
00000000
00010000
00100000
,
00010000
00000000
00100000
00000000
00001000
00000000
00010000
00001000
,
00010000
00000000
00001000
00000000
00000100
00000000
00000010
00001000
,
00000100
00000000
00000010
00000001
00000100
00000000
00000001
00000000
,
00001000
00000000
00000000
00000000
00000000
00000100
00000010
00000000
,
00001000
00000100
00000001
00000100
,
00010000
00001000
01000000
10000000
,
01100000
00000000
00000000
00000000
;

//---------------dance-double - ----------------
#NOTES:
     dance-double:
     :
     Hard:
     7:
     :
00000000
00000000
00000000
00000000
,
00000000
00000000
00000000
00000000
,
00000000
00000000
00000000
00000000
,
00000000
00000000
00000000
00000000
,
00000000
00000000
00000000
00000000
,
00000010
00000010
00000100
00000100
,
00001000
00010000
00001000
01000000
,
00100000
00000000
01000000
00000000
00100000
00000000
20000000
00020000
,
00000000
00000000
00000000
00000000
30030000
01000000
01000000
00000000
,
00010000
00000000
01000000
00000000
00001000
00001000
00001000
00000000
,
00000010
00000000
00000100
00000000
00000010
00000001
00000010
00000001
,
00000100
00001000
00010000
00001000
,
00100000
00100000
00010000
00000000
10000000
10000000
00100000
10000000
,
00010000
00000000
01000000
00000000
00001000
00000000
00010000
00002000
,
00000000
00003000
00000010
00000002
00000000
00000003
00000100
00001000
,
00010000
00001000
00100000
00110000
,
01000000
00000000
11000000
00000000
00000000
00010000
00100000
00010000
,
00110000
00000000
00101000
00000000
00010000
00000000
00001000
00010000
,
01000000
10000000
00100000
10000000
01000000
00010000
00001000
00000100
,
00000001
00000000
00000001
00000000
00001000
00000100
00000010
00000000
,
00000001
00000010
00000100
00000000
00001000
00000100
00010000
00000000
,
00001000
00001000
01000000
01000000
,
00010000
00100000
01000000
00000000
10000000
00100000
01000000
00000000
,
00010000
10000000
00100000
00000000
10000000
01000000
00010000
00001000
,
00000100
00000000
00000000
00000000
,
00000011
00001020
00000100
00001030
,
00000001
00000000
00000100
00000000
00001000
00000001
00000100
00001000
,
00010000
00010000
01000000
01000000
10000000
00100000
01000000
00010000
,
00000000
00100000
01000000
00000000
10000000
01000000
00010000
00001000
,
00010000
00000000
00010000
00000010
00000000
00000010
00001000
00000000
,
00000100
00001000
00000100
00000000
00010000
00001000
00010000
00000000
,
00100000
00010000
00100000
01000000
10000000
00100000
10000000
00000000
,
01100000
00000000
00000000
00000000
00000000
00100000
00100000
00000000
,
10010000
00000000
01000000
00000000
10000000
01000000
00010000
00001000
,
00000100
00000100
00000001
00000001
00000010
00000010
00000001
00001000
,
00000100
00000000
00010000
00000000
00000010
00001000
00001000
00000000
,
00000001
00000100
00000100
00000000
00001000
00010000
00010000
00000000
,
00100000
00000000
00010000
00000000
00001000
00000000
00010000
01000000
,
00100000
00000000
00010000
10000000
01000000
00000000
01000000
00010000
,
00001000
00000100
00000001
00000010
,
00001000
00000000
00010000
00000000
01000000
00000000
10000000
00010000
,
00110000
00000000
01100000
00000000
01000000
00100000
00010000
00000000
,
00100000
00001000
00010000
00001000
00000000
00000100
00000001
00000010
,
00000100
00000000
00010000
00000000
00001000
00000000
00100000
00001000
,
00000000
00010000
00000000
00001000
00000000
00010000
00000100
00010000
,
00001000
00000000
01000000
00000000
00100000
10000000
01000000
00000000
,
10000000
00100000
01000000
00000000
01000000
00100000
00010000
00000000
,
00011000
00000000
00000000
00000000
,
00100000
00100000
00100000
00100000
,
10100000
00210000
01000000
00310000
,
10000000
00000000
01000000
00000000
00010000
10000000
01000000
00010000
,
00001000
00001000
00000100
00000100
00000001
00000010
00000100
00001000
,
00000000
00000010
00000100
00000000
00000001
00000100
00001000
00010000
,
00001000
00000000
00001000
00100000
00000000
00100000
00010000
00000000
,
01000000
00010000
01000000
00000000
00001000
00010000
00001000
00000000
,
00000010
00001000
00000010
00000100
00000001
00000010
00000001
00001000
,
00000010
00000100
00001000
00010000
,
00011000
00000000
00000000
00000000
;
