#TITLE:Summer Girl;
#ARTIST:Neverakka;
#BANNER:Summer Girl.png;
#BACKGROUND:Summer Girl-bg.png;
#CDTITLE:./CDTITLES/Dance Dance Revolution UNIVERSE 2.png;
#MUSIC:Summer Girl.ogg;
#SAMPLESTART:72;
#SAMPLELENGTH:15;
#BPMS:0=135;

//---------------dance-single - ----------------
#NOTES:
     dance-single:
     :
     Beginner:
     1:
     :
0000
0000
0000
0000
,
0000
0000
0000
0000
,
0000
0000
0000
0000
,
0000
0000
0000
0000
,
0000
0000
0000
0000
,
0001
0000
0000
0000
,
1000
0000
0000
0000
,
1000
0000
0000
0000
,
0001
0000
0000
0000
,
1000
0000
0000
0000
,
0100
0000
0000
0000
,
0010
0000
0000
0000
,
0001
0000
0000
0000
,
0100
0000
0000
0000
,
0010
0000
0000
0000
,
1000
0000
0000
0000
,
0001
0000
0000
0000
,
0001
0000
0000
0000
,
0010
0000
0000
0000
,
0100
0000
0000
0000
,
1000
0000
0000
0000
,
0010
0000
0000
0000
,
0100
0000
0000
0000
,
0001
0000
0000
0000
,
1000
0000
0000
0000
,
1001
0000
0000
0000
,
0010
0000
0000
0000
,
0100
0000
0000
0000
,
0001
0000
0000
0000
,
1000
0000
0000
0000
,
0100
0000
0000
0000
,
0010
0000
0000
0000
,
0001
0000
0000
0000
,
1001
0000
0000
0000
,
0010
0010
0010
0000
,
0001
0000
0000
0000
,
1000
1000
1000
0000
,
1001
0000
0000
0000
,
0100
0100
0100
0000
,
0001
0000
0000
0000
,
1000
1000
1000
0000
,
1001
0000
0000
0000
,
0000
0010
0000
0000
,
0100
0000
0000
0000
,
0001
0000
0000
0000
,
0010
0000
0000
0000
,
0100
0000
0000
0000
,
1000
0000
0000
0000
,
0001
0000
0000
0000
,
1001
0000
0000
0000
,
0100
0000
0000
0000
,
0010
0000
0000
0000
,
1000
0000
0000
0000
,
0001
0000
0000
0000
,
0010
0000
0000
0000
,
0100
0000
0000
0000
,
1000
0000
0000
0000
,
1001
0000
0000
0000
;

//---------------dance-single - ----------------
#NOTES:
     dance-single:
     :
     Easy:
     3:
     :
0000
0000
0000
0000
,
0000
0000
0000
0000
,
0000
0000
0000
0000
,
0000
0000
0000
0000
,
0000
0000
0001
1000
,
0010
0000
0100
0001
,
0010
0000
0001
1000
,
0010
0000
0100
0001
,
0010
0000
0001
0000
,
1000
0000
0010
0000
,
0100
0000
0001
0000
,
1000
0000
0100
0000
,
0010
0000
1001
0000
,
0100
0000
0001
0000
,
0010
0000
0100
0000
,
1000
0000
0001
0000
,
0010
0000
1000
0000
,
0001
0000
0100
0000
,
0010
0000
1000
0000
,
0010
0000
0100
0000
,
0010
0000
0001
0000
,
1000
0000
0100
0000
,
0001
0000
0100
0000
,
0010
0000
0100
0000
,
1000
0000
0001
0000
,
1001
0000
1000
0010
,
0100
0000
1000
0001
,
0010
0000
0100
0001
,
0010
0000
0001
1000
,
0010
0000
0100
1000
,
0001
0000
0010
0100
,
0001
0000
0100
0010
,
1000
0000
0001
0000
,
1001
1000
0010
0001
,
0010
0010
0010
0100
,
0001
1000
0010
0100
,
0001
0001
0001
0010
,
1001
0001
0100
1000
,
0100
0100
0100
0010
,
0001
1000
0100
0010
,
1000
1000
1000
0100
,
1001
0001
0010
0100
,
0001
0100
1000
0010
,
0100
0001
1000
0010
,
0100
0010
1000
0001
,
1001
1000
0100
0010
,
0001
0100
1000
0001
,
0010
0100
1000
0100
,
0001
0010
0100
1000
,
1001
0000
0100
0000
,
0001
0000
0010
0000
,
0100
0000
0001
0000
,
1000
0000
0010
0000
,
1001
0000
0010
0000
,
1000
0000
0100
0000
,
0001
0000
0100
0000
,
1000
0000
0001
0000
,
1001
0000
0000
0000
;

//---------------dance-single - ----------------
#NOTES:
     dance-single:
     :
     Medium:
     5:
     :
0000
0000
0000
0000
,
0000
0000
0000
0000
,
0000
0000
0000
0000
,
0000
0000
0000
0000
,
0000
0000
0001
1000
,
0020
0000
0000
0000
0000
0000
1030
0100
,
0000
0000
1000
0001
,
0020
0000
0000
0000
0000
0000
0031
0100
,
0000
0020
0000
0000
0000
0000
0030
0000
,
1001
0000
0001
0000
0100
0000
0010
0100
,
0000
1000
0000
0100
0000
0000
0110
0000
,
1000
0000
0001
0000
0100
0000
0010
2000
,
0000
0000
3001
0100
0000
0000
1010
0000
,
0001
0000
0010
0000
1000
0000
0010
0001
,
0000
1000
0010
0000
0100
0000
1001
0000
,
0010
0000
0001
0000
1000
0000
0100
0010
,
0000
0001
1000
0000
0010
0000
1001
0000
,
0100
0000
0001
0000
0010
0000
1000
0001
,
0000
0100
0000
1000
0000
0000
0011
0000
,
1000
0000
0100
0000
0001
0000
0100
1000
,
0000
0010
0001
0000
0000
0000
0110
0000
,
0001
0000
0010
0000
0100
0000
0001
0100
,
0000
0000
1000
0001
0000
0000
1001
0000
,
1000
0000
0010
0000
0100
0000
0001
0100
,
0000
0000
0010
1000
0000
0000
0001
0100
,
0020
0000
1000
0000
1000
0000
1030
0200
,
0000
0300
0001
1000
,
0020
0000
0001
0000
0001
0000
0031
0100
,
0000
1000
0000
0000
0001
0000
0010
0000
,
0200
0000
0001
0000
0001
0000
0301
0020
,
0000
0030
0001
1000
,
0200
0000
1000
0000
1000
0000
1300
0010
,
0000
0100
0000
0000
0110
0000
1001
0000
,
0010
0000
1000
0000
0101
0000
1000
0100
,
0000
0010
0000
0001
0000
0100
0010
1000
,
0100
0000
1000
0000
1001
0000
0100
0001
,
0000
0010
0000
0100
0000
1000
0010
0001
,
1000
0000
0100
0000
0010
0000
2000
0010
,
0000
0010
0000
0010
0000
3010
0100
0001
,
1000
0000
0100
0000
0010
0000
0002
0100
,
0000
0100
0000
0100
0000
0103
0010
1000
,
0200
0000
0001
0000
0001
0000
0301
0100
,
0000
1000
0000
0100
0000
1000
0000
0001
,
0020
0000
0001
0000
0001
0000
0031
0010
,
0000
1000
0000
0010
0000
0100
0000
1000
,
0002
0000
0100
0000
0100
0000
0103
0001
,
0000
0010
0000
0001
0000
1000
0000
0100
,
2000
0000
0010
0000
0010
0000
3010
1000
,
0000
0100
0000
1000
0000
0010
0000
0001
,
0010
0000
0100
0001
0000
1000
0000
0100
,
0000
0010
0000
1000
0000
0001
0000
0000
,
0100
0000
0010
0001
0000
1000
0000
0100
,
0000
0010
0000
1000
0000
0010
0000
0000
,
0001
0000
0100
1000
0000
0100
0000
0001
,
0000
0010
0000
0100
0000
0001
0000
0000
,
1000
0000
0010
0001
0000
0010
0000
1000
,
0000
0001
0000
0100
0000
0010
0000
0000
,
1001
0000
0000
0000
;

//---------------dance-single - ----------------
#NOTES:
     dance-single:
     :
     Hard:
     7:
     :
0000
0000
0000
0000
,
0000
0000
0000
0000
,
0000
0000
0000
0000
,
0000
0000
0000
0000
,
0000
0000
0001
1000
,
0020
0000
1000
0000
0100
0000
0031
0020
,
0000
1000
1030
0000
1000
0000
0001
0000
,
0020
0000
0001
0000
0100
0000
1030
0010
,
0000
0001
0000
1000
0000
0010
0000
0100
,
0010
0100
0000
0001
0000
1000
0000
0100
,
0000
0010
0000
0001
0000
0100
0000
0010
,
1000
0100
0000
0010
0000
0001
0000
2000
,
0000
0000
3100
1000
0000
0010
0000
0100
,
0001
0010
1000
0010
0000
0100
0000
0001
,
0000
0100
1000
0000
0001
0000
1001
0000
,
0100
0010
0000
0001
0000
1000
0000
0100
,
0000
1000
0001
0000
0010
0000
1001
0000
,
0100
1000
0000
0010
0000
0100
0000
0001
,
0000
0010
0000
0100
0000
1000
0000
0001
,
1000
0100
0000
0002
0000
0000
0103
2000
,
0000
0000
3010
0100
0000
0001
0000
0010
,
0100
1000
0010
0001
0000
0000
0011
2000
,
0000
0000
3100
0002
0000
0000
0103
0000
,
1000
0010
0000
0002
0000
0000
1003
0200
,
0000
0000
0301
0200
0000
0000
1300
0001
,
0020
0000
1000
0000
0100
0000
0031
0020
,
0000
1000
1030
0000
0001
0000
1000
0000
,
0020
0000
0001
0000
0100
0000
1030
0020
,
0000
0001
0031
0000
0001
0000
0010
0000
,
0200
0000
0001
0000
0010
0000
1300
0200
,
0000
0001
0301
0000
0001
0000
1000
0000
,
0200
0000
1000
0000
0010
0000
0301
0200
,
0000
1000
1300
0000
0001
0000
1000
0000
,
0010
0000
0100
0000
0010
0000
0100
0001
0010
0000
0100
0000
0010
0000
0001
0000
,
0000
1000
0000
0100
0000
0010
0001
0100
,
0010
0000
0100
0000
0010
0000
0100
0001
0010
0000
0100
0000
0010
0000
1000
0000
,
0000
0010
0000
0001
0000
1000
1000
0100
,
0010
0000
0100
0000
0010
0000
0100
1000
0010
0000
0100
0000
0010
0000
1000
0000
,
0000
0001
0000
0100
0000
0010
1000
0100
,
0010
0000
0100
0000
0010
0000
0100
1000
0010
0000
0100
0000
0010
0000
0001
0000
,
0000
0010
0000
1000
0000
0001
0001
0100
,
0010
0000
1000
0000
0010
0000
1000
0010
1000
0000
0010
0000
2000
0000
0001
0000
,
0000
0001
0000
0001
0000
3001
1000
0100
,
0010
0000
0001
0000
0010
0000
0001
0010
0001
0000
0010
0000
0002
0000
1000
0000
,
0000
1000
0000
1000
0000
1003
0001
0010
,
0100
0000
1000
0000
0001
0000
1000
0100
1000
0000
0001
0000
0200
0000
0010
0000
,
0000
0010
0000
0010
0000
0310
0100
0001
,
0100
0000
0001
0000
1000
0000
0001
0100
0001
0000
1000
0000
0020
0000
0100
0000
,
0000
0100
0000
0100
0000
0130
0010
1000
,
0001
0000
1000
0100
0000
0010
0000
0001
,
0000
0100
0000
0010
0000
0001
0000
0010
,
0100
0000
0001
0010
0000
1000
0000
0010
,
0000
0100
0000
1000
0000
0010
0000
0100
,
1000
0000
0100
0010
0000
1000
0000
0100
,
0000
0010
0000
1000
0000
0010
0000
0001
,
0100
0000
0010
0001
0000
0010
0000
0100
,
0000
0001
0000
1000
0000
0001
0000
1000
,
1001
0000
0000
0000
;

//---------------dance-single - Expert (As Intended)----------------
#NOTES:
     dance-single:
     Expert (As Intended):
     Edit:
     7:
     :
0000
0000
0000
0000
,
0000
0000
0000
0000
,
0000
0000
0000
0000
,
0000
0000
0000
0000
,
0000
0000
0001
1000
,
0020
0000
1000
0000
0100
0000
0031
0020
,
0000
1000
1030
0000
1000
0000
0001
0000
,
0020
0000
0001
0000
0100
0000
1030
0010
,
0000
0001
0000
1000
0000
0010
0000
0100
,
0010
0100
0000
0001
0000
1000
0000
0100
,
0000
0010
0000
0001
0000
0100
0000
0010
,
1000
0100
0000
0010
0000
0001
0000
2000
,
0000
0000
3100
1000
0000
0010
0000
0100
,
0001
0010
1000
0010
0000
0100
0000
0001
,
0000
0100
1000
0000
0001
0000
1001
0000
,
0100
0010
0000
0001
0000
1000
0000
0100
,
0000
1000
0001
0000
0010
0000
1001
0000
,
0100
1000
0000
0010
0000
0100
0000
0001
,
0000
0010
0000
0100
0000
1000
0000
0001
,
1000
0100
0000
0002
0000
0000
0103
2000
,
0000
0000
3010
0100
0000
0001
0000
0010
,
0100
1000
0010
0002
0000
0000
0013
2000
,
0000
0000
3100
0002
0000
0000
0103
0000
,
1000
0010
0000
0002
0000
0000
1003
0200
,
0000
0000
0301
0200
0000
0000
1300
0001
,
0020
0000
1000
0000
0100
0000
0031
0020
,
0000
1000
1030
0000
0001
0000
1000
0000
,
0020
0000
0001
0000
0100
0000
1030
0020
,
0000
0001
0031
0000
0001
0000
0010
0000
,
0200
0000
0001
0000
0010
0000
1300
0200
,
0000
0001
0301
0000
0001
0000
1000
0000
,
0200
0000
1000
0000
0010
0000
0301
0200
,
0000
1000
1300
0000
0001
0000
1000
0000
,
0010
0000
0100
0000
0010
0000
0100
0001
0010
0000
0100
0000
0010
0000
0001
0000
,
0000
1000
0000
0100
0000
0010
0001
0100
,
0010
0000
0100
0000
0010
0000
0100
0001
0010
0000
0100
0000
0010
0000
1000
0000
,
0000
0010
0000
0001
0000
1000
1000
0100
,
0010
0000
0100
0000
0010
0000
0100
1000
0010
0000
0100
0000
0010
0000
1000
0000
,
0000
0001
0000
0100
0000
0010
1000
0100
,
0010
0000
0100
0000
0010
0000
0100
1000
0010
0000
0100
0000
0010
0000
0001
0000
,
0000
0010
0000
1000
0000
0001
0001
0100
,
0010
0000
1000
0000
0010
0000
1000
0010
1000
0000
0010
0000
2000
0000
0001
0000
,
0000
0001
0000
0001
0000
3001
1000
0100
,
0010
0000
0001
0000
0010
0000
0001
0010
0001
0000
0010
0000
0002
0000
1000
0000
,
0000
1000
0000
1000
0000
1003
0001
0010
,
0100
0000
1000
0000
0001
0000
1000
0100
1000
0000
0001
0000
0200
0000
0010
0000
,
0000
0010
0000
0010
0000
0310
0100
0001
,
0100
0000
0001
0000
1000
0000
0001
0100
0001
0000
1000
0000
0020
0000
0100
0000
,
0000
0100
0000
0100
0000
0130
0010
1000
,
0001
0000
1000
0100
0000
0010
0000
0001
,
0000
0100
0000
0010
0000
0001
0000
0010
,
0100
0000
0001
0010
0000
1000
0000
0010
,
0000
0100
0000
1000
0000
0010
0000
0100
,
1000
0000
0100
0010
0000
1000
0000
0100
,
0000
0010
0000
1000
0000
0010
0000
0001
,
0100
0000
0010
0001
0000
0010
0000
0100
,
0000
0001
0000
1000
0000
0001
0000
1000
,
1001
0000
0000
0000
;

//---------------dance-double - ----------------
#NOTES:
     dance-double:
     :
     Beginner:
     1:
     :
00000000
00000000
00000000
00000000
,
00000000
00000000
00000000
00000000
,
00000000
00000000
00000000
00000000
,
00000000
00000000
00000000
00000000
,
00000000
00000000
00000000
00000000
,
00001000
00000000
00000000
00000000
,
00010000
00000000
00000000
00000000
,
00010000
00000000
00000000
00000000
,
00001000
00000000
00000000
00000000
,
00001000
00000000
00000000
00000000
,
00000100
00000000
00000000
00000000
,
00000001
00000000
00000000
00000000
,
00000010
00000000
00000000
00000000
,
00000100
00000000
00000000
00000000
,
00000010
00000000
00000000
00000000
,
00001000
00000000
00000000
00000000
,
00010000
00000000
00000000
00000000
,
00010000
00000000
00000000
00000000
,
00100000
00000000
00000000
00000000
,
10000000
00000000
00000000
00000000
,
01000000
00000000
00000000
00000000
,
00100000
00000000
00000000
00000000
,
01000000
00000000
00000000
00000000
,
00010000
00000000
00000000
00000000
,
00001000
00000000
00000000
00000000
,
00011000
00000000
00000000
00000000
,
00000010
00000000
00000000
00000000
,
00000100
00000000
00000000
00000000
,
00010000
00000000
00000000
00000000
,
00001000
00000000
00000000
00000000
,
01000000
00000000
00000000
00000000
,
00100000
00000000
00000000
00000000
,
00010000
00000000
00000000
00000000
,
00011000
00000000
00000000
00000000
,
00000010
00000010
00000010
00000000
,
00010000
00000000
00000000
00000000
,
00001000
00001000
00001000
00000000
,
00011000
00000000
00000000
00000000
,
01000000
01000000
01000000
00000000
,
00001000
00000000
00000000
00000000
,
00010000
00010000
00010000
00000000
,
00011000
00000000
00000000
00000000
,
00000010
00000000
00000000
00000000
,
00000100
00000000
00000000
00000000
,
00000001
00000000
00000000
00000000
,
00000010
00000000
00000000
00000000
,
00000100
00000000
00000000
00000000
,
00010000
00000000
00000000
00000000
,
00001000
00000000
00000000
00000000
,
00011000
00000000
00000000
00000000
,
01000000
00000000
00000000
00000000
,
00100000
00000000
00000000
00000000
,
10000000
00000000
00000000
00000000
,
00010000
00000000
00000000
00000000
,
00100000
00000000
00000000
00000000
,
01000000
00000000
00000000
00000000
,
00010000
00000000
00000000
00000000
,
00011000
00000000
00000000
00000000
;

//---------------dance-double - ----------------
#NOTES:
     dance-double:
     :
     Easy:
     3:
     :
00000000
00000000
00000000
00000000
,
00000000
00000000
00000000
00000000
,
00000000
00000000
00000000
00000000
,
00000000
00000000
00000000
00000000
,
00000000
00000000
00010000
10000000
,
00100000
00000000
01000000
00010000
,
00100000
00000000
00001000
00010000
,
00000010
00000000
00000100
00000001
,
00000010
00000000
00001000
00000000
,
00010000
00000000
00100000
00000000
,
01000000
00000000
00010000
00000000
,
10000000
00000000
01000000
00000000
,
00100000
00000000
00011000
00000000
,
00000100
00000000
00000001
00000000
,
00000010
00000000
00000100
00000000
,
00001000
00000000
00000001
00000000
,
00000010
00000000
00001000
00000000
,
00010000
00000000
01000000
00000000
,
00100000
00000000
10000000
00000000
,
00100000
00000000
01000000
00000000
,
00100000
00000000
00001000
00000000
,
00010000
00000000
00000100
00000000
,
00000001
00000000
00000100
00000000
,
00000010
00000000
00000100
00000000
,
00010000
00000000
00001000
00010000
,
00011000
00000000
00010000
00100000
,
01000000
00000000
00010000
00100000
,
00001000
00000000
01000000
00010000
,
00100000
00000000
00001000
00010000
,
00000010
00000000
00000100
00001000
,
00010000
00000000
00000100
00000010
,
00000001
00000000
00000100
00000010
,
00010000
00000000
00001000
00000000
,
00011000
00010000
00100000
10000000
,
00100000
00100000
00100000
01000000
,
00001000
00010000
00100000
01000000
,
00010000
00010000
00010000
00100000
,
00011000
00001000
00000100
00000001
,
00000100
00000100
00000100
00000010
,
00010000
00001000
00000100
00000010
,
00001000
00001000
00001000
00000100
,
00011000
00010000
00100000
01000000
,
10000000
01000000
00010000
00100000
,
01000000
10000000
00010000
00100000
,
01000000
00100000
00001000
00010000
,
00011000
00001000
00000100
00000001
,
00000010
00000100
00001000
00000001
,
00000100
00000010
00000001
00000010
,
00001000
00000100
00000010
00001000
,
00011000
00000000
01000000
00000000
,
00010000
00000000
00100000
00000000
,
01000000
00000000
00010000
00000000
,
00001000
00000000
00100000
00000000
,
00011000
00000000
00000010
00000000
,
00001000
00000000
00000100
00000000
,
00000010
00000000
00001000
00000000
,
00010000
00000000
00001000
00000000
,
00011000
00000000
00000000
00000000
;

//---------------dance-double - ----------------
#NOTES:
     dance-double:
     :
     Medium:
     6:
     :
00000000
00000000
00000000
00000000
,
00000000
00000000
00000000
00000000
,
00000000
00000000
00000000
00000000
,
00000000
00000000
00000000
00000000
,
00000000
00000000
00001000
00010000
,
00200000
00000000
00000000
00000000
00000000
00000000
10300000
01000000
,
00000000
00000000
00010000
00001000
,
00000020
00000000
00000000
00000000
00000000
00000000
00000031
00000100
,
00000000
00000020
00000000
00000000
00000000
00000000
00000030
00000000
,
00001001
00000000
00000001
00000000
00000100
00000000
00000010
00000100
,
00000000
00001000
00000000
00000100
00000000
00000000
00000110
00000000
,
00010000
00000000
00001000
00000000
01000000
00000000
00100000
20000000
,
00000000
00000000
30010000
01000000
00000000
00000000
10100000
00000000
,
00010000
00000000
00100000
00000000
10000000
00000000
00100000
00010000
,
00000000
10000000
00100000
00000000
01000000
00000000
10010000
00000000
,
00100000
00000000
00010000
00000000
10000000
00000000
01000000
00100000
,
00000000
00001000
00010000
00000000
00000010
00000000
00001001
00000000
,
00000100
00000000
00000001
00000000
00000010
00000000
00001000
00010000
,
00000000
00000100
00000000
00001000
00000000
00000000
00000011
00000000
,
00001000
00000000
00000100
00000000
00000001
00000000
00000100
00001000
,
00000000
00000000
00000010
00000001
00000000
00000000
00000110
00000000
,
00000001
00000000
00000010
00000000
00000100
00000000
00000001
00000100
,
00000000
00000000
00010000
00001000
00000000
00000000
00011000
00000000
,
00010000
00000000
00100000
00000000
01000000
00000000
00010000
01000000
,
00000000
00000000
00100000
10000000
00000000
00000000
00010000
01000000
,
00200000
00000000
10000000
00000000
10000000
00000000
10300000
02000000
,
00000000
03000000
00010000
00001000
,
00000020
00000000
00000001
00000000
00000001
00000000
00000031
00000100
,
00000000
00001000
00000000
00000000
00010000
00000000
00100000
00000000
,
02000000
00000000
00010000
00000000
00010000
00000000
03010000
00200000
,
00000000
00300000
00001000
00010000
,
00000200
00000000
00001000
00000000
00001000
00000000
00001300
00000010
,
00000000
00000100
00000000
00000000
00000110
00000000
00001001
00000000
,
00000010
00000000
00001000
00000000
00000101
00000000
00001000
00000100
,
00000000
00000010
00000000
00000001
00000000
00000100
00000010
00001000
,
00000100
00000000
00010000
00000000
00011000
00000000
01000000
00010000
,
00000000
00100000
00000000
01000000
00000000
10000000
00100000
00010000
,
00001000
00000000
00100000
00000000
01000000
00000000
20000000
00100000
,
00000000
00100000
00000000
00100000
00000000
30100000
01000000
00001000
,
00010000
00000000
00000100
00000000
00000010
00000000
00000002
00000100
,
00000000
00000100
00000000
00000100
00000000
00000103
00000010
00001000
,
00000200
00000000
00000001
00000000
00000001
00000000
00000301
00000100
,
00000000
00001000
00000000
00000100
00000000
00010000
00000000
00001000
,
00200000
00000000
00010000
00000000
00010000
00000000
00310000
00100000
,
00000000
10000000
00000000
00100000
00000000
01000000
00000000
10000000
,
00020000
00000000
01000000
00000000
01000000
00000000
01030000
00010000
,
00000000
00100000
00000000
00001000
00000000
00010000
00000000
00000100
,
00002000
00000000
00000010
00000000
00000010
00000000
00003010
00001000
,
00000000
00000100
00000000
00001000
00000000
00000010
00000000
00000001
,
00000010
00000000
00000100
00000001
00000000
00001000
00000000
00000100
,
00000000
00000010
00000000
00001000
00000000
00010000
00000000
00000000
,
00100000
00000000
01000000
00010000
00000000
10000000
00000000
01000000
,
00000000
00100000
00000000
10000000
00000000
00100000
00000000
00000000
,
00010000
00000000
01000000
10000000
00000000
01000000
00000000
00010000
,
00000000
00100000
00000000
01000000
00000000
00010000
00000000
00000000
,
00001000
00000000
00000100
00000001
00000000
00000100
00000000
00001000
,
00000000
00010000
00000000
00000010
00000000
00000100
00000000
00000000
,
00001001
00000000
00000000
00000000
;

//---------------dance-double - ----------------
#NOTES:
     dance-double:
     :
     Hard:
     7:
     :
00000000
00000000
00000000
00000000
,
00000000
00000000
00000000
00000000
,
00000000
00000000
00000000
00000000
,
00000000
00000000
00000000
00000000
,
00000000
00000000
00010000
01000000
,
00200000
00000000
10000000
00000000
01000000
00000000
00310000
00200000
,
00000000
00010000
00310000
00000000
00001000
00000000
00000100
00000000
,
00000020
00000000
00001000
00000000
00000100
00000000
00000031
00000010
,
00000000
00000100
00000000
00000001
00000000
00001000
00000000
00000100
,
00000010
00000100
00000000
00001000
00000000
00000001
00000000
00000100
,
00000000
00000010
00000000
00001000
00000000
00000100
00000000
00000010
,
00000001
00000100
00000000
00000010
00000000
00010000
00000000
00002000
,
00000000
00000000
01003000
00010000
00000000
00100000
00000000
01000000
,
10000000
00100000
00010000
00100000
00000000
01000000
00000000
10000000
,
00000000
01000000
00010000
00000000
10000000
00000000
10010000
00000000
,
01000000
00100000
00000000
00001000
00000000
00010000
00000000
00000100
,
00000000
00001000
00000001
00000000
00000010
00000000
00001001
00000000
,
00000100
00001000
00000000
00000010
00000000
00000100
00000000
00000001
,
00000000
00000010
00000000
00000100
00000000
00001000
00000000
00000001
,
00000100
00001000
00000000
00020000
00000000
00000000
01030000
20000000
,
00000000
00000000
30100000
01000000
00000000
00010000
00000000
00100000
,
01000000
10000000
00100000
00020000
00000000
00000000
00130000
20000000
,
00000000
00000000
31000000
00020000
00000000
00000000
01030000
00000000
,
10000000
00100000
00000000
00020000
00000000
00000000
00031000
00000020
,
00000000
00000000
00000031
00000200
00000000
00000000
00001300
00010000
,
00200000
00000000
10000000
00000000
01000000
00000000
00310000
00200000
,
00000000
00010000
00310000
00000000
00001000
00000000
00000100
00000000
,
00000020
00000000
00001000
00000000
00000100
00000000
00000031
00000020
,
00000000
00001000
00001030
00000000
00000001
00000000
00000010
00000000
,
00000200
00000000
00000001
00000000
00000010
00000000
00001300
00000200
,
00000000
00010000
00010300
00000000
00001000
00000000
00010000
00000000
,
02000000
00000000
00010000
00000000
00100000
00000000
13000000
02000000
,
00000000
00010000
03010000
00000000
01000000
00000000
10000000
00000000
,
00100000
00000000
01000000
00000000
00100000
00000000
01000000
00010000
00100000
00000000
01000000
00000000
00100000
00000000
00001000
00000000
,
00000000
00010000
00000000
00000100
00000000
00000010
00000001
00000100
,
00000010
00000000
00000100
00000000
00000010
00000000
00000100
00000001
00000010
00000000
00000100
00000000
00000010
00000000
00001000
00000000
,
00000000
00010000
00000000
00000100
00000000
00010000
00001000
01000000
,
00100000
00000000
01000000
00000000
00100000
00000000
01000000
00010000
00100000
00000000
01000000
00000000
00100000
00000000
00001000
00000000
,
00000000
00010000
00000000
00000100
00000000
00001000
00000001
00000100
,
00000010
00000000
00000100
00000000
00000010
00000000
00000100
00000001
00000010
00000000
00000100
00000000
00000010
00000000
00000001
00000000
,
00000000
00000010
00000000
00001000
00000000
00000010
00000001
00000100
,
00001000
00000000
00010000
00000000
00001000
00000000
00010000
00001000
00010000
00000000
00001000
00000000
00010000
00000000
00100000
00000000
,
00000000
00100000
00000000
00100000
00000000
00100000
10000000
01000000
,
00010000
00000000
00001000
00000000
00010000
00000000
00001000
00010000
00001000
00000000
00010000
00000000
00001000
00000000
00000010
00000000
,
00000000
00000010
00000000
00000010
00000000
00000010
00000001
00000100
,
00000010
00000000
00010000
00000000
00001000
00000000
00010000
00001000
00010000
00000000
00001000
00000000
00100000
00000000
00010000
00000000
,
00000000
00010000
00000000
00010000
00000000
00010000
10000000
01000000
,
00100000
00000000
00001000
00000000
00010000
00000000
00001000
00010000
00001000
00000000
00010000
00000000
00000010
00000000
00001000
00000000
,
00000000
00001000
00000000
00001000
00000000
00001000
00000001
00000100
,
00000010
00000000
00000100
00000001
00000000
00001000
00000000
00000100
,
00000000
00000010
00000000
00000001
00000000
00000100
00000000
00001000
,
00010000
00000000
00000100
00010000
00000000
00001000
00000000
01000000
,
00000000
00010000
00000000
00100000
00000000
01000000
00000000
10000000
,
00100000
00000000
01000000
00010000
00000000
10000000
00000000
01000000
,
00000000
00100000
00000000
00010000
00000000
01000000
00000000
00001000
,
00010000
00000000
00000010
00000100
00000000
00000001
00000000
00001000
,
00000000
00000100
00000000
00000010
00000000
00000001
00000000
00001000
,
00001001
00000000
00000000
00000000
;
