
//----- song ID: step -----//
#TITLE:Steppin' Out;
#ARTIST:Kaskade;
#BANNER:Steppin' Out.png;
#BACKGROUND:Steppin' Out-bg.png;
#CDTITLE:./CDTITLES/DanceDanceRevolution UNIVERSE2.png;
#MUSIC:Steppin' Out.ogg;
#SAMPLESTART:73.125;
#SAMPLELENGTH:15;
#BPMS:0=128;

//---------------dance-single - ----------------
#NOTES:
     dance-single:
     :
     Beginner:
     1:
     :
0000
0000
0000
0000
,
0000
0000
0000
0000
,
0000
0000
0000
0000
,
0000
0000
0000
0000
,
0000
0000
0000
0000
,
1000
0000
0001
0000
,
0010
0000
0000
0000
,
0100
0000
0001
0000
,
1000
0000
0000
0000
,
1001
0000
0000
0000
,
0110
0000
0000
0000
,
1001
0000
0000
0000
,
1001
0000
0000
0000
,
0010
0000
1000
0000
,
0001
0000
0000
0000
,
0100
0000
1000
0000
,
0001
0000
0000
0000
,
0001
0000
0100
0000
,
1000
0000
0000
0000
,
1000
0000
0010
0000
,
0001
0000
0000
0000
,
1000
0000
1000
0000
,
0001
0000
0000
0000
,
0100
0000
0100
0000
,
0010
0000
0000
0000
,
0001
0000
0000
0000
,
1000
0000
0000
0000
,
0110
0000
0000
0000
,
1001
0000
0000
0000
,
0010
0000
0000
0000
,
0100
0000
0000
0000
,
1000
0000
0000
0000
,
0001
0000
0000
0000
,
1001
0000
0000
0000
,
0000
0000
0000
0000
,
0010
0000
0100
0000
,
0001
0000
0000
0000
,
0100
0000
0010
0000
,
1000
0000
0000
0000
,
0001
0000
1000
0000
,
0001
0000
0100
0000
,
0010
0000
1000
0000
,
0100
0000
0001
0000
,
1000
0000
0001
0000
,
1000
0000
0010
0000
,
0001
0000
0100
0000
,
1000
0000
0001
0000
,
1001
0000
0010
0000
,
1000
0000
0001
0000
,
1000
0000
0001
0000
,
0100
0000
0010
0000
,
1001
0000
0000
0000
,
1001
0000
0000
0000
,
0010
0000
0000
0000
,
0100
0000
0000
0000
,
1001
0000
0000
0000
;

//---------------dance-single - ----------------
#NOTES:
     dance-single:
     :
     Easy:
     3:
     :
0000
0000
0000
0000
,
0000
0000
0000
0000
,
0000
0000
0000
0000
,
0000
0000
0000
0000
,
0000
0000
0000
0000
,
0001
0001
0000
0000
,
1000
0000
0010
0000
,
0100
0100
0000
0000
,
0001
0000
1000
0000
,
0020
0000
0000
0030
,
0200
0000
0000
0300
,
2002
0000
0000
0000
,
0000
0000
0000
3003
,
0010
0100
0010
0000
,
1000
0000
0001
0000
,
0001
0000
1000
0000
,
0100
0010
0100
0000
,
0010
0010
1000
0000
,
0001
0000
0110
0000
,
1000
1000
0100
0000
,
1001
0000
0010
0000
,
0010
0010
1000
0000
,
0001
0000
0110
0000
,
1000
1000
0100
0000
,
1001
0000
0010
0000
,
0100
0000
0001
0000
,
1000
0100
0010
0000
,
0010
0000
1000
0000
,
0001
0010
0100
0000
,
1000
1000
0000
0100
,
0010
0010
0000
0001
,
0100
0100
0000
1000
,
0001
0001
0000
0000
,
2000
0000
0000
3000
,
0002
0000
0000
0003
,
1000
0010
0000
0001
,
0110
0000
1000
1000
,
0000
0010
0100
0000
,
0010
0001
0000
1000
,
0001
0100
0000
1000
,
0110
0000
0001
0001
,
0000
0100
0010
0000
,
0100
1000
0000
0001
,
1001
0000
0100
0001
,
0100
0000
0001
0000
,
0110
0000
0010
1000
,
0010
0000
1000
0000
,
0001
0000
1000
1000
,
0010
0000
0110
0000
,
1000
0000
0001
0001
,
0010
0000
1001
0000
,
0001
0000
1000
0000
,
0010
0000
0100
0000
,
0001
0000
0010
0000
,
0001
0000
0100
1000
,
1000
0000
0000
0000
;

//---------------dance-single - ----------------
#NOTES:
     dance-single:
     :
     Medium:
     5:
     :
0000
0000
0000
0000
,
0000
0000
0000
0000
,
0000
0000
0000
0000
,
0000
0000
0000
0000
,
0000
0000
0000
0000
,
0001
0000
1000
0000
0010
0000
0100
0001
,
0010
0001
0100
1000
,
0100
0000
0010
0000
1000
0000
0001
1000
,
0100
0100
0001
0010
,
2000
0000
0000
3020
0000
0000
0230
0000
,
0000
0000
0000
0300
,
0020
0000
0000
2030
0000
0000
3002
0000
,
0000
0103
0000
0000
0010
1000
0100
0000
,
1000
0100
1000
0001
,
0100
1000
0100
0001
,
0010
0100
0001
0000
1000
0000
0100
0000
,
0001
0001
0100
1000
,
0010
0000
0100
0000
0001
1000
0010
0000
,
0100
1000
0202
0303
,
0001
0000
0100
0000
0010
0001
1000
0000
,
2200
0000
3300
0000
0010
0100
0001
0000
,
1000
0000
0010
0000
1000
0000
0001
0100
,
0010
0001
0100
0010
,
0100
0000
1000
0001
0010
0000
1000
0000
,
0001
1000
0100
0000
1000
0000
0010
0000
,
0002
0000
0000
0023
0000
0000
2030
0000
,
0000
0000
0000
3010
,
0020
0000
0000
2030
0000
0000
3002
0000
,
0000
0000
0000
0013
,
0001
0010
0001
1000
,
0010
0001
0010
1000
,
0100
0010
1000
0000
0001
0000
0010
0000
,
1000
1000
0010
0001
,
2000
0000
0000
3020
,
0000
0000
0000
0130
,
0010
0100
1001
0001
,
0100
1010
1000
0001
,
0100
0011
1000
0100
,
0000
0000
0000
0000
,
1000
0010
0001
0100
,
0100
0001
0010
0000
0011
0000
0000
0000
,
1000
0100
0010
0001
,
0101
0000
1000
1000
,
0001
0100
1000
0010
,
0010
1000
0100
0000
1100
0000
0000
0000
,
0001
0010
0100
1000
,
1010
0000
0001
0001
,
1000
0001
0100
0000
0010
0000
1000
0000
,
0001
0110
1000
0000
,
1000
0010
0101
0001
,
1000
0000
0001
0010
0100
0000
0000
0000
,
0001
1000
0010
0000
0100
0000
0001
0000
,
1000
0110
0001
0000
,
0001
0100
1010
1000
,
0001
1000
0010
0000
,
1001
0000
0000
0000
;

//---------------dance-single - ----------------
#NOTES:
     dance-single:
     :
     Hard:
     6:
     :
0000
0000
0000
0000
,
0000
0000
0000
0000
,
0000
0000
0000
0000
,
0000
0000
0000
0000
,
0000
0000
0000
0000
,
1000
0010
0100
0001
0000
1000
0200
0000
,
0000
0010
0000
1300
,
0010
0001
1000
0100
0000
0010
0002
0000
,
0000
1000
0000
0013
,
2000
0000
0000
3020
0000
0000
0230
0000
,
0000
0301
0000
0000
1000
0010
1000
0010
,
0200
0000
0000
0302
0000
0000
2003
0000
,
0000
3100
0000
0000
0010
0001
1000
0000
,
0001
0000
0100
0000
1000
0010
0100
0000
,
0100
0010
1000
0000
0100
0000
0001
0000
,
0010
0001
1000
0100
,
1000
0001
0010
0100
1000
0000
0010
0100
,
0000
0001
0000
1000
0000
0010
0000
1000
,
0000
0001
0000
0100
0000
0010
0000
1000
,
0001
1000
0000
0010
0000
0100
0000
0001
,
0000
1000
0000
0001
0000
0010
0000
1000
,
0100
0010
0000
0010
0000
0001
0010
1000
,
0000
1000
0000
0010
0000
0100
1000
0001
,
0100
0010
0000
0010
0000
1000
0100
0001
,
0000
0010
0001
0000
1000
0100
0010
0000
,
0002
0000
0000
2003
0000
0000
3020
0000
,
0100
0000
0001
0000
0000
1000
1030
0000
,
0200
0000
0000
2300
0000
0000
3002
0000
,
0010
0000
1000
0000
0000
0010
0013
0000
,
1000
0100
0010
0000
0001
0000
0100
0010
,
0001
0000
0010
0000
0100
0010
1000
0000
,
0001
0100
0010
0000
1000
0000
0010
1000
,
0001
0010
0100
0000
0001
0000
1000
0010
,
0002
0000
0000
2003
,
0000
0000
0000
0000
3001
0000
0100
0010
,
2000
3001
0200
0310
,
1000
0000
0001
1000
0010
0100
0001
0000
,
0020
0000
0031
0000
1000
0000
0100
0020
,
0000
0000
0000
0030
,
0011
0000
1100
0000
0010
1000
0001
0000
,
2020
0000
0000
3030
,
1000
0010
0001
0000
0001
0010
1000
0000
,
0100
0002
0000
0003
,
1100
0000
0011
0000
0100
0001
1000
0000
,
0202
0000
0000
0303
,
0001
0100
1000
0000
1000
0000
0001
0010
,
0000
2000
0000
0000
0100
0000
3100
0000
,
1000
0001
0000
0010
0000
0100
1000
0010
,
0000
0100
0000
0001
0000
0010
0000
1000
,
0001
0100
0000
0010
0000
1000
0001
0010
,
0000
0100
0000
1000
0000
0010
0100
0000
,
0010
1000
0100
0000
0010
0000
0001
0100
,
0010
0000
1000
0000
0001
0010
0100
0000
,
1000
0100
0010
0001
0000
0000
2200
0000
,
0000
0000
0000
3300
,
0011
0000
0000
0000
;

//---------------dance-double - ----------------
#NOTES:
     dance-double:
     :
     Beginner:
     1:
     :
00000000
00000000
00000000
00000000
,
00000000
00000000
00000000
00000000
,
00000000
00000000
00000000
00000000
,
00000000
00000000
00000000
00000000
,
00000000
00000000
00000000
00000000
,
00010000
00000000
01000000
00000000
,
00010000
00000000
00000000
00000000
,
00001000
00000000
00000010
00000000
,
00000001
00000000
00000100
00000000
,
00001000
00000000
00000000
00000000
,
00010000
00000000
00000000
00000000
,
10000000
00000000
00000000
00000000
,
01000000
00000000
00000000
00000000
,
00010000
00000000
10000000
00000000
,
00100000
00000000
01000000
00000000
,
00001000
00000000
00010000
00000000
,
00000100
00000000
00000110
00000000
,
00000001
00000000
00001000
00000000
,
00000010
00000000
00001000
00000000
,
00010000
00000000
01000000
00000000
,
10000000
00000000
01000000
00000000
,
00001000
00000000
00010000
00000000
,
00010000
00000000
00001000
00000000
,
00000010
00000000
00000001
00000000
,
00000100
00000000
00010000
00000000
,
01000000
00000000
00010000
00000000
,
10000000
00000000
00100000
00000000
,
01000000
00000000
00001000
00000000
,
00010000
00000000
00000010
00000000
,
00000001
00000000
00000100
00000000
,
00000010
00000000
00010000
00000000
,
00001000
00000000
01000000
00000000
,
10000000
00000000
00010000
00000000
,
01000000
00000000
00000000
00000000
,
00001000
00000000
00000000
00000000
,
00000100
00000000
00000010
00000000
,
00000001
00000000
00000010
00000000
,
00010000
00000000
01000000
00000000
,
10000000
00000000
00000000
00000000
,
00010000
00000000
01000000
00000000
,
00001000
00000000
00010000
00000000
,
00000010
00000000
00000100
00000000
,
00000001
00000000
00000010
00000000
,
00001000
00000000
00010000
00000000
,
01000000
00000000
00100000
00000000
,
10000000
00000000
00100000
00000000
,
00010000
00000000
00000100
00000000
,
00000001
00000000
00001000
00000000
,
00010000
00000000
01000000
00000000
,
00010000
00000000
01000000
00000000
,
10000000
00000000
00100000
00000000
,
00001000
00000000
00000010
00000000
,
00000001
00000000
00000100
00000000
,
00001000
00000000
00000001
00000000
,
00000010
00000000
00001000
00000000
,
00001000
00000000
00000000
00000000
;

//---------------dance-double - ----------------
#NOTES:
     dance-double:
     :
     Easy:
     3:
     :
00000000
00000000
00000000
00000000
,
00000000
00000000
00000000
00000000
,
00000000
00000000
00000000
00000000
,
00000000
00000000
00000000
00000000
,
00000000
00000000
00000000
00000000
,
00010000
00000000
01000000
00000000
,
00010000
00000000
00000000
00000000
,
00001000
00000000
00000010
00000000
,
00000001
00000000
00000100
00000000
,
00002000
00000000
00000000
00003000
,
00020000
00000000
00000000
00030000
,
20000000
00000000
00000000
30000000
,
02000000
00000000
00000000
03000000
,
00010000
00010000
10000000
00000000
,
00100000
00000000
01000000
00000000
,
00001000
00001000
00010000
00000000
,
00000100
00000000
00000110
00000000
,
00000001
00000010
00001000
00000000
,
00000010
00000000
00001000
00000000
,
00010000
00000000
01000000
00000000
,
10000000
01000000
01000000
00000000
,
00001000
00000000
00010000
00000000
,
00010000
00001000
00001000
00000000
,
00000010
00000000
00000001
00000000
,
00000100
00010000
00010000
00000000
,
01000000
00000000
00010000
00000000
,
10000000
00000000
00100000
00100000
,
01000000
00000000
00001000
00000000
,
00010000
00000000
00000010
00000000
,
00000001
00000000
00000100
00000000
,
00000010
00000000
00010000
00000000
,
00001000
00000000
01000000
00000000
,
10000000
00010000
00010000
00000000
,
02000000
00000000
00000000
03000000
,
00002000
00000000
00000000
00003000
,
00000100
00000000
00000010
00000000
,
00000001
00000000
00000010
00000000
,
00010000
00000000
01000000
00000000
,
20000000
00000000
00000000
30000000
,
00010000
00000000
01000000
00000000
,
00001000
00000000
00010000
00010000
,
00000010
00000000
00000100
00000000
,
00000001
00000000
00000010
00000010
,
00001000
00000000
00010000
00000000
,
01000000
01000000
00100000
00000000
,
10000000
00000000
00100000
00000000
,
00010000
00001000
00000100
00000000
,
00000001
00000000
00001000
00000000
,
00010000
00010000
01000000
00000000
,
00010000
00000000
01000000
00000000
,
10000000
00010000
00100000
00000000
,
00001000
00000000
00000010
00000010
,
00000001
00000000
00000100
00000000
,
00001000
00000000
00000001
00000000
,
00000010
00000000
00001000
00010000
,
00001000
00000000
00000000
00000000
;

//---------------dance-double - ----------------
#NOTES:
     dance-double:
     :
     Medium:
     4:
     :
00000000
00000000
00000000
00000000
,
00000000
00000000
00000000
00000000
,
00000000
00000000
00000000
00000000
,
00000000
00000000
00000000
00000000
,
00000000
00000000
00000000
00000000
,
00000001
00000100
00000010
00000000
,
00010000
00001000
00100000
00000000
,
01000000
00000000
00100000
00000000
,
01000000
10000000
01000000
00010000
,
00002000
00000000
00000000
00023000
00000000
00000000
00032000
00000000
,
00000000
00000000
00000000
00003000
,
00000200
00000000
00000000
00000320
00000000
00000000
00000032
00000000
,
00000000
00000003
00000100
00000100
,
00000010
00001000
00010000
00000000
,
00001000
00010000
01000000
00000000
,
10000000
01000000
00100000
00000000
,
00010000
00001000
00000100
00000010
,
00000001
00001000
00000001
00000100
,
00000010
00001000
00022000
00033000
,
01000000
00010000
01000000
10000000
,
22000000
33000000
00100000
00010000
,
00001000
00010000
00000010
00000100
,
00000022
00000033
00002200
00003300
,
00022000
00033000
00010000
00100000
,
00010000
01000000
10000000
00100000
,
00020000
00000000
20000000
00030000
00000000
00000000
30200000
00000000
,
00000000
00000000
00000000
00300000
,
00020000
00000000
00000000
00032000
00000000
00000000
00003200
00000000
,
00000000
00000000
00000000
00000300
,
00000001
00000010
00000001
00001000
,
00000100
00000010
00000001
00000010
,
00010000
00001000
00100000
00010000
,
10000000
10000000
00100000
00010000
,
20000000
00000000
00000000
32000000
,
00000000
00000000
00000000
03100000
,
00001000
00010000
00001000
00011000
,
00000010
00001000
00000001
00000100
,
00001000
00000100
00000001
00000011
,
00000010
00000100
00010000
00000000
,
00110000
01000000
10000000
00100000
,
00010000
01000000
10000000
01000000
,
00100000
00001000
00010000
00000100
,
00010000
00001000
01000000
00001000
,
00010000
01000000
10000000
00100000
,
00001000
00010000
00000100
00001000
,
00000010
00000100
00000001
00000101
,
00000011
00000001
00000100
00000010
,
00010000
00000100
00010000
00001000
,
00100000
00110000
10000000
01000000
,
00100000
00001000
00010000
00000100
,
00000010
00000001
00000001
00000010
,
00000100
00010000
00001000
00100000
,
01000000
10000000
00100000
01100000
,
00010000
01000000
00001000
00010000
,
00000010
00002000
00000000
00003000
,
00000101
00000000
00000000
00000000
;

//---------------dance-double - ----------------
#NOTES:
     dance-double:
     :
     Hard:
     6:
     :
00000000
00000000
00000000
00000000
,
00000000
00000000
00000000
00000000
,
00000000
00000000
00000000
00000000
,
00000000
00000000
00000000
00000000
,
00000000
00000000
00000000
00000000
,
00000001
00000010
00000000
00001000
00000100
00000000
00000110
00000000
,
00000010
00000001
00000100
00000000
00000100
00010000
00001000
00000000
,
00100000
10000000
01000000
00100000
00000000
00100000
00020000
00000000
,
00000000
10000000
00000000
00130000
,
20000000
00000000
00000000
30200000
00000000
00000000
00302000
00000000
,
00000000
00013000
00000000
00000000
00000100
00001000
00000100
00000000
,
00000002
00000000
00000000
00000023
00000000
00000000
00000230
00000000
,
00000000
00010300
00000000
00000000
00010000
00001000
00100000
00000000
,
00100000
00010000
10000000
00000000
01000000
00010000
00001000
00000000
,
00010000
00001000
00000010
00000000
00000001
00000000
00000001
00000000
,
00000010
00001000
00000001
00000000
00000100
00001000
00010000
00000000
,
00001000
00010000
00100000
00000000
10000000
00000000
10000000
01000000
,
00000000
00100000
00000000
20000000
00000000
30100000
00000000
01000000
,
00000000
00001000
00000000
00010000
00000000
00000100
00000000
00000002
,
00000000
00001003
00000000
00000010
00000000
00000100
00000000
00020000
,
00000000
00130000
00000000
10000000
00000000
00100000
00000000
00020000
,
00000000
00130000
00000000
10000000
00000000
00100000
00000000
02000000
,
00000000
03010000
00000000
00010000
00000000
00001000
00000000
00000200
,
00000000
00001300
00000000
00000010
00000000
00000001
00000000
00000020
,
00000000
00000130
00000000
00010000
00000000
01000000
00000000
10000000
,
00020000
00000000
00000000
20030000
00000000
00000000
30200000
00000000
,
01000000
00000000
00010000
00000000
00000000
10000000
10300000
00000000
,
02000000
00000000
00000000
03002000
00000000
00000000
00023000
00000000
,
00000100
00000010
00000000
00031000
,
00000010
00001000
00000000
00000100
00000001
00000000
00000010
00000100
,
00000000
00001000
00000100
00000000
00000001
00000000
00000001
00000000
,
00000010
00010000
00000000
00010000
00001000
00000000
00001000
00100000
,
00000000
00100000
01000000
00000000
00010000
00000000
00010000
00000000
,
20000000
00000000
00000000
32000000
,
00000000
00000000
03100000
00000000
,
00100000
00001000
00010000
00000000
00001000
00000000
00010000
00001000
,
00000010
00000000
00000010
00000000
00000001
00001000
00000100
00000000
,
00000010
00000001
00001000
00000000
00000100
00000000
00010000
00002000
,
00000000
00000000
00000000
00003000
,
01010000
00000000
10100000
00000000
10000000
00010000
00100000
00000000
,
02000000
00000000
00000000
03000000
,
00100000
00001000
00010000
00000000
00001000
00010000
00000100
00000000
,
00001000
00000100
00000010
00000002
00000000
00000000
00000103
00000000
,
00000011
00000000
00001100
00000000
00000100
00000001
00000100
00000000
,
00000020
00000000
00000000
00000030
,
00000100
00010000
00001000
00000000
00010000
00001000
00100000
00000000
,
00010000
00100000
01000000
20000000
00000000
00000000
30100000
00000000
,
10000000
00010000
00000000
00100000
00000000
01000000
10000000
00000000
,
00100000
00000000
00010000
00000000
00001000
00010000
00001000
00000000
,
00000100
00000001
00000000
00000010
00000000
00000100
00001000
00000000
,
00000100
00000000
00001000
00000000
00010000
00001000
00010000
00000000
,
00100000
00010000
01000000
00000000
00100000
10000000
01000000
00000000
,
01000000
00010000
00001000
00000000
00010000
00001000
00000010
00000000
,
00000001
00001000
00000100
00000010
,
00000001
00000010
00000100
00001000
00000010
00000000
00000100
00000001
,
00000101
00000000
00000000
00000000
;
