#TITLE:Somebody In Da' House;
#ARTIST:Steve Porter;
#BANNER:Somebody In Da' House.png;
#BACKGROUND:Somebody In Da' House-bg.png;
#CDTITLE:./CDTITLES/Dance Dance Revolution UNIVERSE 2.png;
#MUSIC:Somebody In Da' House.ogg;
#SAMPLESTART:16.615;
#SAMPLELENGTH:15;
#BPMS:0=130;

//---------------dance-single - ----------------
#NOTES:
     dance-single:
     :
     Beginner:
     1:
     :
0000
0000
0000
0000
,
0000
0000
0000
0000
,
0000
0000
0000
0000
,
0000
0000
0000
0000
,
0001
0000
0000
0000
,
0100
0000
0010
0000
,
0100
0000
0000
0000
,
1000
0000
0000
0000
,
0010
0000
0100
0000
,
0001
0000
1000
0000
,
0001
0000
0000
0000
,
1000
0000
0010
0000
,
1000
0000
0000
0000
,
1000
0000
0001
0000
,
1000
0000
0000
0000
,
0001
0000
0000
0000
,
0010
0000
0000
0000
,
1000
0000
0010
0000
,
0100
0000
0000
0000
,
0001
0000
0100
0000
,
0010
0000
0000
0000
,
1000
0000
1000
0000
,
0001
0000
0000
0000
,
0010
0000
0010
0000
,
0100
0000
0000
0000
,
0001
0000
0100
0000
,
0010
0000
0000
0000
,
1000
0000
0010
0000
,
0100
0000
0000
0000
,
0001
0000
0001
0000
,
1000
0000
0000
0000
,
0100
0000
0100
0000
,
0010
0000
0000
0000
,
0001
0000
0000
0000
,
0010
0000
0000
0000
,
0100
0000
1000
0000
,
0100
0000
0000
0000
,
1000
0000
0000
0000
,
0010
0000
0000
0000
,
0100
0000
0001
0000
,
0100
0000
0000
0000
,
1000
0000
0000
0000
,
0100
0000
0000
0000
,
0010
0000
0001
0000
,
0010
0000
0000
0000
,
0001
0000
0000
0000
,
0100
0000
0000
0000
,
0010
0000
1000
0000
,
0010
0000
0000
0000
,
0001
0000
0100
0000
,
1000
0000
0000
0000
,
1000
0000
0100
0000
,
0001
0000
0000
0000
,
1000
0000
0010
0000
,
0001
0000
0000
0000
,
0001
0000
0010
0000
,
1000
0000
0000
0000
,
1001
0000
0000
0000
;

//---------------dance-single - ----------------
#NOTES:
     dance-single:
     :
     Easy:
     3:
     :
0000
0000
0000
0000
,
0000
0000
0000
0000
,
0000
0000
0000
0000
,
0000
0000
0000
0000
,
0000
0000
0000
0000
,
0002
0000
0000
0003
,
2000
0000
0000
3000
,
0020
0000
0000
0030
,
0200
0000
0000
0300
,
0010
0000
0100
0000
,
0010
1000
0100
0000
,
0010
0000
0001
0000
,
1000
0100
1000
0000
,
0100
0000
0010
0000
,
0100
1000
0010
0000
,
0100
0000
0001
0000
,
1000
0010
1000
0000
,
0001
0000
0010
0000
,
0100
0100
1000
0000
,
1000
0000
0100
0000
,
0010
0010
0001
0000
,
1000
0000
0100
0000
,
0010
0100
0010
0010
,
0001
0000
1000
0000
,
1000
0001
1000
1000
,
0001
0000
0010
0000
,
0100
0010
0100
0100
,
1000
0000
0001
0000
,
0001
1000
1001
0000
,
1000
0000
0100
0000
,
0010
0100
0010
0010
,
0001
0000
1000
0000
,
1000
0001
1001
0000
,
0100
0000
0010
0000
,
0100
0001
0010
0000
,
0100
0000
1000
0000
,
0001
0010
0001
0000
,
0010
0000
0100
0000
,
0010
0001
0100
0000
,
0010
1000
0001
0100
,
0000
0000
0000
0000
,
0001
0000
0010
0000
,
0100
1000
1000
0000
,
0010
0000
0100
0000
,
0001
0001
1000
0000
,
1000
0000
0100
0000
,
0010
0001
0001
0000
,
0100
0000
0010
0000
,
1000
1000
0001
0000
,
0100
0010
0100
0000
,
0001
0000
1000
0000
,
0100
1000
0010
0000
,
0110
0000
0000
0000
,
0010
0100
0010
0000
,
1000
0000
0001
0000
,
0010
0001
0100
0000
,
1000
0000
0001
0000
,
1001
0000
0000
0000
;

//---------------dance-single - ----------------
#NOTES:
     dance-single:
     :
     Medium:
     6:
     :
0000
0000
0000
0000
,
0000
0000
0000
0000
,
0000
0000
0000
0000
,
0000
0000
0000
0000
,
0000
0000
0000
0000
,
0001
0100
0010
0000
1000
0000
0001
0000
,
0010
0100
1000
0000
0010
0100
0010
0000
,
1000
0010
0100
0000
0001
0000
1000
0000
,
0100
0010
0001
0000
0100
0010
0100
0100
,
0001
0000
0100
0000
0010
1000
0100
0000
,
0001
0000
1000
0000
0010
0000
0010
0100
,
0001
0100
1000
0000
1000
0100
0001
0000
,
0010
0000
0100
1000
0020
0000
0000
0000
,
1030
0000
0010
0000
0100
0001
0010
0000
,
0100
0000
1000
0000
0001
0010
0100
0000
,
1000
0010
0001
0000
0001
0010
1000
0000
,
0220
0000
0000
0330
,
0010
0100
0001
0000
0010
0000
0100
0000
,
1000
0010
0100
0000
0001
0000
0101
0000
,
0100
0010
1000
0000
0100
0000
0010
0000
,
0001
0100
0010
0000
1000
0000
1010
0000
,
0100
1000
0100
0000
0010
0000
0011
0000
,
0001
1000
0001
0100
0010
0000
0110
0000
,
1000
0000
0100
0010
0001
0000
1000
0000
,
0010
1000
0001
0000
0010
0100
0100
0100
,
0100
1000
0010
0000
0100
0000
0001
0000
,
1000
0000
0010
0000
0100
0001
1000
0000
,
0010
1000
0001
0000
0010
0000
0100
0000
,
1000
0100
1000
0000
0010
0100
0010
0000
,
0100
0001
0010
0000
0100
0000
1000
0000
,
0001
0000
0010
0000
0100
1000
0001
0000
,
0010
0001
1000
0000
0010
0000
0100
0000
,
0001
0100
0001
0000
0010
0100
0010
0000
,
0010
0001
0100
0000
0010
0000
1000
0000
,
0001
0000
0100
0000
0010
1000
0001
0000
,
0100
0001
1000
0000
0100
0000
0010
0000
,
0001
0010
0001
0000
0100
0010
0100
0000
,
0010
1000
0100
0000
0010
0000
0001
0000
,
1000
0000
0100
0000
0010
0001
1000
0000
,
0100
1000
0001
0000
0100
0000
0010
0000
,
1000
0000
0010
0000
1000
0000
0000
0000
0100
0000
0000
0001
0000
0000
0100
0000
,
1000
0010
0100
0000
0001
0010
0100
0000
,
1000
0000
0001
0000
0100
0010
0010
0000
,
0001
0100
0010
0000
1000
0100
0010
0000
,
0001
0000
1000
0000
0010
0100
0100
0000
,
0001
0100
1000
0000
1000
0100
0001
0000
,
0010
0000
0100
0000
1000
0100
1000
0000
,
1000
0010
0001
0000
0001
0010
1000
0000
,
0100
0000
0010
0000
0001
0010
0001
0000
,
0001
0100
0010
0000
1000
0100
0010
0000
,
0001
0000
1001
0000
0010
0100
0110
0000
,
1000
0010
0100
0000
0001
0010
0100
0000
,
1000
0000
1001
0000
0100
0010
0110
0000
,
1000
0010
0011
0000
0001
0010
1010
0000
,
0100
0000
0110
0000
0001
0010
0101
0000
,
0001
0100
1100
0000
1000
0100
0101
0000
,
0010
0000
0110
0000
1000
0100
1010
0000
,
1001
0000
0000
0000
;

//---------------dance-single - ----------------
#NOTES:
     dance-single:
     :
     Hard:
     7:
     :
0000
0000
0000
0000
,
0000
0000
0000
0000
,
0000
0000
0000
0000
,
0000
0000
0000
0000
,
0000
0000
0000
0000
,
0020
0100
1000
0130
,
2000
0000
0100
0000
0001
0000
3010
0100
,
0002
0010
0010
1003
,
0200
0010
0010
0301
,
1000
0100
0010
0000
0001
0000
0100
0000
,
0010
0100
0001
0000
0001
0100
1000
0000
,
0100
0000
0001
0000
0010
0100
1000
0000
,
1000
0100
0001
0000
0001
0100
1000
0000
,
0001
0010
0100
0000
1000
0000
0010
0000
,
0100
0010
1000
0000
1000
0010
0001
0000
,
0010
1000
0001
1000
,
0010
0100
0001
0010
0100
0000
1010
0000
,
0001
0010
0100
1000
0010
0000
0100
0000
,
0001
0000
1000
0010
0100
0001
0010
0000
,
0001
0100
1000
1000
0000
0100
0001
0010
,
0100
0000
1000
0000
0010
0100
0010
0000
,
0100
0000
0001
0010
0100
1000
1010
0000
,
0000
0000
0001
0010
1000
0000
0010
0000
,
1000
0010
0100
0001
0010
0100
1000
0000
,
0001
0100
0001
0100
0001
0000
1010
0000
,
0010
0100
0001
0101
0000
0010
0100
1000
,
0010
0000
0100
0000
0001
1000
0010
0010
,
0100
0001
1000
1001
0000
0100
0010
0001
,
1000
0000
0001
0000
0010
0000
0100
0000
1000
0000
0010
1000
0010
0000
0100
0000
,
0001
0010
0100
0110
0000
1000
0001
1000
,
0110
0000
0000
1000
0000
0001
0100
1000
,
0100
0001
0010
1000
0000
0010
0001
1000
,
0010
0000
0100
0000
0001
0000
1000
0100
1000
0000
0010
0000
0100
0000
0001
0000
,
0001
1000
0010
1010
0000
0100
0001
0010
,
0100
0000
0000
0000
1000
0000
0000
0010
0000
0000
0001
0000
0000
0010
0000
0000
,
1000
0001
0100
0101
0000
0010
1000
0100
,
0010
0000
0000
0000
0001
0000
0000
0100
0000
0000
1000
0000
0000
0100
0000
0000
,
0001
1000
0100
1100
0000
0010
0001
0100
,
0010
0000
0000
0000
1000
0000
0000
0100
0000
0000
0001
0000
0000
0100
0000
0000
,
1000
0001
0010
0011
0000
0100
1000
0010
,
0100
0000
0100
0000
0001
0010
0000
0100
1000
0000
1000
0000
1000
0000
0000
0000
,
0010
0000
0100
0000
0001
0010
0000
0000
0100
0000
1000
0000
0010
0000
0100
0000
,
0001
0000
0000
0000
0001
0000
1000
0000
0100
0000
0010
0000
0001
0010
0000
0000
,
0100
1000
0000
0000
0010
0000
0110
0000
0000
0000
0100
0000
0001
0000
0010
0000
,
0100
1000
0000
0000
0010
0000
0010
0000
0100
0001
0000
0000
0010
0000
0010
0000
,
0000
0000
0100
0000
0000
1000
0000
0000
0010
0000
0010
0100
0000
0001
0000
0010
,
0000
0000
0100
0000
0000
1000
0000
0000
0010
0000
0100
0000
1000
0000
0000
0000
,
0000
0000
0010
0000
0000
0001
0000
0000
0100
0000
0100
0010
0000
1000
0000
0100
,
0000
0000
0010
0000
0000
0001
0000
0000
0100
0000
0010
0000
1000
0000
0000
0000
,
0001
0000
1000
0000
0100
0000
0000
0010
0001
0000
0100
0000
0010
0000
1000
0000
,
0100
0000
1000
0000
0001
0000
0100
0000
0010
0000
0000
1000
0010
0000
0100
0000
,
0001
0010
0000
0000
0100
0000
0100
0000
1000
0010
0000
0000
0100
0000
0100
0000
,
0001
0010
0001
0000
1000
0000
1000
0000
0010
0000
0100
0000
0001
0000
0000
0000
,
1000
0000
0001
0000
0010
0000
0000
0100
1000
0000
0010
0000
0100
0000
0001
0000
,
0010
0000
0001
0000
1000
0000
0010
0000
0100
0000
0000
0001
0100
0000
0010
0000
,
1000
0100
0000
0000
0010
0000
0010
0000
0001
0100
0000
0000
0010
0000
0010
0000
,
1000
0100
1000
0000
0001
0000
0001
0000
0100
0000
0010
0000
1000
0000
0000
0000
,
0101
0000
0000
0000
;

//---------------dance-double - ----------------
#NOTES:
     dance-double:
     :
     Beginner:
     1:
     :
00000000
00000000
00000000
00000000
,
00000000
00000000
00000000
00000000
,
00000000
00000000
00000000
00000000
,
00000000
00000000
00000000
00000000
,
10000000
00000000
00000000
00000000
,
00100000
00000000
01000000
00000000
,
00001000
00000000
00000000
00000000
,
00010000
00000000
00000000
00000000
,
00000010
00000000
00000100
00000000
,
00000001
00000000
00000010
00000000
,
00000100
00000000
00000000
00000000
,
00010000
00000000
00001000
00000000
,
00100000
00000000
00000000
00000000
,
00010000
00000000
10000000
00000000
,
00010000
00000000
00000000
00000000
,
10000000
00000000
00000000
00000000
,
00010000
00000000
00000000
00000000
,
00001000
00000000
00000010
00000000
,
00000100
00000000
00000000
00000000
,
00000001
00000000
00000100
00000000
,
00001000
00000000
00000000
00000000
,
00010000
00000000
00001000
00000000
,
00100000
00000000
00000000
00000000
,
01000000
00000000
01000000
00000000
,
10000000
00000000
00000000
00000000
,
00100000
00000000
01000000
00000000
,
00001000
00000000
00000000
00000000
,
00010000
00000000
00000010
00000000
,
00000100
00000000
00000000
00000000
,
00000001
00000000
00000001
00000000
,
00000100
00000000
00000000
00000000
,
00001000
00000000
00001000
00000000
,
00010000
00000000
00000000
00000000
,
00100000
00000000
00000000
00000000
,
10000000
00000000
00000000
00000000
,
01000000
00000000
00100000
00000000
,
00010000
00000000
00000000
00000000
,
01000000
00000000
00000000
00000000
,
00010000
00000000
00000000
00000000
,
00001000
00000000
00000100
00000000
,
00000010
00000000
00000000
00000000
,
00000001
00000000
00000000
00000000
,
00000010
00000000
00000000
00000000
,
00000010
00000000
00000100
00000000
,
00000100
00000000
00000000
00000000
,
00001000
00000000
00000000
00000000
,
00010000
00000000
00000000
00000000
,
01000000
00000000
10000000
00000000
,
10000000
00000000
00000000
00000000
,
10000000
00000000
00000000
00000000
,
01000000
00000000
00000000
00000000
,
00010000
00000000
00001000
00000000
,
00000100
00000000
00000000
00000000
,
00000010
00000000
00000000
00000000
,
00001000
00000000
00000000
00000000
,
00000100
00000000
00000001
00000000
,
00000010
00000000
00000000
00000000
,
00001001
00000000
00000000
00000000
;

//---------------dance-double - ----------------
#NOTES:
     dance-double:
     :
     Easy:
     4:
     :
00000000
00000000
00000000
00000000
,
00000000
00000000
00000000
00000000
,
00000000
00000000
00000000
00000000
,
00000000
00000000
00000000
00000000
,
00000000
00000000
00000000
00000000
,
00001000
00001000
00000010
00000000
,
00000100
00000000
00000001
00000000
,
00000010
00000010
00000100
00000000
,
00010000
00000000
00001000
00010000
,
00100000
00000000
10000000
00000000
,
01000000
00100000
00100000
00000000
,
01000000
00000000
00010000
00000000
,
01000000
00010000
00001000
00000000
,
00000010
00000000
00000001
00000000
,
00000100
00001000
00001000
00000000
,
00000100
00000000
00000001
00000000
,
00000010
00001000
00001000
00000000
,
00010000
00000000
00100000
00000000
,
10000000
01000000
01000000
00000000
,
00100000
00000000
00010000
00000000
,
10000000
01000000
01000000
00000000
,
00010000
00000000
00001000
00000000
,
00000010
00000001
00000001
00000000
,
00001000
00000000
00000001
00000000
,
00001001
00000000
00000000
00000000
,
00000100
00001000
00010000
00000000
,
00100000
00100000
00100000
00000000
,
10000000
01000000
00010000
00000000
,
01000000
01000000
01000000
00000000
,
00010000
00001000
00000010
00000000
,
00000001
00000001
00000001
00000000
,
00000010
00000000
00001000
00000000
,
00000100
00000100
00000100
00000000
,
00000010
00000000
00000110
00000000
,
00000100
00001000
00010000
00000000
,
01000000
00000000
01100000
00000000
,
01000000
10000000
00100000
00000000
,
01000000
00000000
01100000
00000000
,
10000000
01000000
00010000
00000000
,
00001000
00000000
00011000
00000000
,
00010000
00000010
00000100
00000000
,
00000001
00000000
00000100
00000000
,
00000010
00000000
00001000
00000000
,
00010000
00000000
00001000
00000000
,
00010000
01000000
10000000
00000000
,
10000000
00000000
00100000
00000000
,
01000000
00000000
00001000
00000000
,
00010000
00000000
00000010
00000000
,
00000100
00000001
00000010
00000000
,
00000100
00001000
00000010
00000000
,
00000100
00001000
00010000
00000000
,
00100000
00000000
10000000
00000000
,
01000000
10000000
00100000
00000000
,
10000000
00000000
00100000
00000000
,
00010000
00001000
00000010
00000000
,
00000001
00000000
00000100
00000000
,
00000010
00001000
00000100
00000000
,
00001001
00000000
00000000
00000000
;

//---------------dance-double - ----------------
#NOTES:
     dance-double:
     :
     Medium:
     6:
     :
00000000
00000000
00000000
00000000
,
00000000
00000000
00000000
00000000
,
00000000
00000000
00000000
00000000
,
00000000
00000000
00000000
00000000
,
00000000
00000000
00000000
00000000
,
00000002
00000000
00002003
00000000
,
00003010
00000000
00001000
00000000
00000100
00000100
00001000
00000000
,
00000020
00000000
00020030
00000000
,
00031000
00000000
01000000
00000000
00100000
10000000
01000000
00000000
,
10000000
01000000
00010000
00000000
00100000
00000000
01000000
00000000
,
01100000
00000000
10000000
00000000
00100000
10000000
01000000
00000000
,
00010000
01000000
00100000
00000000
10000000
01000000
00010000
00000000
,
00010000
00000000
00000010
00000000
00001000
00000010
00000001
00000000
,
00000001
00000010
00001000
00000000
00000100
00000000
00000010
00000000
,
00000110
00000000
00000001
00000000
00000100
00000001
00000010
00000000
,
00000001
00000010
00001000
00010000
,
00000010
00000100
00001000
00000000
00001000
00000000
00100000
00000000
,
00100000
10000000
00010000
00000000
10000000
00000000
00100000
00000000
,
10000000
01000000
00010000
00000000
01000000
00000000
10000000
00000000
,
00010000
10000000
00010000
00000000
00100000
01000000
00100000
00000000
,
01000000
00001000
00010000
00001000
,
00000100
00000001
00000010
00000000
00000100
00001000
00000010
00000000
,
00000001
00000010
00001000
00000000
00000010
00000000
00000001
00000000
,
00001000
00000001
00001000
00000000
00000100
00000010
00000100
00000000
,
00000010
00010000
00001000
00010000
,
00100000
00000000
10000000
01000000
00000000
00000000
00100000
00000000
,
00010000
01000000
10000000
00000000
01000000
00000000
00001000
00000000
,
00010000
00000000
00001000
00000100
00000000
00000000
00000001
00000000
,
00000010
00000100
00001000
00000001
00000010
00000000
00000110
00000000
,
00001000
00000010
00000100
00000000
00000001
00000100
00001000
00000000
,
00010000
00000000
01000000
10000000
00100000
00000000
01000000
00000000
,
00010000
01000000
00010000
00000000
00100000
01000000
10000000
00000000
,
01000000
00010000
00001000
00000010
,
00000001
00000010
00000100
00000000
00000100
00001000
00000010
00000000
,
00001000
00000010
00000001
00000010
00001000
00000100
00010000
00000000
,
01000000
10000000
00100000
00000000
01000000
00010000
00100000
00000000
,
01000000
10000000
01000000
00010000
00001000
00000000
00011000
00000000
,
00001000
00000010
00000001
00000000
00001000
00000100
00000001
00000000
,
00000100
00001000
00000010
00000100
00001000
00000000
00011000
00000000
,
01000000
10000000
00100000
00000000
01000000
00010000
00100000
00000000
,
00000000
00000000
00000000
00000000
,
10000000
01000000
00100000
01100000
00000000
10000000
01000000
00000000
,
00010000
00000000
00001000
00000000
00000100
00000001
00000010
00000000
,
00000100
00001000
00000010
00001010
00000000
00000100
00000001
00000000
,
00000100
00010000
00001000
01000000
,
00100000
10000000
01000000
00010000
00000000
00001000
00010000
00000000
,
00000010
00000100
00000001
00000100
00001000
00000100
00000010
00000000
,
00001000
00000001
00000010
00001000
00000000
00010000
01000000
00000000
,
01000000
10000000
00100000
00000000
00100000
01000000
01010000
00000000
,
00100000
10000000
01000000
00000000
00100000
00000000
10000000
01000000
,
00010000
00000000
00001000
00000000
00000000
00010000
00000000
00000000
00000010
00000000
00000000
00000100
00000000
00000000
00000001
00000000
,
00000010
00000100
00001000
00000000
00000010
00000100
00000001
00000000
,
00000100
00000000
00001000
00000000
00000000
00010000
00000000
00000000
00100000
00000000
00000000
01000000
00000000
00000000
00010000
00000000
,
00100000
01000000
10000000
00000000
10000000
00000000
01000000
00000000
,
00010000
00000000
00001000
00000000
00000010
00000000
00000000
00000000
00001000
00000000
00000000
00000100
00000000
00000000
00000001
00000000
,
00000100
00000010
00001000
00000010
,
00010000
00100000
10000000
01000000
,
11000000
00000000
00000000
00000000
;

//---------------dance-double - ----------------
#NOTES:
     dance-double:
     :
     Hard:
     7:
     :
00000000
00000000
00000000
00000000
,
00000000
00000000
00000000
00000000
,
00000000
00000000
00000000
00000000
,
00000000
00000000
00000000
00000000
,
00000000
00000000
00000000
00000000
,
00000001
00000000
00001000
00000000
00000010
00000100
00000100
00000000
,
00000010
00000000
00010000
00000000
00001000
00100000
00100000
00000000
,
01000000
10000000
00100000
00000000
00100000
01000000
00010000
00000000
,
10000000
01000000
00010000
00001000
,
00000010
00000000
00000001
00000000
00001000
00000010
00000100
00000000
,
00000001
00000100
00001000
00000000
00001000
00000100
00000001
00000000
,
00000010
00000000
00000100
00000000
00010000
00001000
00001000
00000000
,
01000000
00000000
00100000
00000000
10000000
01000000
00100000
00000000
,
00010000
00100000
10000000
00000000
10000000
00100000
00010000
00000000
,
01000000
00000000
00001000
00000000
00000010
00000001
00001000
00000000
,
00000010
00000000
00001000
00000000
,
00000001
00000000
00000100
00000000
00001000
00010000
00100000
00000000
,
10000000
00000000
01000000
00000000
00100000
00010000
10000000
00000000
,
01000000
00000000
00010000
00000000
00001000
00000100
00000001
00000010
,
00000100
00000000
00001000
00000000
00000001
00000010
00000100
00000000
,
00001000
00000010
00000100
00000000
00001000
00010000
01000000
00000000
,
10000000
00100000
01000000
00000000
00010000
10000000
01000000
00000000
,
00100000
00000000
00001000
00000000
00010000
00001000
00000010
00000000
,
00000001
00000000
00001000
00000000
00000010
00000100
00001000
00000000
,
00010000
00000000
00100000
00000000
10000000
00100000
01000000
00000000
,
00010000
00100000
10000000
01100000
00000000
01000000
00010000
00001000
,
00000010
00000000
00000001
00000100
00000001
00000100
00000010
00000000
,
00000100
00000010
00001000
00000110
00000000
00000001
00000100
00000000
,
00001000
00010000
00100000
10000000
01000000
00010000
01000000
10000000
,
00100000
00010000
00100000
10100000
00000000
00000000
01000000
00000000
,
00010000
00001000
00000100
00000000
00000001
00000010
00000100
00000000
,
00001000
00000001
00000100
00000101
00000000
00000010
00000100
00000000
,
00000001
00000010
00001000
00010000
00100000
10000000
10100000
00000000
,
10000000
01000000
00100000
01100000
00000000
00010000
10000000
00000000
,
10000000
00000000
00000000
00000000
01000000
00000000
00000000
01000000
00000000
00000000
00010000
00000000
00000000
00010000
00000000
00000000
,
00001000
00000010
00000100
00001100
00000000
00000010
00000001
00000000
,
00000100
00000000
00000010
00000000
00001000
00000000
00000000
00000010
00000000
00000000
00000100
00000000
00000000
00000001
00000000
00000000
,
00000010
00000100
00001000
00001010
00000000
00010000
00001000
00000000
,
00100000
00000000
01000000
00000000
10000000
00000000
00000000
00010000
00000000
00000000
01000000
00000000
00000000
00100000
00000000
00000000
,
10000000
01000000
00100000
00110000
00000000
00010000
01000000
00000000
,
00100000
10000000
01000000
00000000
00010000
00001000
00010000
00001000
,
00000010
00000001
00000001
00000000
00000100
00000010
00000010
00000000
,
00000100
00000000
00001000
00000000
00010000
00100000
10000000
00000000
,
01000000
00010000
00010000
00000000
00001000
00000010
00000010
00000000
,
00000001
00000000
00000100
00000000
00000010
00001000
00000010
00000000
,
00000100
00000001
00000010
00000000
00000001
00000010
00001000
00000000
,
00010000
00000000
00100000
00000000
10000000
01000000
01000000
00000000
,
10000000
01000000
00010000
00000000
01000000
00010000
00001000
00000000
,
00000010
00000001
00000100
00000000
00000010
00001000
00000100
00000000
,
00000010
00000100
00000001
00000100
00010000
00000000
00001000
00000000
,
00100000
10000000
00100000
00010000
00100000
00000000
10000000
00000000
,
01000000
00010000
00001000
00010000
00001000
00000000
00000100
00000000
,
00000001
00000010
00001000
00000010
00000001
00000010
00000100
00000000
,
00001000
00000001
00000100
00001000
00010000
01000000
10000000
00000000
,
00100000
10000000
01000000
00010000
00001000
00000100
00000010
00000000
,
00001000
00000010
00000001
00000000
00000001
00000010
00001000
00000000
,
00000110
00000000
00000010
00010000
00001000
00100000
01000000
00000000
,
11000000
00000000
00000000
00000000
;
