
//----- song ID: sofi -----//
#TITLE:So Fine;
#ARTIST:The Freestylers;
#BANNER:So Fine.png;
#BACKGROUND:So Fine-bg.png;
#CDTITLE:./CDTITLES/DanceDanceRevolution UNIVERSE2.png;
#MUSIC:So Fine.ogg;
#SAMPLESTART:41.949;
#SAMPLELENGTH:15;
#BPMS:0=118;

//---------------dance-single - ----------------
#NOTES:
     dance-single:
     :
     Beginner:
     1:
     :
0000
0000
0000
0000
,
0000
0000
0000
0000
,
0000
0000
0000
0000
,
0010
0000
0000
0000
,
0001
0000
0000
0000
,
1000
0000
0000
0000
,
0001
0000
0001
0000
,
0100
0000
0000
0000
,
0010
0000
0000
0000
,
1000
0000
0000
0000
,
1000
0000
1000
0000
,
0001
0000
0000
0000
,
0010
0000
0000
0000
,
0100
0000
0000
0000
,
0010
0000
0010
0000
,
1000
0000
0000
0000
,
0100
0000
0000
0000
,
0001
0000
0000
0000
,
0010
0000
0000
0000
,
1000
0000
0000
0000
,
0001
0000
0000
0000
,
0100
0000
0000
0000
,
0010
0000
0100
0000
,
0001
0000
0000
0000
,
1000
0000
0000
0000
,
0010
0000
0000
0000
,
1000
0000
0100
0000
,
0001
0000
0000
0000
,
0010
0000
0000
0000
,
0100
0000
0001
0000
,
0010
0000
0000
0000
,
0100
0000
1000
0000
,
0100
0000
0000
0000
,
0001
0000
0000
0000
,
1000
0000
1000
0000
,
0010
0000
0000
0000
,
0100
0000
0000
0000
,
0001
0000
0000
0000
,
0001
0000
0001
0000
,
1000
0000
0000
0000
,
0100
0000
0000
0000
,
0010
0000
0000
0000
,
0100
0000
0100
0000
,
0001
0000
0000
0000
,
0010
0000
0000
0000
,
1000
0000
0000
0000
,
0100
0000
0000
0000
,
0001
0000
0000
0000
,
1000
0000
0000
0000
,
0010
0000
0000
0000
,
0100
0000
0010
0000
,
1000
0000
0000
0000
,
0001
0000
0000
0000
,
0100
0000
0000
0000
,
0001
0000
0010
0000
,
1000
0000
0000
0000
,
0100
0000
0000
0000
,
0110
0000
0000
0000
;

//---------------dance-single - ----------------
#NOTES:
     dance-single:
     :
     Easy:
     3:
     :
0000
0000
0000
0000
,
0000
0000
0000
0000
,
0000
0000
0000
0000
,
0010
0000
0010
0000
,
0100
0000
0100
0000
,
0001
0001
0000
1000
,
0010
0010
0100
0100
,
0100
0000
1000
1000
,
0001
0000
0010
0010
,
0100
0000
0000
0100
,
1000
1000
0001
0000
,
0001
0000
1000
0000
,
0001
0000
0100
0100
,
0010
0000
0000
0010
,
0001
0001
1000
1000
,
0010
0000
0100
0000
,
0001
0010
1000
0100
,
0100
0000
0000
0100
,
1000
1000
0001
0001
,
0020
0030
0200
0300
,
0110
0000
0000
0000
,
0001
0010
0001
0000
,
1000
0100
1000
1000
,
0002
0003
0200
0300
,
0020
0030
2000
3000
,
0100
1000
0100
0000
,
0010
0001
0010
0010
,
0100
1000
0010
0001
,
0100
0100
0100
0000
,
1000
0001
1000
0000
,
0001
1000
0001
0000
,
0100
0010
1000
0000
,
0100
0010
0001
0000
,
1001
1001
0000
0001
,
0100
0100
0010
0010
,
0010
0000
0001
0001
,
1000
0000
0100
0100
,
0110
0110
0000
0010
,
0001
0001
1000
0000
,
2000
3000
0002
0003
,
2000
3000
0010
0010
,
0110
0110
0000
0100
,
1000
1000
0001
0001
,
0100
0000
0010
0000
,
1000
0100
0001
0010
,
0020
0000
0030
0100
,
0001
0001
1000
1000
,
0200
0300
0020
0030
,
0110
0000
0000
0000
,
1000
0100
1000
0000
,
0001
0010
0001
0001
,
2000
3000
0020
0030
,
0200
0300
0002
0003
,
0010
0001
0010
0000
,
0100
1000
0100
0100
,
0010
0001
0100
1000
,
0010
0010
0100
0100
,
1001
0000
0000
0000
;

//---------------dance-single - ----------------
#NOTES:
     dance-single:
     :
     Medium:
     6:
     :
0000
0000
0000
0000
,
0000
0000
0000
0000
,
0000
0000
0000
0000
,
0100
0010
0110
0000
,
1000
0001
1001
0000
,
0001
0100
0010
0010
,
1000
0100
1000
0000
0001
0000
1000
0000
,
0100
0010
0001
0100
,
0010
0100
0000
0000
0010
0000
1001
0000
,
0100
1000
0001
0100
,
0001
0010
0001
0000
0100
0000
1000
0000
,
0010
0002
0103
0010
,
1000
1000
0100
0000
1000
0000
0110
0000
,
0001
0100
0001
0000
0010
0000
0110
0000
,
0100
0100
0100
0000
0010
0000
0010
0000
,
1000
0010
0001
0100
,
0101
0101
0110
1010
,
1100
0101
0000
0110
,
0010
0010
0010
0000
0001
0000
1000
0000
,
0100
0000
0100
0010
0100
0000
0010
0000
,
1002
0000
0000
0013
0000
0000
1000
0000
,
0010
1000
0010
0000
1000
0000
0110
0000
,
0001
0010
0010
0000
0100
0100
1000
0000
,
0001
0101
1000
1010
,
0001
0011
1000
1010
,
0100
0010
0100
0000
0010
0000
0011
0000
,
1000
0010
0010
0000
0100
0100
0001
0000
,
0011
0011
0110
1100
,
0010
0100
0010
0100
0001
0000
0000
0000
,
0001
0001
1000
0000
0001
0000
0010
0000
,
0100
0100
1000
0000
0100
0000
0010
0000
,
1000
1000
0010
0000
0100
0000
0001
0000
,
0010
0100
0010
0000
0110
0000
0000
0000
,
1000
0010
0100
0100
,
0001
0010
0001
0000
1000
0000
0001
0000
,
0010
0100
1000
0010
,
0100
0010
0000
0000
0100
0000
1001
0000
,
0010
0001
1000
0010
,
1000
0100
1000
0000
0010
0000
0001
0000
,
0100
2000
3010
0100
,
0001
0001
0010
0000
0001
0000
0110
0000
,
1000
0010
1000
0000
0100
0000
0110
0000
,
0010
0010
0010
0000
0100
0000
0100
0000
,
0001
0100
1000
0010
,
1010
1010
0110
0101
,
0021
0000
0000
0130
,
0100
0100
0100
0000
1000
0000
0001
0000
,
0010
0000
0010
0100
0010
0000
0100
0000
,
1001
0000
0000
0000
,
0001
0000
0100
0001
0100
0000
0001
0000
,
0110
0000
1000
0100
0100
0000
0010
0010
,
0001
1000
1010
0001
,
0101
1000
1100
0001
,
0101
0000
0010
0100
0010
0000
0100
0000
,
1100
0000
0001
0100
0100
0000
0010
0010
,
1000
1100
1100
0110
,
0011
0000
0100
0010
0100
0010
1000
0000
;

//---------------dance-single - ----------------
#NOTES:
     dance-single:
     :
     Hard:
     8:
     :
0000
0000
0000
0000
,
0000
0000
0000
0000
,
0000
0000
0000
0000
,
0010
0000
0010
0000
0000
1000
0000
0000
0001
0000
0000
0000
0100
0000
0000
0000
,
0001
0000
0001
0000
0000
1000
0000
0000
0100
0000
0010
0001
0010
0000
0100
0000
,
1000
0000
0000
0000
0010
0000
0000
0000
0100
0000
0000
0000
1001
0000
0010
1000
,
0010
0000
0100
0000
0001
0000
0010
0000
1000
0000
0000
0100
0000
0000
0010
0000
,
0001
0000
0001
0000
0000
0010
0000
0000
0100
0000
0000
0000
1000
0000
0000
0000
,
0010
0000
0010
0000
0000
1000
0000
0000
0001
0000
0000
0000
0110
0000
0000
0000
,
0100
0000
0001
0000
0010
0100
0000
0000
0010
0000
0000
0000
0001
0000
0100
0010
,
0100
0000
0010
0000
1000
0000
0100
0000
0001
0000
0000
0010
0000
0000
0001
0000
,
0000
0000
1100
0000
0101
0000
0010
0100
,
0000
0100
0010
0001
0000
0010
1000
0000
,
0100
0000
0010
0000
0001
0010
0000
0000
0100
0000
0000
0000
1100
0000
0100
0001
,
0100
0000
0010
0000
1000
0000
0010
0000
0100
0000
0000
1001
0000
0000
0100
0000
,
0010
0000
0001
0000
0010
0100
0000
0000
1001
0000
0000
0000
0110
0000
0000
0000
,
0011
0101
1010
1100
,
1001
0000
0010
0000
0100
0000
0000
0000
0010
0000
0000
0000
0011
0000
1000
0010
,
1000
0000
0100
0000
0010
0000
0001
0000
0100
0000
0000
0010
0000
0000
0100
0000
,
0001
0010
1000
0100
0001
0100
0000
0000
,
1001
0000
0100
0110
0000
0000
0110
0000
,
0001
0100
1000
0100
0010
0100
0001
0100
,
0010
1000
0100
0001
0100
0010
0001
0100
,
0010
0000
0100
0001
0000
0000
0010
0000
0100
0000
1000
0100
0000
0000
0010
0000
,
0002
0010
1000
0103
,
0010
1000
0001
1000
0100
1000
0001
0010
,
0001
1000
0100
0100
0010
0001
0100
0010
,
1000
1100
0011
0101
,
1100
0100
0001
0100
1000
0010
0010
0000
,
0001
0000
0010
0000
1000
0000
0010
0000
0001
0000
0000
0000
1000
0000
0001
1000
,
0000
0000
0010
0000
1000
0000
0100
0000
0010
0000
0000
0000
0001
0000
0100
0001
,
0000
0000
0100
0000
0010
0000
1000
0000
0010
0000
0000
0000
0100
0000
0001
1000
,
0000
0000
0100
0000
0010
0000
0001
0000
0100
0000
0001
1000
0001
0000
0100
0000
,
0001
0000
0000
0000
0100
0000
0000
0000
0010
0000
0000
0000
1001
0000
0100
0001
,
0100
0000
0010
0000
1000
0000
0100
0000
0001
0000
0000
0010
0000
0000
0100
0000
,
1000
0000
1000
0000
0000
0100
0000
0000
0010
0000
0000
0000
0001
0000
0000
0000
,
0100
0000
0100
0000
0000
0001
0000
0000
1000
0000
0000
0000
0110
0000
0000
0000
,
0010
0000
1000
0000
0100
0010
0000
0000
0100
0000
0000
0000
1000
0000
0010
0100
,
0010
0000
0100
0000
0001
0000
0010
0000
1000
0000
0000
0100
0000
0000
1000
0000
,
0000
0000
0011
0000
1010
0000
0100
0010
,
0000
0010
0100
1000
0000
0100
0001
0000
,
0010
0000
0100
0000
1000
0100
0000
0000
0010
0000
0000
0000
0011
0000
0010
1000
,
0010
0000
0100
0000
0001
0000
0100
0000
0010
0000
0000
1001
0000
0000
0010
0000
,
0100
0000
1000
0000
0100
0010
0000
0000
1001
0000
0000
0000
0110
0000
0000
0000
,
1100
1010
0101
0011
,
1001
0000
0100
0000
0010
0000
0000
0000
0100
0000
0000
0000
1100
0000
0001
0100
,
0001
0000
0010
0000
0100
0000
1000
0000
0010
0000
0000
0100
0000
0000
0010
0000
,
1000
0100
0001
0010
1000
0010
0000
0000
,
0110
0000
0001
1001
0000
0000
0110
0000
,
1000
0010
0001
0010
0100
0010
1000
0010
,
0100
0001
0010
1000
0010
0100
1000
0010
,
0100
0000
0010
1000
0000
0000
0100
0000
0010
0000
0001
0010
0000
0000
0100
0000
,
2000
0100
0001
3010
,
0100
0001
1000
0001
0010
0001
1000
0100
,
1000
0001
0010
0010
0100
1000
0010
0100
,
0001
0011
1100
1010
,
0011
0010
1000
0010
0001
0100
0010
1000
,
1100
0000
0000
0000
;

//---------------dance-double - ----------------
#NOTES:
     dance-double:
     :
     Beginner:
     1:
     :
00000000
00000000
00000000
00000000
,
00000000
00000000
00000000
00000000
,
00000000
00000000
00000000
00000000
,
00100000
00000000
00000000
00000000
,
01000000
00000000
00000000
00000000
,
10000000
00000000
00000000
00000000
,
01000000
00000000
00010000
00000000
,
00001000
00000000
00000000
00000000
,
00000100
00000000
00000000
00000000
,
00000010
00000000
00000000
00000000
,
00000001
00000000
00000001
00000000
,
00000100
00000000
00000000
00000000
,
00001000
00000000
00000000
00000000
,
00010000
00000000
00000000
00000000
,
00100000
00000000
01000000
00000000
,
10000000
00000000
00000000
00000000
,
01000000
00000000
00000000
00000000
,
00010000
00000000
00000000
00000000
,
00001000
00000000
00000000
00000000
,
00000010
00000000
00000000
00000000
,
00000001
00000000
00000000
00000000
,
00000010
00000000
00000000
00000000
,
00001000
00000000
00010000
00000000
,
00100000
00000000
00000000
00000000
,
10000000
00000000
00000000
00000000
,
01000000
00000000
00000000
00000000
,
00010000
00000000
00001000
00000000
,
00000100
00000000
00000000
00000000
,
00000001
00000000
00000000
00000000
,
00000010
00000000
00000100
00000000
,
00000010
00000000
00000000
00000000
,
00001000
00000000
00000001
00000000
,
00001000
00000000
00000000
00000000
,
00000001
00000000
00000000
00000000
,
00000100
00000000
00001000
00000000
,
00010000
00000000
00000000
00000000
,
01000000
00000000
00000000
00000000
,
00100000
00000000
00000000
00000000
,
10000000
00000000
10000000
00000000
,
01000000
00000000
00000000
00000000
,
00010000
00000000
00000000
00000000
,
00001000
00000000
00000000
00000000
,
00000010
00000000
00000100
00000000
,
00000001
00000000
00000000
00000000
,
00000100
00000000
00000000
00000000
,
00001000
00000000
00000000
00000000
,
00010000
00000000
00000000
00000000
,
00100000
00000000
00000000
00000000
,
10000000
00000000
00000000
00000000
,
00100000
00000000
00000000
00000000
,
00010000
00000000
00001000
00000000
,
00000010
00000000
00000000
00000000
,
00000001
00000000
00000000
00000000
,
00000100
00000000
00000000
00000000
,
00001000
00000000
00010000
00000000
,
01000000
00000000
00000000
00000000
,
10000000
00000000
00000000
00000000
,
10010000
00000000
00000000
00000000
;

//---------------dance-double - ----------------
#NOTES:
     dance-double:
     :
     Easy:
     3:
     :
00000000
00000000
00000000
00000000
,
00000000
00000000
00000000
00000000
,
00000000
00000000
00000000
00000000
,
00001000
00000000
00001000
00000000
,
00000100
00000000
00000100
00000000
,
00000010
00000100
00000010
00000001
,
00000100
00000000
00001000
00000000
,
00010000
00010000
00001000
00001000
,
00100000
00000000
00100000
00000000
,
01000000
10000000
01000000
00010000
,
00001000
00000000
00010000
00000000
,
00000100
00000100
00002000
00003000
,
00000020
00000030
00000001
00000001
,
00000100
00000000
00000000
00000100
,
00001000
00001000
00010000
00010000
,
02000000
03000000
00200000
00300000
,
00010000
01000000
10000000
00100000
,
00020000
00000000
00030000
00001000
,
00010000
00010000
00001000
00001000
,
00000100
00000010
00000001
00000001
,
00000110
00000000
00000000
00001000
,
00011000
00000000
00000000
00001000
,
00100000
00100000
01000000
01000000
,
20000000
30000000
00010000
00010000
,
00200000
00300000
00001000
00010000
,
00011000
00000000
00000000
00001000
,
00000100
00000010
00000100
00000100
,
00000001
00000010
00001000
00010000
,
00022000
00000000
00000000
00033000
,
00001000
00001000
00100000
00000000
,
00010000
00010000
00000100
00000000
,
00001000
00001000
01000000
00000000
,
00010000
00010000
10000000
00000000
,
00100000
01000000
00100000
10000000
,
01000000
00000000
00010000
00000000
,
00001000
00001000
00010000
00010000
,
00000010
00000000
00000010
00000000
,
00000100
00000001
00000100
00001000
,
00010000
00000000
00001000
00000000
,
01000000
01000000
00020000
00030000
,
00200000
00300000
10000000
10000000
,
01000000
00000000
00000000
01000000
,
00010000
00010000
00001000
00001000
,
00000200
00000300
00000020
00000030
,
00001000
00000100
00000001
00000010
,
00002000
00000000
00003000
00010000
,
00001000
00001000
00010000
00010000
,
01000000
00100000
10000000
01000000
,
00010000
00000000
00000000
00001000
,
00011000
00000000
00000000
00010000
,
00000010
00000010
00000100
00000100
,
00000002
00000003
00001000
00001000
,
00000020
00000030
00010000
00001000
,
00011000
00000000
00000000
00010000
,
01000000
00100000
01000000
01000000
,
10000000
00100000
00010000
00001000
,
00000200
00000000
00000000
00000300
,
00000110
00000000
00000000
00000000
;

//---------------dance-double - ----------------
#NOTES:
     dance-double:
     :
     Medium:
     6:
     :
00000000
00000000
00000000
00000000
,
00000000
00000000
00000000
00000000
,
00000000
00000000
00000000
00000000
,
10000000
01000000
00010000
00000000
,
01000000
00010000
00001000
00000000
,
00001000
00010000
00000010
00000010
,
00001000
00000100
00001000
00000000
00000001
00000000
00000100
00000000
,
00001000
00010000
00001000
00100000
,
01000000
00100000
00000000
00000000
10000000
00000000
01100000
00000000
,
10000000
01000000
00010000
00001000
,
00001000
00010000
00001000
00000000
00000100
00000000
00000010
00000000
,
00000010
00002000
00003100
00000010
,
00000001
00000001
00000010
00000000
00000100
00000000
00001001
00000000
,
00001000
00000100
00001000
00000000
00010000
00000000
00011000
00000000
,
00001000
00001000
00001000
00000000
00100000
00000000
00100000
00000000
,
00010000
01000000
00100000
10000000
,
11000000
11000000
00110000
00110000
,
01100000
01010000
00000000
00011000
,
00010000
00010000
00010000
00000000
00001000
00000000
00000000
00000000
,
00000100
00000000
00000010
00000100
00000010
00000000
00001000
00000000
,
00002000
00000000
00000000
00013000
00000000
00000000
00001000
00000000
,
00100000
00010000
00100000
00000000
01000000
00000000
01100000
00000000
,
10000000
01000000
01000000
00000000
00010000
00010000
00001000
00000000
,
00000010
00000110
00000001
00001001
,
00000100
00000110
00001000
00001001
,
00000100
00001000
00000100
00000000
00010000
00000000
00011000
00000000
,
00010000
00100000
00100000
00000000
01000000
01000000
10000000
00000000
,
10000000
10100000
00010000
00110000
,
01000000
00100000
01000000
00100000
00010000
00000000
00000000
00000000
,
01000000
01000000
00010000
00000000
01000000
00000000
00001000
00000000
,
00010000
00001000
00001000
00000000
00000100
00000000
00000010
00000000
,
00001000
00001000
00000100
00000000
00000010
00000000
00000001
00000000
,
00000100
00001000
00010000
00000000
00011000
00000000
00000000
00000000
,
00010000
00001000
00100000
00100000
,
00010000
01000000
00010000
00000000
10000000
00000000
01000000
00000000
,
00010000
00001000
00010000
00000010
,
00000100
00000010
00000000
00000000
00000001
00000000
00000110
00000000
,
00000001
00000100
00001000
00010000
,
00010000
00001000
00010000
00000000
01000000
00000000
00100000
00000000
,
00100000
00020000
01030000
00100000
,
10000000
10000000
00100000
00000000
01000000
00000000
10010000
00000000
,
00010000
01000000
00010000
00000000
00001000
00000000
00011000
00000000
,
00010000
00010000
00010000
00000000
00000010
00000000
00000010
00000000
,
00001000
00000100
00000010
00000001
,
00000101
00000101
00001010
00001010
,
00000110
00001100
00000000
00011000
,
00001000
00001000
00001000
00000000
00010000
00000000
00000000
00000000
,
01000000
00000000
00100000
01000000
00100000
00000000
00010000
00000000
,
10010000
00000000
00000000
00000000
,
00100000
00010000
00100000
00000000
01000000
00000000
01100000
00000000
,
10000000
01000000
01000000
00000000
00010000
00010000
00001000
00000000
,
00000010
00000110
00000001
00001001
,
00000100
00000110
00001000
00001001
,
00000100
00001000
00000100
00000000
00010000
00000000
00011000
00000000
,
00010000
00100000
00100000
00000000
01000000
01000000
10000000
00000000
,
10000000
10100000
00010000
00110000
,
01000000
00100000
01000000
00100000
00010000
00000000
10000000
00000000
,
01100000
00000000
00000000
00000000
;

//---------------dance-double - ----------------
#NOTES:
     dance-double:
     :
     Hard:
     7:
     :
00000000
00000000
00000000
00000000
,
00000000
00000000
00000000
00000000
,
00000000
00000000
00000000
00000000
,
10000000
10000000
01000000
00010000
,
00001000
00001000
00000220
00000330
,
00000001
00000001
00000100
00000000
00000010
00000000
00001010
00000000
,
00000100
00010000
00001000
00000000
00100000
00010000
01000000
00000000
,
00001000
00001000
00020000
00000000
00001000
00000000
01030000
00000000
,
10000000
10000000
00200000
00000000
00010000
00000000
10300000
00000000
,
01000000
00010000
00002000
00000000
00100000
00000000
00013000
00000000
,
00001000
00000000
00000100
00000000
00000001
00000000
00002000
00000000
00000100
00000000
00000000
00000100
00000000
00000000
00003100
00000000
,
00000000
00010000
00001000
00000000
00201000
00000000
00310000
00000000
,
00000000
10100000
00000000
11000000
00000000
00100000
01000000
00000000
,
00010000
00001000
00000010
00000100
00001000
00000000
00001010
00000000
,
00000010
00000100
00001000
00010000
01000000
00000000
11000000
00000000
,
00100000
00010000
10000000
00000000
00100000
00010000
00001000
00000000
,
00011000
00010010
00001010
00000101
,
00000010
00001000
00000100
00010000
00001000
00100000
00010000
00000000
,
01000000
00001000
00100000
00010000
10000000
01000000
00010000
00000000
,
00001000
00010000
00000010
00001000
00000100
00000010
00000001
00000000
,
00002100
00000000
00000010
00003010
00000000
00000000
00002000
00000000
,
00003001
00000100
00001000
00010000
00100000
00000000
01000000
00000000
,
00100000
00010000
00001000
00000010
00000001
00000010
00000100
00020000
,
00000000
00000000
00100000
00230000
00000000
00000000
10300000
20000000
,
00000000
00000000
31000000
02000000
00000000
00000000
03020000
00000000
,
00031000
00010000
00100000
10000000
01000000
00000000
00010000
00000000
,
00001000
00010000
00001000
00000010
00000100
00000010
00000001
00001000
,
00000010
00000100
00001000
00010000
,
00100000
01000000
00100000
10000000
00100000
00010000
00100000
10000000
,
01000000
01000000
00010000
00010000
00001000
00000000
00010000
00001000
,
00100000
00001000
00010000
00010000
00000100
00000000
00001000
00000100
,
00000010
00000001
00000100
00000100
00001000
00000000
00010000
00001000
,
00010000
01000000
10000000
10000000
00200000
00000000
00300000
00000000
,
10000000
10000000
00100000
00000000
01000000
00000000
01010000
00000000
,
00100000
00001000
00010000
00000000
00000100
00001000
00000010
00000000
,
00010000
00010000
00002000
00000000
00010000
00000000
00003010
00000000
,
00000001
00000001
00000200
00000000
00001000
00000000
00000301
00000000
,
00000010
00001000
00020000
00000000
00000100
00000000
00031000
00000000
,
00010000
00000000
00100000
00000000
10000000
00000000
00020000
00000000
00100000
00000000
00000000
10000000
00000000
00000000
01030000
00000000
,
00000000
00001000
00010000
00000000
00010200
00000000
00001300
00000000
,
00000000
00000101
00000000
00000011
00000000
00000100
00000010
00000000
,
00001000
00010000
01000000
00100000
00010000
00000000
01010000
00000000
,
01000000
00100000
00010000
00001000
00000010
00000000
00000011
00000000
,
00000100
00001000
00000001
00000000
00000100
00001000
00010000
00000000
,
00011000
01001000
01010000
10100000
,
10000000
00000000
00000000
00010000
00000000
00000000
00000000
00000000
00000000
00000000
00000000
00000000
00000001
00000000
00000000
00000000
,
00000010
00000000
00000001
00000000
00000100
00000000
00001000
00000000
00010000
00000000
00000000
00100000
00000000
00000000
10000000
00000000
,
01000000
10000000
00010000
00100000
01000000
00010000
00000000
00000000
,
00001000
00000000
00010000
00011000
00000000
00000000
00020000
00000000
,
10030000
01000000
00010000
00001000
00000100
00000000
00000010
00000000
,
00000100
00001000
00010000
01000000
10000000
01000000
00100000
00002000
,
00000000
00000000
00000100
00003200
00000000
00000000
00000301
00000002
,
00000000
00000000
00000013
00000020
00000000
00000000
00002030
00000000
,
00013000
00001000
00000100
00000001
00000010
00000000
00001000
00000000
,
00010000
00001000
00010000
01000000
00100000
01000000
10000000
00010000
,
01000000
00100000
00010000
00001000
,
00000100
00000100
00000001
00000001
00000010
00001000
00010000
00001000
,
00011000
00000000
00000000
00000000
;
