
//----- song ID: safe -----//
#TITLE:Safety Dance;
#ARTIST:Men Without Hats;
#BANNER:Safety Dance.png;
#BACKGROUND:Safety Dance-bg.png;
#CDTITLE:./CDTITLES/DanceDanceRevolution UNIVERSE2.png;
#MUSIC:Safety Dance.ogg;
#SAMPLESTART:11.803;
#SAMPLELENGTH:15;
#BPMS:0=101.67;
#BGCHANGES:0=Safety Dance-bg.png=1=0=0=1,3=Safety Dance.avi=1=0=0=0;

//---------------dance-single - ----------------
#NOTES:
     dance-single:
     :
     Beginner:
     1:
     :
0000
0000
0000
0000
,
0000
0000
0000
0000
,
0000
0000
0000
0000
,
0000
0000
0000
0000
,
0000
0000
0000
0000
,
0000
0100
0000
0010
,
0000
0100
0000
0010
,
0000
0001
0000
1000
,
0000
0010
0010
0000
,
0000
0100
0000
0010
,
0000
0100
0000
0010
,
0000
1000
0000
0001
,
0000
0010
0010
0000
,
0100
0000
1000
0000
,
0010
0000
0000
0000
,
0100
0000
0001
0000
,
0010
0000
0000
0000
,
0000
0100
0000
1000
,
0000
0100
0000
1000
,
0000
0001
0000
0100
,
0000
0010
0010
0000
,
0000
0001
0000
0100
,
0000
0001
0000
0100
,
0000
0010
0000
1000
,
0000
0100
0100
0000
,
0000
0010
0000
0001
,
0000
1000
0000
0000
,
0000
0010
0000
1000
,
0000
0001
0000
0000
,
0000
0100
0000
1000
,
0000
0001
0000
0000
,
0000
0100
0000
0001
,
0000
1000
0000
0000
,
0001
0000
0010
0000
,
1000
0000
0010
0000
,
0001
0000
0100
0000
,
1000
0000
0100
0000
,
0001
0000
0001
0000
,
1000
0000
1000
0000
,
0100
0000
0100
0000
,
0010
0000
0010
0000
,
0000
1001
0000
0000
;

//---------------dance-single - ----------------
#NOTES:
     dance-single:
     :
     Easy:
     3:
     :
0000
0000
0000
0000
,
0000
0000
0000
0000
,
0000
0000
0000
0000
,
0000
0000
0000
0000
,
0000
0000
0000
0000
,
0000
0100
1000
0010
,
0000
0100
0001
0010
,
0100
0100
0010
0010
,
0001
1000
0001
0000
,
0000
0100
0010
1000
,
0000
0100
0010
0001
,
1000
1000
0001
0001
,
0100
0010
0100
0000
,
0001
0010
0000
0100
,
0000
1000
0000
0010
,
0100
0001
0000
0010
,
0000
0001
0000
0100
,
0000
0010
0001
0100
,
0000
0010
1000
0100
,
0010
0010
0100
0100
,
1000
0001
1000
0000
,
0000
0010
0100
0001
,
0000
0010
0100
1000
,
0001
0001
1000
1000
,
0010
0100
0010
0000
,
1000
0100
0000
0010
,
0000
0001
0000
0100
,
0010
1000
0000
0100
,
0000
0010
0000
0001
,
0000
1001
0000
0110
,
0100
0100
0010
0010
,
0000
0110
0000
1001
,
0001
0001
1000
1000
,
0100
0000
0001
0000
,
0100
0000
1000
0001
,
1000
0000
0010
0000
,
0001
0000
0010
1000
,
0002
0000
0003
0010
,
0020
0000
0030
0100
,
0200
0000
0300
1000
,
2000
0000
3000
0010
,
0100
0110
0000
0000
;

//---------------dance-single - ----------------
#NOTES:
     dance-single:
     :
     Medium:
     5:
     :
0000
0000
0000
0000
,
0000
0000
0000
0000
,
0000
0000
0000
0000
,
0000
0000
0000
0000
,
0000
0000
0000
0000
,
0010
0000
0001
0000
0010
0001
0010
0000
,
0100
0000
1000
0000
0010
1000
0010
0000
,
0001
0010
1000
1001
,
0100
0000
0001
0100
1000
0000
0000
0000
,
0100
0000
0001
0000
0100
0001
0100
0000
,
0010
0000
1000
0000
0100
1000
0100
0000
,
0010
0001
0100
1001
,
0010
0000
1000
0010
0001
0000
0000
0000
,
0010
1000
0100
0001
,
0100
1000
0010
0100
,
0001
0010
0100
1000
,
0100
0001
0010
0110
,
0100
0000
1000
0000
0100
1000
0010
0000
,
0100
0000
0001
0000
0010
0001
0100
0000
,
1000
0100
0001
1001
,
0010
0000
1000
0010
0002
0000
0003
0000
,
0010
0000
1000
0000
0100
1000
0010
0000
,
0100
0000
0001
0000
0010
0001
0100
0000
,
0010
1000
0100
1001
,
0100
0000
0001
0100
2000
0000
3000
0000
,
0010
0100
0001
0010
,
0100
1000
0001
0000
1001
0000
0000
0000
,
0100
1000
0010
0100
,
0001
1000
0100
0000
1001
0000
0000
0000
,
0010
0100
0100
0000
0001
1000
1000
0000
,
0100
0001
0100
1000
,
0001
0010
0010
0000
0100
1000
1000
0000
,
0010
0100
0001
1000
,
1001
0000
0100
0000
0001
0000
0100
1000
,
0010
0000
0100
0000
0001
0000
0010
0001
,
0100
0000
0010
0000
1000
0000
0100
0010
,
0001
0000
1000
0000
0010
0000
0100
0001
,
1000
0100
0010
0011
,
0001
0100
0010
1010
,
1000
0100
0001
0101
,
0100
0010
0001
1001
,
0100
0110
0000
0000
;

//---------------dance-single - ----------------
#NOTES:
     dance-single:
     :
     Hard:
     7:
     :
0000
0000
0000
0000
,
0000
0000
0000
0000
,
0000
0000
0000
0000
,
0000
0000
0000
0000
,
0000
0000
0000
0000
,
0000
0000
0100
0000
1000
0000
0010
0000
1000
0100
0000
0000
1001
0000
0000
0000
,
0100
0000
0001
0000
0010
0000
0001
0100
0000
0000
0000
0000
0110
0000
0100
0001
,
0010
0000
0001
0000
0010
0000
0100
1000
0000
1000
0010
0000
0100
0000
0001
1000
,
0000
0000
0010
0000
1000
0000
0001
0100
0000
0000
0000
0000
1001
0000
0000
0000
,
0010
0000
0001
0000
1000
0000
0001
0000
0100
0010
0000
0000
0101
0000
0000
0000
,
0010
0000
1000
0000
0001
0000
1000
0100
0000
0100
0010
0000
0001
0000
1000
0001
,
0100
0000
0001
0000
0100
0000
0010
1000
0000
1000
0001
0000
0010
0000
0100
1000
,
0000
0000
0010
0000
0100
0000
0001
1000
0000
0000
0000
0000
1001
0000
0000
0000
,
0100
0001
0100
0010
0001
0010
1000
0100
,
1000
0000
0000
1000
0000
0100
0010
0000
0001
0000
0000
0001
0000
0100
0010
0000
,
1000
0100
1000
0010
0001
0010
0100
1000
,
0100
0000
0000
0100
0000
0001
0010
0000
0100
0000
0000
0100
0000
1000
0010
0000
,
0000
0000
0100
0000
0001
0000
0010
0000
0001
0100
0000
0000
1001
0000
0000
0000
,
0100
0000
1000
0000
0010
0000
1000
0100
0000
0000
0000
0000
0110
0000
0100
1000
,
0010
0000
1000
0000
0010
0000
0100
0001
0000
0001
0010
0000
0100
0000
1000
0001
,
1000
0000
0010
0000
0100
0000
0001
1000
0000
0000
0000
0000
1001
0000
0000
0000
,
0010
0000
1000
0000
0001
0000
1000
0000
0100
0010
0000
0000
1100
0000
0000
0000
,
0010
0000
0001
0000
1000
0000
0001
0100
0000
0100
0010
0000
1000
0000
0001
1000
,
0100
0000
1000
0000
0100
0000
0010
0001
0000
0001
1000
0000
0010
0000
0100
0001
,
1000
0000
0010
0000
0100
0000
0001
0010
0000
0000
0000
0000
1001
0000
0000
0000
,
0001
0000
0100
0001
0010
0000
0000
0000
1000
0000
0100
1000
0010
0000
0000
0000
,
0001
0010
1000
0001
0010
0100
1000
0000
,
0100
0000
0010
0001
0100
0000
0000
0000
0010
0000
1000
0100
0010
0000
0000
0000
,
0001
0100
1000
0001
0010
0100
0001
0000
,
1100
0000
1000
0100
0010
0000
0000
0000
0011
0000
0001
0100
0010
0000
0000
0000
,
1000
0010
0100
0001
0010
0100
1000
0000
,
0101
0000
0001
0100
0010
0000
0000
0000
1010
0000
1000
0100
0010
0000
0000
0000
,
0001
1000
0100
0010
0001
1000
0020
0000
,
0130
0001
0010
0000
1000
0010
0001
0000
,
0100
0000
0010
0000
1000
0000
0001
0100
0000
0100
0010
0000
1000
0000
0000
0000
,
0100
1000
0010
0000
0001
0010
1000
0000
,
0100
0000
0010
0000
0001
0000
1000
0100
0000
0100
0010
0000
0001
0000
1001
0000
,
1000
0000
0010
0000
0100
0000
0001
0000
0010
0000
0001
0000
1000
0000
0000
0010
,
0100
0000
0001
0000
0010
0000
0100
0000
1000
0000
0001
0000
1000
0000
0000
0100
,
0010
0000
0001
0000
1000
0000
0001
0000
0100
0000
0010
0000
1000
0000
0000
0001
,
0100
1000
0100
0001
0010
0100
1000
0001
,
0100
0010
0100
0010
0100
0000
0000
0000
0000
0000
0000
0000
0000
0000
0000
0000
;

//---------------dance-double - ----------------
#NOTES:
     dance-double:
     :
     Beginner:
     1:
     :
00000000
00000000
00000000
00000000
,
00000000
00000000
00000000
00000000
,
00000000
00000000
00000000
00000000
,
00000000
00000000
00000000
00000000
,
00000000
00000000
00000000
00000000
,
00000000
10000000
00000000
01000000
,
00000000
10000000
00000000
01000000
,
00000000
00010000
00000000
00001000
,
00000000
00000100
00000100
00000000
,
00000000
00000001
00000000
00000100
,
00000000
00000001
00000000
00000100
,
00000000
00001000
00000000
00010000
,
00000000
00100000
00100000
00000000
,
10000000
00000000
00010000
00000000
,
00100000
00000000
00000000
00000000
,
00001000
00000000
00010000
00000000
,
00000100
00000000
00000000
00000000
,
00000000
00000010
00000000
00000001
,
00000000
00000010
00000000
00000001
,
00000000
00000100
00000000
00001000
,
00000000
00010000
00010000
00000000
,
00000000
00100000
00000000
10000000
,
00000000
00100000
00000000
10000000
,
00000000
01000000
00000000
00010000
,
00000000
00001000
00001000
00000000
,
00000000
00000100
00000000
00000010
,
00000000
00000100
00000000
00000000
,
00000000
00000001
00000000
00001000
,
00000000
00000001
00000000
00000000
,
00000000
00000010
00000000
00001000
,
00000000
00010000
00000000
00000000
,
00000000
00100000
00000000
10000000
,
00000000
00010000
00000000
00000000
,
00100000
00000000
01000000
00000000
,
10000000
00000000
00100000
00000000
,
00010000
00000000
00001000
00000000
,
00000100
00000000
00000001
00000000
,
00000010
00000000
00000010
00000000
,
00001000
00000000
00001000
00000000
,
00010000
00000000
00010000
00000000
,
01000000
00000000
01000000
00000000
,
00000000
10010000
00000000
00000000
;

//---------------dance-double - ----------------
#NOTES:
     dance-double:
     :
     Easy:
     3:
     :
00000000
00000000
00000000
00000000
,
00000000
00000000
00000000
00000000
,
00000000
00000000
00000000
00000000
,
00000000
00000000
00000000
00000000
,
00000000
00000000
00000000
00000000
,
00000000
10000000
00010000
10000000
,
00000000
00100000
01000000
00100000
,
00010000
00010000
00001000
00001000
,
00000100
00000010
00000100
00000000
,
00000000
00000001
00001000
00000001
,
00000000
00000010
00000100
00000010
,
00001000
00001000
00010000
00010000
,
01000000
00100000
01000000
00000000
,
10000000
00100000
00000000
00010000
,
00000000
00001000
00000000
00000100
,
00000001
00000010
00000000
00001000
,
00000000
00010000
00000000
01000000
,
00000000
10000000
00010000
10000000
,
00000000
01000000
00100000
01000000
,
00010000
00010000
00001000
00001000
,
00000010
00000100
00000010
00000000
,
00000000
00000001
00001000
00000001
,
00000000
00000100
00000010
00000100
,
00001000
00001000
00010000
00010000
,
00100000
01000000
00100000
00000000
,
10000000
01000000
00000000
00010000
,
00000000
00001000
00000000
00000100
,
00000001
00000010
00000000
00001000
,
00000000
00010000
00000000
00100000
,
00000000
10010000
00000000
01100000
,
00000000
00100000
00010000
00001000
,
00000000
00011000
00000000
00011000
,
00000000
00001000
00000100
00000010
,
00001000
00000000
00000001
00000000
,
00000010
00000000
00000100
00010000
,
00001000
00000000
01000000
00000000
,
00010000
00000000
10000000
00100000
,
00200000
00000000
00300000
00010000
,
00020000
00000000
00030000
00001000
,
00002000
00000000
00003000
00000100
,
00000200
00000000
00000300
00000001
,
00001000
00001001
00000000
00000000
;

//---------------dance-double - ----------------
#NOTES:
     dance-double:
     :
     Medium:
     5:
     :
00000000
00000000
00000000
00000000
,
00000000
00000000
00000000
00000000
,
00000000
00000000
00000000
00000000
,
00000000
00000000
00000000
00000000
,
00000000
00000000
00000000
00000000
,
10000000
00000000
01000000
00000000
00100000
00010000
00100000
00000000
,
00001000
00000000
00010000
00000000
00000010
00001000
00000010
00000000
,
00000100
00000001
00000010
00001100
,
00010000
00000000
00001000
00010000
01000000
00000000
00000000
00000000
,
10000000
00000000
00100000
00000000
01000000
00010000
01000000
00000000
,
00001000
00000000
00010000
00000000
00000100
00001000
00000100
00000000
,
00000010
00000001
00000100
00001010
,
00010000
00000000
00001000
00010000
00100000
00000000
00000000
00000000
,
01000000
00010000
00100000
01000000
,
00010000
00001000
00000100
00000010
,
00001000
00000001
00000010
00000100
,
00010000
00001000
01000000
01010000
,
10000000
00000000
00100000
00000000
01000000
00010000
01000000
00000000
,
00001000
00000000
00010000
00000000
00000100
00001000
00000100
00000000
,
00000010
00000001
00000100
00001010
,
00010000
00001000
00010000
00001000
00100000
00000000
00000000
00000000
,
10000000
00000000
01000000
00000000
00100000
00010000
00100000
00000000
,
00001000
00000000
00010000
00000000
00000010
00001000
00000010
00000000
,
00000100
00000001
00000010
00001100
,
00010000
00001000
00010000
00001000
01000000
00000000
00000000
00000000
,
00100000
11000000
00100000
01010000
,
00100000
00001000
00010000
00000000
00011000
00000000
00000000
00000000
,
00000100
00001010
00000100
00000011
,
00000100
00010000
00001000
00000000
00011000
00000000
00000000
00000000
,
00100000
00010000
00010000
00000000
10000000
01000000
01000000
00000000
,
00010000
00001000
00000100
00000001
,
00000010
00001000
00001000
00000000
00000001
00000100
00000100
00000000
,
00001000
00010000
01000000
10000000
,
10010000
00000000
00100000
00000000
00010000
00000000
00100000
10000000
,
01000000
00000000
00010000
00000000
00001000
00000000
00000100
00000001
,
00000010
00000000
00000100
00000000
00001000
00000000
00000010
00010000
,
00001000
00000000
00100000
00000000
00010000
00000000
01000000
00100000
,
10000000
01000000
00010000
00011000
,
00001000
00000100
00000001
00000011
,
00000010
00001000
00010000
00011000
,
00001000
00010000
01000000
01100000
,
10000000
10010000
00000000
00000000
;

//---------------dance-double - ----------------
#NOTES:
     dance-double:
     :
     Hard:
     8:
     :
00000000
00000000
00000000
00000000
,
00000000
00000000
00000000
00000000
,
00000000
00000000
00000000
00000000
,
00000000
00000000
00000000
00000000
,
00000000
00000000
00000000
00000000
,
00000000
00000000
00001000
00000000
00010000
00000000
00000010
00000000
00010000
00001000
00000000
00000000
00011000
00000000
00000000
00000000
,
00010000
00000000
00001000
00000000
00100000
00000000
00001000
00010000
00000000
00000000
00000000
00000000
00011000
00000000
00100000
00010000
,
01000000
00000000
10000000
00000000
01000000
00000000
00010000
00100000
00000000
00100000
00001000
00000000
00010000
00000000
00000010
00001000
,
00000000
00000000
00000001
00000000
00000100
00000000
00001000
00010000
00000000
00000000
00000000
00000000
00011000
00000000
00000000
00000000
,
00100000
00000000
01000000
00000000
10000000
00000000
00100000
00000000
01000000
00001000
00000000
00000000
00011000
00000000
00000000
00000000
,
00000100
00000000
00000010
00000000
00000001
00000000
00000100
00000010
00000000
00000010
00010000
00000000
00001000
00000000
01000000
00010000
,
00100000
00000000
10000000
00000000
00100000
00000000
00010000
01000000
00000000
01000000
00001000
00000000
00010000
00000000
00000100
00001000
,
00000000
00000000
00000001
00000000
00000010
00000000
00001000
00010000
00000000
00000000
00000000
00000000
00011000
00000000
00000000
00000000
,
00100000
00010000
00001000
00000100
00000010
00000100
00001000
00010000
,
01000000
00000000
00000000
10000000
00000000
00100000
00010000
00000000
00001000
00000000
00000000
00000010
00000000
00000001
00000100
00000000
,
00000010
00000100
00001000
00010000
01000000
10000000
00100000
00010000
,
00001000
00000000
00000000
01000000
00000000
00001000
00010000
00000000
00000010
00000000
00000000
00001000
00000000
00000100
00010000
00000000
,
00000000
00000000
00001000
00000000
00010000
00000000
00000100
00000000
00010000
00000010
00000000
00000000
00011000
00000000
00000000
00000000
,
00010000
00000000
00001000
00000000
01000000
00000000
00001000
00100000
00000000
00000000
00000000
00000000
00011000
00000000
01000000
00010000
,
00100000
00000000
10000000
00000000
00100000
00000000
00010000
01000000
00000000
01000000
00001000
00000000
00010000
00000000
00000100
00001000
,
00000001
00000000
00000100
00000000
00000010
00000000
00010000
00001000
00000000
00000000
00000000
00000000
00011000
00000000
00000000
00000000
,
01000000
00000000
00010000
00000000
10000000
00000000
01000000
00000000
00100000
00001000
00000000
00000000
00101000
00000000
00000000
00000000
,
00000010
00000000
00001000
00000000
00000001
00000000
00000010
00000100
00000000
00000100
00010000
00000000
00001000
00000000
00100000
00010000
,
01000000
00000000
10000000
00000000
01000000
00000000
00010000
00100000
00000000
00100000
00001000
00000000
00010000
00000000
00000010
00001000
,
00000001
00000000
00000010
00000000
00001000
00000000
00010000
00001000
00000000
00000000
00000000
00000000
00011000
00000000
00000000
00000000
,
01000000
00010000
00001000
00000010
00000100
00000010
00001000
00010000
,
00100000
00000000
00010000
00000000
00001000
00000000
00010000
00000000
01000000
00000000
10000000
01000000
00000000
01000000
00010000
00000000
,
00001000
00000100
00000001
00000010
00000100
00000010
00000001
00000100
,
00001000
00000000
00010000
00000000
00100000
00000000
01000000
00000000
00010000
00000000
00100000
01000000
00000000
01000000
10000000
00000000
,
00010000
00000000
10000000
01000000
00100000
00000000
00000000
00000000
10000000
00000000
00010000
01000000
00100000
00000000
00000000
00000000
,
00010000
00001000
00000100
00000010
00001000
00000010
00000100
00000000
,
00000001
00000000
00001000
00000100
00000010
00000000
00000000
00000000
00001000
00000000
00000001
00000100
00000010
00000000
00000000
00000000
,
00001000
00000100
00000010
00001000
00010000
01000000
00200000
00000000
,
00310000
10000000
10000000
00100000
01000000
00010000
00010000
00000000
,
00100000
00000000
00001000
00000000
00010000
00000000
00000100
00010000
00000000
00010000
00001000
00000000
00010000
00000000
00000010
00000000
,
00000100
00000001
00000001
00001000
00000100
00000010
00000010
00000000
,
00000100
00000000
00001000
00000000
00000010
00000000
00010000
00000010
00000000
00000010
00001000
00000000
00000100
00000000
00010000
00000000
,
00001000
00000000
01000000
00000000
01000000
00000000
00010000
00000000
10000000
00000000
00100000
00000000
00100000
00000000
00000000
01000000
,
00010000
00000000
00100000
00000000
00100000
00000000
00001000
00000000
00010000
00000000
00000010
00000000
00000010
00000000
00000000
00000100
,
00000001
00000000
00000010
00000000
00000010
00000000
00000100
00000000
00001000
00000000
00000001
00000000
00000001
00000000
00000000
00001000
,
00000010
00010000
00010000
00001000
00100000
00010000
00010000
10000000
,
00100000
01000000
00100000
01000000
00100000
00000000
00000000
00000000
00000000
00000000
00000000
00000000
00000000
00000000
00000000
00000000
;
