
//----- song ID: roit -----//
#TITLE:Rockit;
#ARTIST:Herbie Hancock;
#BANNER:Rockit.png;
#BACKGROUND:Rockit-bg.png;
#CDTITLE:./CDTITLES/DanceDanceRevolution UNIVERSE2.png;
#MUSIC:Rockit.ogg;
#SAMPLESTART:25.59;
#SAMPLELENGTH:15;
#DISPLAYBPM:111;
#BPMS:0=111.28,12=111.37,28=111.46,44=111.28,60=111.37,124=111.28,140=111.37,172=111.46;
#BGCHANGES:0=Rockit-bg.png=1=0=0=1,4=Rockit.avi=1=0=0=0;

//---------------dance-single - ----------------
#NOTES:
     dance-single:
     :
     Beginner:
     1:
     :
0000
0000
0000
0000
,
0000
0000
0000
0000
,
0000
0000
0000
0000
,
1001
0000
0000
0000
,
1000
0000
0000
0000
,
0001
0000
0000
0000
,
0010
0000
0000
0000
,
0100
0000
0000
0000
,
1000
0000
0000
0000
,
0001
0000
0000
0000
,
0010
0000
0000
0000
,
0001
0001
0001
0000
,
1000
0000
1000
0000
,
0001
0000
0001
0000
,
0010
0000
0010
0000
,
0100
0000
0100
0000
,
1000
0000
1000
0000
,
0010
0000
0010
0000
,
0001
0000
0001
0000
,
0010
0000
0010
0000
,
0100
0100
0100
0000
,
0110
0000
0000
0000
,
0010
0000
0000
0000
,
0100
0000
0000
0000
,
1000
0000
0000
1000
,
1000
0000
0000
0001
,
0001
0000
0000
0010
,
0010
0000
0010
0000
,
0010
0000
0000
0100
,
0100
0000
0000
1000
,
1000
0000
0000
0001
,
0001
0000
0001
0000
,
0001
0000
0000
0000
,
0010
0010
0010
0010
,
0010
0010
0000
0000
,
0100
0100
0100
0100
,
0100
0100
0000
0000
,
1000
0000
1000
0000
,
0010
0000
0010
0000
,
0100
0000
0100
0000
,
0001
0000
0001
0000
,
0100
0000
0100
0000
,
1000
0000
1000
0000
,
0100
0000
0100
0000
,
0001
0000
0001
0000
,
0010
0010
0010
0000
,
0100
0100
0100
0000
;

//---------------dance-single - ----------------
#NOTES:
     dance-single:
     :
     Easy:
     3:
     :
0000
0000
0000
0000
,
0000
0000
0000
0000
,
0000
0000
0000
0000
,
1001
0100
0000
0010
,
0000
1000
0000
0001
,
0000
0010
0000
0100
,
0000
1000
0000
0001
,
0000
0100
0000
1000
,
0000
0100
0000
0001
,
0000
0010
0000
1000
,
0000
0010
0000
0001
,
1000
0001
1000
0001
,
0010
0000
0100
0000
,
1000
0000
0010
0000
,
0001
0000
0010
0000
,
1000
0000
0001
0000
,
0010
0000
0100
0000
,
1000
0000
0100
0000
,
0001
0000
0100
0000
,
1000
0000
0001
0000
,
0010
0100
0010
0100
,
0110
0100
0000
1000
,
0000
0010
0000
0001
,
0000
0010
0000
1000
,
0000
0100
0000
0001
,
0100
0000
0000
1000
,
0010
0000
0000
0100
,
0001
0000
0000
2000
,
0000
0000
0000
3001
,
0010
0000
0000
0100
,
1000
0000
0000
0010
,
0100
0000
0000
0002
,
0000
0000
0000
1003
,
0010
0100
0100
0010
,
0010
0100
0110
0110
,
0001
1002
1003
2001
,
3010
0100
0010
0110
,
0001
0000
0010
0000
,
0100
1000
0010
0001
,
0010
0100
1000
0100
,
0001
1000
0100
0110
,
1000
0000
0010
0000
,
0100
0001
0010
1000
,
0010
0100
0001
0100
,
1000
0001
0010
1001
,
0001
1000
0001
1000
,
0010
0100
0010
1001
;

//---------------dance-single - ----------------
#NOTES:
     dance-single:
     :
     Medium:
     6:
     :
0000
0000
0000
0000
,
0000
0000
0000
0000
,
0000
0000
0000
0000
,
1001
0000
0010
0000
0010
0100
0100
0000
,
1000
0100
1000
0000
0001
0100
0100
0000
,
0010
1000
0100
0000
0010
0001
0001
0000
,
1000
0001
0100
0000
0010
1000
1000
0000
,
0100
0010
0001
0000
1000
0010
0010
0000
,
0100
0001
0100
0000
0010
1000
1000
0000
,
0001
0010
0100
0000
1000
0001
0001
0000
,
0010
0100
0010
0000
0001
1000
0001
0000
,
1000
0010
1000
0010
0100
0001
0100
0001
,
2000
0000
3100
0010
0002
0000
0103
0010
,
0100
0000
0000
0001
0000
0000
1000
0000
0000
0000
0010
0000
0100
0000
0000
0000
,
0001
0010
1000
0100
,
0001
0000
1000
0000
0010
0000
1001
0010
,
0200
0000
1300
0010
0200
0000
0301
0010
,
0100
0000
0000
1000
0000
0000
0001
0000
0000
0000
0100
0000
0010
0000
0000
0000
,
1000
0100
0001
0100
,
0010
0001
0010
1000
,
0100
1000
0100
1000
0001
0010
0001
0010
,
0011
0000
1100
0000
0001
0100
0001
0000
,
1000
0000
0100
0000
0010
1000
0010
0000
,
0001
0000
0010
0000
0100
0001
0100
0000
,
1000
0001
0100
0010
,
2000
0001
3100
0010
,
0002
1000
0103
0010
,
0200
0000
0000
0302
0000
0000
2003
0000
,
0000
3100
0010
0100
,
2000
0010
3001
0100
,
0002
0010
1003
0100
,
0020
0000
0000
0032
0000
0000
2003
0000
,
0000
3100
0010
1001
,
0010
0100
0010
0100
0001
1000
0001
1000
,
0100
0010
0100
0010
0100
0000
1001
0000
,
1000
0001
1001
0000
0100
0010
0110
0000
,
0001
0100
0010
1000
0100
0010
0001
0000
,
1000
0000
0101
0001
0100
0000
1010
1000
,
0010
0000
0000
1000
0000
0000
0001
0000
0000
0000
0100
0000
0010
0000
0000
0000
,
1000
1100
0001
0011
,
1000
1010
0001
0101
,
1000
0000
0011
0001
0010
0000
1100
1000
,
0100
0000
0000
1000
0000
0000
0001
0000
0000
0000
0100
0000
0010
0000
0000
0000
,
1000
1001
0010
0110
,
0001
1001
0100
0110
,
0001
1000
0001
1000
0010
0100
0010
0100
,
0001
0000
0000
1000
0000
0000
0100
0000
0000
0000
0110
0000
0000
1001
0000
0000
;

//---------------dance-single - ----------------
#NOTES:
     dance-single:
     :
     Hard:
     8:
     :
0000
0000
0000
0000
,
0000
0000
0000
0000
,
0000
0000
0000
0000
,
0010
1000
0100
0010
1000
0010
0001
0100
,
0010
0001
0010
1000
0100
0000
0011
0000
,
0100
1000
0010
0001
0010
0100
0001
0010
,
1000
0010
0100
1000
0001
0000
0110
0000
,
0001
1000
0100
0001
1000
0010
0001
1000
,
0010
0100
0001
1000
0010
0000
0101
0000
,
1000
0010
0100
1000
0001
0010
0100
0001
,
1000
0100
0010
0001
1000
0000
0110
0000
,
0010
1000
0010
1000
0010
1000
0010
1000
0001
0100
0001
0100
0001
0100
0001
0100
,
0020
1000
1030
0001
2000
0100
3100
0010
,
0002
0000
0000
2003
0000
0000
3020
0000
0000
0000
0000
0000
0130
0000
0001
2000
,
0000
0000
0000
0000
3100
0000
0010
0000
0000
0000
0001
0000
1000
0100
0000
0000
,
0010
0001
0100
1000
0001
0010
1000
0100
,
0020
0001
0031
1000
0002
0100
0103
0010
,
2000
0000
0000
3002
0000
0000
0023
0000
0000
0000
0000
0000
0130
0000
1000
0002
,
0000
0000
0000
0000
0103
0000
0010
0000
0000
0000
1000
0000
0001
0100
0000
0000
,
0000
0000
1010
0000
1001
0000
0202
0000
0000
0000
0303
0000
1000
0001
1000
0000
,
0100
1000
0100
1000
0100
1000
0100
1000
0001
0010
0001
0010
0001
0010
0001
0010
,
0100
1000
0010
0001
0100
0010
1000
0000
,
0001
0010
1000
0100
0001
1000
0010
0000
,
0001
0100
1000
0001
0010
0100
0001
0000
,
0010
1000
0100
0010
0001
1000
0010
0000
,
1001
0000
0100
1000
0010
1000
0001
0000
,
0110
0000
0001
0100
0001
0010
0001
0000
,
1100
0000
0000
1001
0000
0000
0011
0000
,
1000
0000
0010
0000
0100
0000
0001
0000
0100
0000
0010
0000
1000
0001
0000
0000
,
0110
0000
1000
0010
1000
0100
1000
0000
,
1001
0000
0010
0001
0100
0001
1000
0000
,
0110
0000
0000
1001
0000
0000
0110
0000
,
0001
0000
0010
0000
0100
0000
1000
0000
0100
0000
0010
0000
0001
1000
0000
0000
,
0010
1000
0010
1000
0001
1000
0001
1000
0001
0100
0001
0100
0010
0100
0010
0100
,
0001
0010
0001
0010
0100
1000
0100
2000
0000
3001
0000
0000
1001
0000
0000
0000
,
0001
1000
0001
1000
0010
0000
0000
0000
1000
0001
1000
0001
0100
0000
0000
0000
,
0010
0100
0010
0100
0001
1000
0001
1000
0100
0010
0100
0010
0001
0000
0100
0000
,
0020
1000
1030
0001
2000
0100
3100
0010
,
0002
0000
0000
2003
0000
0000
3020
0000
0000
0000
0000
0000
0130
0000
0001
2000
,
0000
0000
0000
0000
3100
0000
0010
0000
0000
0000
0001
0000
1000
0100
0000
0000
,
0010
0001
0100
1000
0001
0010
1000
0100
,
0020
0001
0031
1000
0002
0100
0103
0010
,
2000
0000
0000
3002
0000
0000
0023
0000
0000
0000
0000
0000
0130
0000
1000
0002
,
0000
0000
0000
0000
0103
0000
0010
0000
0000
0000
1000
0000
0001
0100
0000
0000
,
1010
0000
0000
0000
0001
0000
0100
0000
0000
0000
0000
0000
1000
0001
1000
0000
,
0001
0100
0001
0100
0010
1000
0010
1000
0001
0010
0001
0010
0100
1000
0100
1000
,
0001
0100
0000
0010
1000
0000
0100
0010
0100
0000
1001
0000
0000
1001
0000
0000
;

//---------------dance-double - ----------------
#NOTES:
     dance-double:
     :
     Beginner:
     1:
     :
00000000
00000000
00000000
00000000
,
00000000
00000000
00000000
00000000
,
00000000
00000000
00000000
00000000
,
10010000
00000000
00000000
00000000
,
10000000
00000000
00000000
00000000
,
00010000
00000000
00000000
00000000
,
00100000
00000000
00000000
00000000
,
00001000
00000000
00000000
00000000
,
00010000
00000000
00000000
00000000
,
00000010
00000000
00000000
00000000
,
00001000
00000000
00000000
00000000
,
00000100
00000100
00000100
00000000
,
00001000
00000000
00001000
00000000
,
00000001
00000000
00000001
00000000
,
00000010
00000000
00000010
00000000
,
00000100
00000000
00000100
00000000
,
00010000
00000000
00010000
00000000
,
00001000
00000000
00001000
00000000
,
01000000
00000000
01000000
00000000
,
00100000
00000000
00100000
00000000
,
01000000
01000000
01000000
00000000
,
01100000
00000000
00000000
00000000
,
00100000
00000000
00000000
00000000
,
01000000
00000000
00000000
00000000
,
00010000
00000000
00000000
10000000
,
10000000
00000000
00000000
00010000
,
00010000
00000000
00000000
00100000
,
00100000
00000000
00100000
00000000
,
00100000
00000000
00000000
00001000
,
00001000
00000000
00000000
00010000
,
00010000
00000000
00000000
00001000
,
00001000
00000000
00001000
00000000
,
00001000
00000000
00000000
00000000
,
00000100
00000100
00000100
00000100
,
00000100
00000100
00000000
00000000
,
00000010
00000010
00000010
00000010
,
00000010
00000010
00000000
00000000
,
00001000
00000000
00001000
00000000
,
00000010
00000000
00000010
00000000
,
00000100
00000000
00000100
00000000
,
00000001
00000000
00000001
00000000
,
00000010
00000000
00000010
00000000
,
00001000
00000000
00001000
00000000
,
00010000
00000000
00010000
00000000
,
00100000
00000000
00100000
00000000
,
10000000
10000000
10000000
00000000
,
00010000
00010000
00010000
00000000
;

//---------------dance-double - ----------------
#NOTES:
     dance-double:
     :
     Easy:
     3:
     :
00000000
00000000
00000000
00000000
,
00000000
00000000
00000000
00000000
,
00000000
00000000
00000000
00000000
,
00001001
00000100
00000000
00000001
,
00000000
00001000
00000000
00000010
,
00000000
00010000
00000000
00001000
,
00000000
00100000
00000000
01000000
,
00000000
10000000
00000000
00010000
,
00000000
00100000
00000000
10000000
,
00000000
00100000
00000000
00010000
,
00000000
00001000
00000000
00000100
,
00000001
00001000
00000001
00001000
,
00000010
00000000
00000100
00000000
,
00000001
00000000
00000010
00000000
,
00001000
00000000
00010000
00000000
,
01000000
00000000
10000000
00000000
,
00100000
00000000
01000000
00000000
,
10000000
00000000
00100000
00000000
,
00010000
00000000
00001000
00000000
,
00000100
00000000
00000001
00000000
,
00000010
00000100
00000010
00000100
,
00000110
00000100
00000000
00000001
,
00000000
00001000
00000000
00000100
,
00000000
00010000
00000000
00001000
,
00000000
00010000
00000000
00001000
,
01000000
00000000
00000000
00100000
,
10000000
00000000
00000000
01000000
,
00100000
00000000
00000000
00002000
,
00000000
00000000
00000000
00013000
,
00000100
00000000
00000000
00000010
,
00000001
00000000
00000000
00000100
,
00000010
00000000
00000000
00020000
,
00000000
00000000
00000000
00031000
,
00100000
01000000
01000000
00100000
,
00100000
01000000
01100000
01100000
,
10000000
10010000
00010000
00011000
,
00000010
00000100
00000010
00000110
,
00000001
00000000
00000010
00000000
,
00000100
00001000
00000010
00010000
,
00001000
01000000
00010000
00100000
,
10000000
00100000
00010000
01100000
,
10000000
00000000
00100000
00000000
,
01000000
00010000
00100000
00001000
,
00010000
00000100
00001000
00000010
,
00000001
00000010
00001000
00000110
,
00001000
00000001
00001000
00000001
,
00000100
00001000
00010000
00011000
;

//---------------dance-double - ----------------
#NOTES:
     dance-double:
     :
     Medium:
     6:
     :
00000000
00000000
00000000
00000000
,
00000000
00000000
00000000
00000000
,
00000000
00000000
00000000
00000000
,
00001001
00000000
00000010
00000000
00000100
00000010
00000010
00000000
,
00000001
00000100
00000001
00000000
00001000
00000100
00000100
00000000
,
00000010
00001000
00010000
00000000
00100000
00010000
00010000
00000000
,
00001000
01000000
00010000
00000000
00100000
01000000
01000000
00000000
,
10000000
00010000
01000000
00000000
00100000
10000000
10000000
00000000
,
00100000
01000000
00010000
00000000
10000000
01000000
01000000
00000000
,
00100000
00010000
01000000
00000000
00001000
00010000
00010000
00000000
,
00000010
00000100
00000010
00000000
00001000
00000001
00001000
00000000
,
00000001
00000010
00000001
00000010
00000100
00001000
00000100
00001000
,
00000002
00000000
00000103
00000010
00002000
00000000
00003100
00010000
,
00001000
00000000
00000000
00100000
00000000
00000000
01000000
00000000
00000000
00000000
10000000
00000000
00010000
00000000
00000000
00000000
,
10000000
01000000
00010000
00001000
,
00100000
00000000
01000000
00000000
00100000
00000000
10010000
00100000
,
02000000
00000000
13000000
00100000
02000000
00000000
03010000
00100000
,
00001000
00000000
00000000
00010000
00000000
00000000
00000100
00000000
00000000
00000000
00001000
00000000
00000001
00000000
00000000
00000000
,
00000010
00000100
00010000
00001000
,
00000100
00000010
00000100
00001001
,
00000100
00000001
00000100
00000001
00001000
00000010
00001000
00000010
,
00001010
00000000
00000101
00000000
00001000
00000100
00001000
00000000
,
00000010
00000000
00010000
00000000
00001000
00010000
00001000
00000000
,
01000000
00000000
00100000
00000000
10000000
01000000
10000000
00000000
,
00010000
00100000
01000000
10000000
,
02000000
00100000
03010000
00001000
,
00000200
00000010
00000301
00001000
,
00000200
00000000
00000000
00020300
00000000
00000000
00032000
00000000
,
00000000
00003010
00000001
00001000
,
00000200
00000001
00001300
00010000
,
00200000
00010000
10300000
01000000
,
00002000
00000000
00000000
00023000
00000000
00000000
00030020
00000000
,
00000000
00001030
00000001
00000110
,
00000001
00001000
00000001
00001000
00000010
00010000
00000010
00010000
,
00001000
01000000
00001000
01000000
00010000
00000000
10010000
00000000
,
00100000
01000000
01100000
00000000
10000000
00010000
10010000
00000000
,
10000000
00100000
01000000
00010000
00100000
00001000
00010000
00000000
,
00001000
00000000
00001100
00001000
00000100
00000000
00000011
00000001
,
00000010
00000000
00000000
00000100
00000000
00000000
00001000
00000000
00000000
00000000
00000100
00000000
00010000
00000000
00000000
00000000
,
00001000
00101000
00010000
00010100
,
00001000
01001000
00010000
00010010
,
00010000
00000000
00110000
00010000
00100000
00000000
11000000
10000000
,
01000000
00000000
00000000
00100000
00000000
00000000
00010000
00000000
00000000
00000000
01000000
00000000
00001000
00000000
00000000
00000000
,
00010000
00011000
00000100
00000110
,
00000001
00001001
00000010
00000110
,
00000100
00010000
00000100
00010000
00001000
00100000
00001000
00100000
,
00001000
00000000
00000000
00010000
00000000
00000000
00001000
00000000
00000000
00000000
00011000
00000000
00000000
00011000
00000000
00000000
;

//---------------dance-double - ----------------
#NOTES:
     dance-double:
     :
     Hard:
     8:
     :
00000000
00000000
00000000
00000000
,
00000000
00000000
00000000
00000000
,
00000000
00000000
00000000
00000000
,
00100000
10000000
01000000
00100000
10000000
00100000
00010000
01000000
,
00100000
00010000
00001000
00000010
00000001
00000000
00001100
00000000
,
00000100
00001000
00000010
00000001
00000010
00000100
00000001
00000010
,
00001000
00010000
01000000
10000000
00100000
00000000
01010000
00000000
,
00010000
00100000
00001000
01000000
00010000
00100000
01000000
00010000
,
00001000
00000100
00000010
00001000
00000100
00000000
00000011
00000000
,
00000001
00000100
00001000
00000100
00000010
00010000
00001000
00000010
,
00000100
00010000
00001000
01000000
00100000
00000000
10010000
00000000
,
00100000
00001000
00100000
00001000
00100000
00001000
00100000
00001000
00010000
00000100
00010000
00000100
00010000
00000100
00010000
00000100
,
00000020
00000001
00000031
00001000
00000200
00010000
00010300
00001000
,
02000000
00000000
00000000
03020000
00000000
00000000
20030000
00000000
00000000
00000000
00000000
00000000
30100000
00000000
01000000
00020000
,
00000000
00000000
00000000
00000000
00130000
00000000
01000000
00000000
00000000
00000000
10000000
00000000
01000000
00100000
00000000
00000000
,
00001000
00010000
01000000
00100000
00010000
01000000
10000000
01000000
,
00200000
10000000
10300000
00010000
02000000
00001000
03001000
00010000
,
00000020
00000000
00000000
00002030
00000000
00000000
00003002
00000000
00000000
00000000
00000000
00000000
00000103
00000000
00000010
00002000
,
00000000
00000000
00000000
00000000
00003100
00000000
00000010
00000000
00000000
00000000
00000001
00000000
00000010
00000100
00000000
00000000
,
00000000
00000000
00010100
00000000
00011000
00000000
00202000
00000000
00000000
00000000
00303000
00000000
00001000
00010000
00001000
00000000
,
01000000
00010000
01000000
00010000
01000000
00010000
01000000
00010000
10000000
00100000
10000000
00100000
10000000
00100000
10000000
00100000
,
01000000
00010000
00100000
01000000
00010000
00001000
00000100
00000000
,
00000010
00010000
00001000
00000100
00000010
00010000
00001000
00000000
,
00000010
00000100
00010000
00001000
01000000
00100000
00010000
00000000
,
00001000
00100000
01000000
00010000
00001000
00000100
00000010
00000000
,
00001001
00000000
00000100
00001000
00010000
01000000
00100000
00000000
,
10010000
00000000
00010000
01000000
00001000
00010000
00000100
00000000
,
00001010
00000000
00000000
00001001
00000000
00000000
00000101
00000000
,
00000010
00000000
00001000
00000000
00000100
00000000
00010000
00000000
00001000
00000000
00100000
00000000
00010000
01000000
00000000
00000000
,
10010000
00000000
00100000
00010000
00001000
00000010
00000100
00000000
,
00001001
00000000
00001000
00000100
00010000
00001000
00100000
00000000
,
01010000
00000000
00000000
10010000
00000000
00000000
10100000
00000000
,
01000000
00000000
00010000
00000000
00100000
00000000
00001000
00000000
00010000
00000000
00000100
00000000
00001000
00000010
00000000
00000000
,
00000010
00010000
00000010
00010000
00000100
00010000
00000100
00010000
00001000
00010000
00001000
00010000
00001000
00100000
00001000
00100000
,
00001000
01000000
00001000
01000000
00001000
00010000
00001000
00020000
00000000
00031000
00000000
00000000
00011000
00000000
00000000
00000000
,
00100000
00001000
00100000
00001000
00010000
00000000
00000000
00000000
00000100
00010000
00000100
00010000
00001000
00000000
00000000
00000000
,
01000000
00001000
01000000
00001000
00010000
00001000
00010000
00001000
00010000
00000010
00010000
00000010
00000100
00000000
00000001
00000000
,
00000020
00000001
00000031
00001000
00000200
00010000
00010300
00001000
,
02000000
00000000
00000000
03020000
00000000
00000000
20030000
00000000
00000000
00000000
00000000
00000000
30100000
00000000
01000000
00020000
,
00000000
00000000
00000000
00000000
00130000
00000000
01000000
00000000
00000000
00000000
10000000
00000000
01000000
00100000
00000000
00000000
,
00001000
00010000
01000000
00100000
00010000
01000000
10000000
01000000
,
00200000
10000000
10300000
00010000
02000000
00001000
03001000
00010000
,
00000020
00000000
00000000
00002030
00000000
00000000
00003002
00000000
00000000
00000000
00000000
00000000
00000103
00000000
00000010
00002000
,
00000000
00000000
00000000
00000000
00003100
00000000
00000010
00000000
00000000
00000000
00000001
00000000
00000010
00000100
00000000
00000000
,
00001001
00000000
00000000
00000000
00010000
00000000
00001000
00000000
00000000
00000000
00000000
00000000
00010000
00001000
00010000
00000000
,
00001000
00100000
00001000
00100000
00010000
01000000
00010000
01000000
00100000
10000000
00100000
10000000
01000000
00010000
01000000
00010000
,
00001000
00010000
00000000
00010000
00001000
00000000
00001000
00010000
00001000
00000000
00011000
00000000
00000000
00011000
00000000
00000000
;
