#TITLE:Rhythm Is Rhythm;
#ARTIST:oo39.com;
#BANNER:Rhythm Is Rhythm.png;
#BACKGROUND:Rhythm Is Rhythm-bg.png;
#CDTITLE:./CDTITLES/DanceDanceRevolution UNIVERSE2.png;
#MUSIC:Rhythm Is Rhythm.ogg;
#SAMPLESTART:18.641;
#SAMPLELENGTH:15;
#DISPLAYBPM:128;
#BPMS:0=128.75;

//---------------dance-single - ----------------
#NOTES:
     dance-single:
     :
     Beginner:
     1:
     :
0000
0000
0000
0000
,
0000
0000
0000
0000
,
0000
0000
0000
0000
,
0000
0000
0000
0000
,
0000
0000
0000
0000
,
0100
0000
0000
0000
,
0001
0000
0000
0000
,
1000
0000
0000
0000
,
0010
0000
0000
0000
,
0110
0000
0000
0000
,
0100
0000
0000
0000
,
0001
0000
0000
0000
,
0010
0000
0000
0000
,
0100
0000
0000
0000
,
1000
0000
0000
0000
,
0001
0000
0000
0000
,
0100
0000
0000
0000
,
0010
0000
0000
0000
,
1000
1000
1000
0000
,
0100
0000
0000
0000
,
0010
0000
0000
0000
,
0100
0000
0000
0000
,
0001
0001
0001
0000
,
0100
0000
0000
0000
,
1000
0000
0000
0000
,
0001
0000
0000
0000
,
1001
0000
0000
0000
,
1000
0000
0000
0000
,
0010
0000
0000
0000
,
0001
0000
0000
0000
,
0100
0000
0000
0000
,
1000
1000
1000
0000
,
0001
0000
0000
0000
,
0010
0010
0010
0000
,
0100
0000
0000
0000
,
1000
0000
0000
0000
,
1001
0000
0000
0000
,
0001
0000
0000
0000
,
0010
0000
0000
0000
,
0100
0100
0100
0000
,
1000
0000
0000
0000
,
0001
0001
0001
0000
,
0100
0000
0000
0000
,
0010
0010
0010
0000
,
1000
0000
0000
0000
,
0001
0001
0001
0000
,
1000
1000
1000
0000
,
0001
0001
0001
0000
,
1001
0000
0000
0000
;

//---------------dance-single - ----------------
#NOTES:
     dance-single:
     :
     Easy:
     4:
     :
0000
0000
0000
0000
,
0000
0000
0000
0000
,
0000
0000
0000
0000
,
0000
0000
0000
0000
,
0000
0000
0000
0000
,
0010
0100
0001
1000
,
0100
0010
1000
0010
,
0001
0100
1000
0100
,
0010
1000
0100
0001
,
2002
0000
0000
3003
,
0110
1000
1001
0110
,
0001
0100
1000
0100
,
0010
1000
0010
0001
,
0010
1000
0001
0100
,
1001
0010
0110
1001
,
1000
0100
0010
0001
,
0100
0010
1000
0100
,
0010
0001
1000
0010
,
0110
0001
0110
1000
,
0100
0010
0001
0100
,
1000
0100
0010
0001
,
0010
1000
0100
0001
,
0110
1000
0110
0001
,
0100
0010
1000
0100
,
0001
0100
0010
1000
,
0010
0001
0100
1000
,
0100
0010
0110
1001
,
0002
0010
0100
1003
,
2000
0100
0010
3001
,
0001
0010
0100
1000
,
0010
0100
0110
1001
,
0110
0001
0110
1000
,
0100
0010
0100
0001
,
0100
1000
0001
1001
,
0110
0001
0100
0010
,
1000
0100
0001
0100
,
1001
0100
0010
0001
,
0010
1000
0001
0010
,
1001
1000
0001
0010
,
0001
1000
0100
0010
,
1001
0100
0110
1001
,
0010
1001
0100
1001
,
0110
0100
1001
0110
,
1000
0110
0001
0110
,
1001
1000
0110
1001
,
0100
1001
0010
1001
,
0001
1001
1000
1001
,
0010
0110
0100
0110
,
1001
0000
0000
0000
;

//---------------dance-single - ----------------
#NOTES:
     dance-single:
     :
     Medium:
     7:
     :
0000
0000
0000
0000
,
0000
0000
0000
0000
,
0000
0000
0000
0000
,
0000
0000
0000
0000
,
0000
0000
0000
0000
,
0001
1000
0100
0000
0001
0100
0010
0000
,
1000
0010
0100
0000
1000
0001
0100
0000
,
0001
0100
1000
0000
0100
0001
0010
0000
,
0001
0010
1000
0000
0010
0001
0100
0000
,
1001
0100
0010
0000
0100
0010
0100
0000
,
1001
1000
0001
0000
0101
0000
1010
0000
,
0001
0100
1000
0000
0100
0002
0000
0013
,
1000
0010
0001
0000
1000
0010
0100
0000
,
0001
1000
0100
1000
0001
0010
0001
0000
,
1001
0001
1000
0000
1100
0000
0011
0000
,
1000
0100
0001
0000
0100
2000
0000
3010
,
0001
0010
1000
0000
0001
0100
0010
0000
,
1000
0001
0010
0100
0010
0001
1000
0000
,
0110
0010
1000
0100
0010
0001
0100
0000
,
1000
0000
0100
0001
0000
0010
1000
0000
,
0001
0100
1000
0010
0100
0001
1000
0010
,
0001
0000
0000
0010
0000
0000
0100
0000
0000
0001
0000
0000
1000
0000
0100
0000
,
0001
0100
1000
0010
0100
0001
0010
0000
,
1000
0000
0010
0001
0000
0100
1000
0000
,
1001
0000
0010
1000
0010
0100
0001
0100
,
1000
0000
0000
0100
0000
0000
0010
0000
0000
1000
0000
0000
0001
0000
0100
0000
,
1000
0100
0002
0000
1003
0100
0002
0000
,
1003
0010
0002
0000
1003
0010
0002
0000
,
0013
0100
0002
0000
0013
0100
2000
0000
,
3010
0100
2000
0000
3100
0010
0001
0010
,
1000
1100
0001
0101
,
1000
1010
0001
0011
,
1000
0100
1100
0000
0001
0100
0101
0000
,
1000
0010
1010
0000
0001
0010
0011
0000
,
0010
0100
1000
0001
0100
0010
0001
0000
,
0001
0010
1000
0100
0010
0001
1000
0000
,
2002
3003
1000
0001
0100
0010
0001
0010
,
1000
0000
0000
0100
0000
0000
0010
0000
0000
0001
0000
0000
1000
0000
0001
0000
,
1001
0000
0000
0000
0110
0000
0000
0000
0100
0000
0001
0000
0000
1000
0000
0000
,
0010
1000
0100
1000
0001
0010
0001
0100
,
0101
0010
0101
0011
,
0010
0000
0000
0001
0000
0000
1000
0000
0000
0001
0000
0000
0100
0000
0001
0000
,
0102
1003
1010
1001
,
0010
0000
0000
1000
0000
0000
0001
0000
0000
0100
0000
0000
0010
0000
1000
0000
,
1010
0100
1010
1001
,
1000
0000
0000
0100
0000
0000
1000
0000
0000
0001
0000
0000
1000
0000
0010
0000
,
0100
0000
0000
0010
0000
0000
1000
0000
0000
0001
0000
0000
0010
0000
0100
0000
,
0001
0000
0000
0100
0000
0000
1000
0000
0000
0010
0000
0000
0100
0000
0010
0000
,
1001
0000
0000
0000
;

//---------------dance-single - ----------------
#NOTES:
     dance-single:
     :
     Hard:
     8:
     :
0000
0000
0000
0000
,
0000
0000
0000
0000
,
0000
0000
0000
0000
,
0000
0000
0000
0000
,
0000
0000
0000
0000
,
0001
0000
0100
0000
0000
0010
0000
0000
1000
0000
0000
0001
0000
0000
0010
0000
,
0100
0000
1000
0000
0000
0001
0000
0000
0100
0000
0000
0010
0000
0000
1000
0000
,
0001
0000
0100
0000
0000
0010
0000
0000
1000
0000
0000
0001
0000
0000
0010
0000
,
0100
0000
1000
0000
0000
0001
0000
0000
0100
0000
0000
0010
0000
0000
1000
0000
,
0001
0000
0100
0001
0100
0010
0000
0100
0000
0010
1000
0010
0100
0001
0000
0000
,
1010
0001
0010
0100
1001
0000
0101
0000
,
1000
0010
0100
0001
0010
0200
0000
1300
,
0011
0000
0100
0001
0010
0001
1000
0010
,
1000
0100
1000
0001
0010
0100
1000
0000
,
0011
1000
0010
0100
1001
0000
1100
0000
,
0001
0010
0100
1000
0010
0200
0000
0301
,
1010
0000
0100
1000
0010
1000
0001
0010
,
0001
0000
0200
0000
0000
2300
0000
0000
3200
0000
0000
0302
0000
0000
1003
0000
,
1001
1000
0100
0001
1000
0010
0002
0000
,
2003
0000
3010
0002
0000
2003
0000
3000
,
0100
0001
0000
0000
1000
0000
0010
1000
0000
0001
1000
0000
0100
0000
1000
0000
,
0011
0000
0000
0101
0000
0000
1010
0000
0000
1100
0000
0000
0001
0000
0010
0000
,
1001
0001
0100
1000
0001
0010
2000
0000
,
3002
0000
0013
0200
0000
0320
0000
0030
,
0110
0000
0000
0000
1000
0000
0001
0010
0000
0001
1000
0001
0100
0000
0001
0000
,
1001
0000
0000
1010
0000
0000
1100
0000
0000
1000
0000
0000
0100
0000
0010
0000
,
0001
0100
0001
0000
1000
0100
1000
0000
,
0001
0010
0001
0000
1000
0010
1000
0000
,
1001
0000
0000
0000
2000
0000
0000
3020
0000
0000
0032
0000
0000
0023
0000
0000
,
0130
0000
0010
0000
0100
0000
0000
0001
0000
0010
0000
0100
0010
0100
0010
0100
,
1000
0000
0010
1000
0000
0001
1000
0000
0001
0000
0100
0001
0000
1000
0001
0000
,
1000
0010
0001
1000
0100
0001
1001
0000
,
0001
0000
0010
0001
0000
1000
0001
0000
1000
0000
0100
1000
0000
0001
1000
0000
,
0001
0010
1000
0001
0100
1000
1001
0000
,
0100
0010
0000
0000
0001
0000
0100
0010
0000
1000
0100
0000
0010
0000
0001
0000
,
1000
0100
0010
1000
0010
0001
0100
0010
,
2002
0000
3003
0000
0001
0000
0100
0001
0000
1000
0010
1000
0010
0000
0100
0000
,
0101
0000
0000
1001
0000
0000
0011
0000
0000
0110
0000
0000
1100
0000
0001
0000
,
0101
0000
0000
0000
1010
0000
0000
0000
0001
0000
0100
0000
0000
0010
0000
0000
,
1000
0100
0001
1000
0010
0001
1001
0000
,
0110
0001
1000
0100
0011
1000
1100
0000
,
0001
0000
0000
0011
0000
0000
0101
0000
0000
1001
0000
0000
0001
0000
0010
0000
,
0001
0100
0010
1000
0001
1000
0100
0000
,
1000
0000
0000
1100
0000
0000
1010
0000
0000
1001
0000
0000
1000
0000
0100
0000
,
1001
0100
0010
0001
1100
0001
0011
0000
,
1010
0000
0000
0110
0000
0000
0010
0000
0000
0011
0000
0000
0010
0000
0100
0000
,
0101
0000
0000
0110
0000
0000
0100
0000
0000
1100
0000
0000
0100
0000
1000
0000
,
1100
0000
0000
1010
0000
0000
0011
0000
0000
0101
0000
0000
1000
0000
0001
0000
,
1001
0000
0000
0000
;

//---------------dance-double - ----------------
#NOTES:
     dance-double:
     :
     Beginner:
     1:
     :
00000000
00000000
00000000
00000000
,
00000000
00000000
00000000
00000000
,
00000000
00000000
00000000
00000000
,
00000000
00000000
00000000
00000000
,
00000000
00000000
00000000
00000000
,
01000000
00000000
00000000
00000000
,
00010000
00000000
00000000
00000000
,
00001000
00000000
00000000
00000000
,
00000010
00000000
00000000
00000000
,
00000110
00000000
00000000
00000000
,
00000100
00000000
00000000
00000000
,
00001000
00000000
00000000
00000000
,
00000010
00000000
00000000
00000000
,
00000100
00000000
00000000
00000000
,
00001000
00000000
00000000
00000000
,
00010000
00000000
00000000
00000000
,
01000000
00000000
00000000
00000000
,
00100000
00000000
00000000
00000000
,
00010000
00010000
00010000
00000000
,
01000000
00000000
00000000
00000000
,
00100000
00000000
00000000
00000000
,
01000000
00000000
00000000
00000000
,
10000000
10000000
10000000
00000000
,
01000000
00000000
00000000
00000000
,
00001000
00000000
00000000
00000000
,
00010000
00000000
00000000
00000000
,
00011000
00000000
00000000
00000000
,
00001000
00000000
00000000
00000000
,
00000010
00000000
00000000
00000000
,
00000001
00000000
00000000
00000000
,
00000100
00000000
00000000
00000000
,
00001000
00001000
00001000
00000000
,
00010000
00000000
00000000
00000000
,
00100000
00100000
00100000
00000000
,
01000000
00000000
00000000
00000000
,
00010000
00000000
00000000
00000000
,
10010000
00000000
00000000
00000000
,
10000000
00000000
00000000
00000000
,
00100000
00000000
00000000
00000000
,
01000000
01000000
01000000
00000000
,
00001000
00000000
00000000
00000000
,
00010000
00010000
00010000
00000000
,
00000100
00000000
00000000
00000000
,
00000010
00000010
00000010
00000000
,
00000001
00000000
00000000
00000000
,
00001000
00001000
00001000
00000000
,
00000001
00000001
00000001
00000000
,
00001000
00001000
00001000
00000000
,
00001001
00000000
00000000
00000000
;

//---------------dance-double - ----------------
#NOTES:
     dance-double:
     :
     Easy:
     4:
     :
00000000
00000000
00000000
00000000
,
00000000
00000000
00000000
00000000
,
00000000
00000000
00000000
00000000
,
00000000
00000000
00000000
00000000
,
00000000
00000000
00000000
00000000
,
00010000
10000000
01000000
00010000
,
00001000
00100000
00001000
00010000
,
00000100
00010000
00001000
00000100
,
00000010
00001000
00000001
00000010
,
00002002
00000000
00000000
00003003
,
00000110
00000001
00001001
00000110
,
00000100
00001000
00010000
00001000
,
01000000
00100000
00010000
00100000
,
10000000
00010000
01000000
01100000
,
10010000
01000000
01100000
10010000
,
10000000
01000000
00100000
00001000
,
00010000
00001000
00000100
00000010
,
00001000
00000100
00000001
00000100
,
00000110
00000001
00000110
00001000
,
00000100
00010000
00001000
00100000
,
00010000
01000000
00100000
10000000
,
01000000
00100000
00010000
10000000
,
01100000
10000000
01100000
00010000
,
00100000
00001000
00010000
00000100
,
00001000
00000010
00000100
00000001
,
00000010
00000100
00001000
00000001
,
00000100
00000010
00000110
00001001
,
00002000
00000001
00000010
00003100
,
00020000
00000100
00001000
00130000
,
00010000
00100000
10000000
01000000
,
00100000
01000000
01100000
10010000
,
01100000
10000000
01100000
00010000
,
00100000
00001000
00010000
00000010
,
00001000
00000100
00000010
00001001
,
00000110
00000001
00001000
00000100
,
00010000
00001000
01000000
00100000
,
10010000
01000000
00100000
10000000
,
00100000
00010000
10000000
00100000
,
10010000
10000000
00010000
00100000
,
00001000
00010000
00000010
00000100
,
00001001
00000100
00000110
00001001
,
00000010
00001001
00000100
00001001
,
00000110
00001000
00011000
00011000
,
00010000
01100000
10000000
01100000
,
10010000
01000000
01100000
10010000
,
10000000
01100000
00010000
01100000
,
00100000
00011000
00001000
00011000
,
00000100
00000110
00000010
00000110
,
00001001
00000000
00000000
00000000
;

//---------------dance-double - ----------------
#NOTES:
     dance-double:
     :
     Medium:
     7:
     :
00000000
00000000
00000000
00000000
,
00000000
00000000
00000000
00000000
,
00000000
00000000
00000000
00000000
,
00000000
00000000
00000000
00000000
,
00000000
00000000
00000000
00000000
,
00010000
10000000
01000000
00000000
00100000
01000000
00010000
00000000
,
00001000
00010000
00000010
00000000
00001000
00000100
00000010
00000000
,
00000001
00000010
00001000
00000000
00010000
00001000
00000100
00000000
,
00001000
00010000
00100000
00000000
10000000
01000000
00010000
00000000
,
10010000
01000000
00100000
00000000
01000000
00100000
01000000
00000000
,
10010000
10000000
00010000
00000000
01010000
00000000
10100000
00000000
,
00010000
01000000
10000000
00000000
01000000
00020000
00000000
00130000
,
00001000
00010000
00000100
00000000
00001000
00000100
00000010
00000000
,
00000001
00001000
00000100
00001000
00000001
00000010
00000001
00000000
,
00001001
00000001
00001000
00000000
00001100
00000000
00000011
00000000
,
00001000
00000100
00000001
00000000
00000100
00002000
00000000
00003010
,
00010000
00001000
00100000
00000000
00010000
00100000
01000000
00000000
,
10000000
00010000
01000000
00100000
01000000
00010000
10000000
00000000
,
01100000
00100000
10000000
01000000
00100000
00010000
01000000
00000000
,
00001000
00000000
00010000
00001000
00000000
00000010
00000100
00000000
,
00000001
00000100
00001000
00000010
00000100
00000001
00001000
00000010
,
00000001
00000000
00000000
00000010
00000000
00000000
00000100
00000000
00000000
00000001
00000000
00000000
00001000
00000000
00000100
00000000
,
00000001
00000100
00001000
00000010
00000100
00000001
00000010
00000000
,
00001000
00000000
00010000
00001000
00000000
01000000
00100000
00000000
,
10010000
00000000
00100000
10000000
00100000
01000000
00010000
01000000
,
10000000
00000000
00000000
01000000
00000000
00000000
00100000
00000000
00000000
10000000
00000000
00000000
00010000
00000000
01000000
00000000
,
10000000
01000000
00020000
00000000
10030000
01000000
00020000
00000000
,
00031000
00000010
00000002
00000000
00001003
00000010
00000002
00000000
,
00000013
00000100
00002000
00000000
00103000
01000000
00020000
00000000
,
00031000
00000100
00000020
00000000
00000130
00001000
00010000
00001000
,
00020000
01030000
00002000
00003100
,
00020000
00130000
00002000
00003010
,
00001000
00010000
01000000
00000000
00010000
00001000
00000100
00000000
,
00001000
00010000
00100000
00000000
00010000
00001000
00000010
00000000
,
00000010
00000100
00001000
00000001
00000100
00001000
00010000
00000000
,
00001000
00010000
00100000
01000000
00010000
10000000
00100000
00000000
,
20020000
30030000
10000000
00010000
01000000
00100000
00010000
00100000
,
10000000
00000000
00000000
01000000
00000000
00000000
00100000
00000000
00000000
00010000
00000000
00000000
10000000
00000000
00010000
00000000
,
10010000
00000000
00000000
00000000
01100000
00000000
00000000
00000000
01000000
00000000
00001000
00000000
00000000
00010000
00000000
00000000
,
00000010
00001000
00000100
00010000
00001000
00100000
00010000
01000000
,
01010000
00100000
01010000
00110000
,
00100000
00000000
00000000
00010000
00000000
00000000
10000000
00000000
00000000
00010000
00000000
00000000
01000000
00000000
00010000
00000000
,
01010000
00010000
00101000
00011000
,
00100000
00000000
00000000
00001000
00000000
00000000
00010000
00000000
00000000
00000100
00000000
00000000
00001000
00000000
00000010
00000000
,
00001010
00000100
00001010
00001100
,
00001000
00000000
00000000
00000100
00000000
00000000
00001000
00000000
00000000
00000001
00000000
00000000
00001000
00000000
00000010
00000000
,
00010000
00000000
00000000
00001000
00000000
00000000
01000000
00000000
00000000
00010000
00000000
00000000
00100000
00000000
00001000
00000000
,
00010000
00000000
00000000
01000000
00000000
00000000
10000000
00000000
00000000
00010000
00000000
00000000
01000000
00000000
00100000
00000000
,
01100000
00000000
00000000
00000000
;

//---------------dance-double - ----------------
#NOTES:
     dance-double:
     :
     Hard:
     9:
     :
00000000
00000000
00000000
00000000
,
00000000
00000000
00000000
00000000
,
00000000
00000000
00000000
00000000
,
00000000
00000000
00000000
00000000
,
00000000
00000000
00000000
00000000
,
00001000
00000000
00010000
00000000
00000000
01000000
00000000
00000000
00100000
00000000
00000000
00010000
00000000
00000000
10000000
00000000
,
00100000
00000000
01000000
00000000
00000000
00010000
00000000
00000000
10000000
00000000
00000000
01000000
00000000
00000000
00010000
00000000
,
00001000
00000000
00000100
00000000
00000000
00000010
00000000
00000000
00001000
00000000
00000000
00000001
00000000
00000000
00000010
00000000
,
00000100
00000000
00001000
00000000
00000000
00000001
00000000
00000000
00000100
00000000
00000000
00001000
00000000
00000000
00010000
00000000
,
00001000
00000000
01000000
00010000
01000000
00100000
00000000
01000000
00000000
00100000
10000000
00100000
01000000
00010000
00000000
00000000
,
10100000
00010000
00100000
01000000
10010000
00000000
01010000
00000000
,
10000000
00100000
01000000
00010000
00100000
02000000
00000000
13000000
,
00110000
00000000
01000000
00010000
00100000
00001000
00010000
00000100
,
00001000
00000001
00000010
00001000
00000010
00000100
00001000
00000000
,
00000011
00001000
00000010
00000100
00001001
00000000
00001100
00000000
,
00000001
00000010
00000100
00001000
00000010
00000200
00000000
00000301
,
00001010
00000000
00000100
00001000
00000010
00010000
00001000
00100000
,
00010000
00000000
02000000
00000000
00000000
23000000
00000000
00000000
32000000
00000000
00000000
03020000
00000000
00000000
10030000
00000000
,
10010000
10000000
01000000
00010000
10000000
00100000
00020000
00000000
,
02030000
00000000
03001000
00000020
00000000
00000032
00000000
00000003
,
00001000
00000001
00000000
00000000
00001000
00000000
00000010
00001000
00000000
00000001
00001000
00000000
00000100
00000000
00001000
00000000
,
00000011
00000000
00000000
00000101
00000000
00000000
00001010
00000000
00000000
00001100
00000000
00000000
00010000
00000000
00001000
00000000
,
00011000
00010000
00100000
10000000
00010000
00100000
20000000
00000000
,
30020000
00000000
00031000
00000020
00000000
00000230
00000000
00000300
,
00000110
00000000
00000000
00000000
00001000
00000000
00000001
00000010
00000000
00000001
00001000
00000001
00000100
00000000
00000010
00000000
,
00010010
00000000
00000000
00010100
00000000
00000000
00011000
00000000
00000000
00101000
00000000
00000000
01001000
00000000
00010000
00000000
,
10000000
00100000
01000000
00000000
00001000
00010000
01000000
00000000
,
00010000
00001000
00000100
00000000
00000001
00000010
00000100
00000000
,
00001001
00000000
00000000
00000000
00002000
00000000
00000000
00003020
00000000
00000000
00000032
00000000
00000000
00000023
00000000
00000000
,
00000130
00000000
00000010
00000000
00000100
00000000
00000000
00000001
00000000
00000010
00000000
00000100
00000010
00000100
00000010
00000100
,
00001000
00000000
00000010
00010000
00000000
00001000
00010000
00000000
00001000
00000000
01000000
00010000
00000000
01000000
00100000
00000000
,
10000000
00100000
00010000
10000000
01000000
00010000
10010000
00000000
,
00010000
00000000
00100000
00001000
00000000
00010000
00001000
00000000
00010000
00000000
00000100
00001000
00000000
00000100
00000010
00000000
,
00000001
00000010
00001000
00000001
00000100
00001000
00001001
00000000
,
00000100
00000010
00000000
00000000
00000001
00000000
00000100
00000010
00000000
00000001
00000010
00000000
00000100
00000000
00001000
00000000
,
00010000
00100000
01000000
10000000
01000000
00100000
10000000
00010000
,
20020000
00000000
30030000
00000000
00010000
00000000
01000000
00010000
00000000
10000000
00100000
10000000
00100000
00000000
01000000
00000000
,
01010000
00000000
00000000
10010000
00000000
00000000
00110000
00000000
00000000
01100000
00000000
00000000
11000000
00000000
00010000
00000000
,
01010000
00000000
00000000
00000000
00101000
00000000
00000000
00000000
00010000
00000000
00001000
00000000
00000000
00000100
00000000
00000000
,
00000001
00000100
00001000
00000001
00000010
00001000
00001001
00000000
,
00000110
00000001
00001000
00000100
00000011
00001000
00001100
00000000
,
00000001
00000000
00000000
00000011
00000000
00000000
00000101
00000000
00000000
00001001
00000000
00000000
00000100
00000000
00010000
00000000
,
00001000
00100000
00010000
01000000
00001000
00010000
00000100
00001000
,
00000010
00000000
00000000
00010010
00000000
00000000
00011000
00000000
00000000
01001000
00000000
00000000
01000000
00000000
00010000
00000000
,
10010000
01000000
00100000
00010000
11000000
00010000
00110000
00000000
,
10100000
00000000
00000000
01100000
00000000
00000000
00110000
00000000
00000000
00101000
00000000
00000000
00100000
00000000
00001000
00000000
,
00010000
00000000
00000000
00011000
00000000
00000000
00010100
00000000
00000000
00010010
00000000
00000000
00010000
00000000
00000010
00000000
,
00010010
00000000
00000000
00001010
00000000
00000000
00000110
00000000
00000000
00000011
00000000
00000000
00000010
00000000
00000001
00000000
,
00001100
00000000
00000000
00000000
;
