#TITLE:Ragganinja;
#ARTIST:Greg Packer & Assassin;
#BANNER:Ragganinja.png;
#BACKGROUND:Ragganinja-bg.png;
#CDTITLE:./CDTITLES/DanceDanceRevolution UNIVERSE2.png;
#MUSIC:Ragganinja.ogg;
#SAMPLESTART:59.314;
#SAMPLELENGTH:15;
#BPMS:0=173.99;

//---------------dance-single - ----------------
#NOTES:
     dance-single:
     :
     Beginner:
     1:
     :
0000
0000
0000
0000
,
0000
0000
0000
0000
,
0000
0000
0000
0000
,
0000
0000
0000
0000
,
0000
0000
0000
0000
,
0000
0000
0000
0000
,
0000
0000
0000
0000
,
0000
0000
0000
0000
,
0000
0000
0000
0000
,
0000
0000
0000
0000
,
0000
0000
0000
0000
,
0000
0000
0000
0000
,
0000
0000
0000
0000
,
0010
0000
0000
0000
,
0000
0000
0000
0000
,
0100
0000
0000
0000
,
0000
0000
0000
0000
,
0001
0000
0000
0000
,
0000
0000
0000
0000
,
1000
0000
0000
0000
,
0000
0000
0000
0000
,
0010
0000
0000
0000
,
0000
0000
0000
0000
,
0100
0000
0000
0000
,
0000
0000
0000
0000
,
1000
0000
0000
0000
,
0000
0000
0000
0000
,
0001
0000
0000
0000
,
0000
0000
0000
0000
,
0010
0000
0000
0000
,
0000
0000
0000
0000
,
0100
0000
0000
0000
,
0000
0000
0000
0000
,
1001
0000
0000
0000
,
0000
0000
0000
0000
,
1000
0000
0000
0000
,
1000
0000
0000
0000
,
0001
0000
0000
0000
,
0001
0000
0000
0000
,
0010
0000
0000
0000
,
1000
0000
0000
0000
,
0001
0000
0000
0000
,
0100
0000
0000
0000
,
0000
0100
0000
0100
,
0000
0000
0000
0000
,
0000
0001
0000
0001
,
0000
0000
0000
0000
,
0000
0010
0000
0010
,
0000
0000
0000
0000
,
0000
1000
0000
1000
,
0000
0000
0000
0000
,
0000
1000
0000
0000
,
0000
0000
0000
0000
,
0000
0001
0000
0000
,
0000
0000
0000
0000
,
0000
0001
0000
0000
,
0000
0000
0000
0000
,
0000
1000
0000
0000
,
0000
0000
0000
0000
,
0020
0000
0000
0000
,
0000
0000
0000
0030
,
2000
0000
0000
0000
,
0000
0000
0000
3000
,
0002
0000
0000
0000
,
0000
0000
0000
0003
,
0200
0000
0000
0000
,
0000
0000
0000
0300
;

//---------------dance-single - ----------------
#NOTES:
     dance-single:
     :
     Easy:
     2:
     :
0000
0000
0000
0000
,
0000
0000
0000
0000
,
0000
0000
0000
0000
,
0000
0000
0000
0000
,
0000
0000
0000
0000
,
0000
0000
0000
0000
,
0000
0000
0000
0000
,
0000
0000
0000
0000
,
0000
0000
0000
0000
,
0000
0010
0000
0010
,
0000
0100
0000
0100
,
0000
0001
0000
0001
,
0000
1000
0000
1000
,
0000
0010
0000
0001
,
0000
1000
0000
0001
,
0100
0000
0000
0000
,
0000
0000
0000
0000
,
0000
1000
0000
1000
,
0000
0000
0000
0000
,
0000
0001
0000
0001
,
0000
0000
0000
0000
,
0000
1000
0000
1000
,
0000
0000
0000
0000
,
0000
0001
0000
0001
,
0000
0010
1000
0001
,
0000
0010
0000
0010
,
0000
0000
0000
0000
,
0000
0100
0000
0100
,
0000
0000
0000
0000
,
0000
0010
0000
0010
,
0000
0000
0000
0000
,
0000
0100
0000
0100
,
0000
0001
1000
0001
,
0200
0000
0000
0000
,
0000
0000
0000
0000
0000
0300
0000
0000
,
0000
0010
0000
0001
,
0000
1000
0000
0100
,
0000
0001
0000
1000
,
0000
0010
1000
0001
,
0000
0010
0000
1000
,
0000
0001
0000
0100
,
0000
0010
0000
0100
,
0000
0001
1000
0100
,
0000
0001
0000
0001
,
0000
1000
0000
1000
,
0000
0010
1000
0010
,
0000
0100
0001
0100
,
0000
1000
0000
1000
,
0000
0001
0000
0001
,
0000
0100
0001
0100
,
0000
0010
1000
0010
,
0000
1000
0000
1000
,
0000
0000
0000
0000
,
0000
0001
0000
0001
,
0000
0000
0000
0000
,
0000
0010
0000
0010
,
0000
0000
0000
0000
,
0000
0100
0000
0100
,
0000
0000
0000
0000
,
0002
0000
0000
0003
,
0020
0000
0000
0030
,
0200
0000
0000
0300
,
2000
0000
0000
3000
,
0020
0000
0000
0030
,
0200
0000
0000
0300
,
0002
0000
0000
0003
,
1000
0001
0100
0000
;

//---------------dance-single - ----------------
#NOTES:
     dance-single:
     :
     Medium:
     3:
     :
0000
0000
0000
0000
,
0000
0000
0000
0000
,
0000
0000
0000
0000
,
0000
0000
0000
0000
,
0000
0000
0000
0000
,
0000
0000
0000
0000
,
0000
0000
0000
0000
,
0000
0000
0000
0000
,
0000
0000
0000
0000
,
0001
0010
0001
0000
,
1000
0100
1000
0000
,
0010
1000
0001
0100
,
0010
1000
1001
0000
,
0001
0010
0001
0000
,
1000
0100
1000
0000
,
0110
0000
0000
0000
,
0000
0010
0100
1001
,
0000
1100
0000
1000
,
0000
0101
0000
0001
,
0000
1100
0000
1000
,
0000
0101
0000
0001
,
0000
0010
0000
0010
,
0000
0100
0000
0100
,
0001
0010
0100
1000
,
0010
1000
0100
0001
,
0000
1010
0000
1000
,
0000
0011
0000
0001
,
0000
1010
0000
1000
,
0000
0011
0000
0001
,
0000
1000
0000
1000
,
0000
0001
0000
0001
,
1000
0010
0100
0001
,
0010
0100
1000
0001
,
2020
0000
0000
0000
,
0000
0000
0000
3030
,
0000
0010
0001
1000
,
0000
0010
1000
0001
,
0000
0100
0001
1000
,
0000
0100
1000
0001
,
0000
0010
0001
1000
,
0000
0010
1000
0001
,
0000
0100
0001
1000
,
0000
0100
1000
0001
,
1000
1100
0001
0011
,
0001
1000
0010
1001
,
1000
1100
0001
0011
,
0001
1000
0010
1001
,
0000
0010
0001
1000
,
0000
0010
1000
0001
,
0000
0100
0001
1000
,
0000
0100
1000
0001
,
0000
1010
0000
0101
,
0000
0011
0000
1100
,
0000
1010
0000
0101
,
0000
0011
0000
1100
,
0000
1001
0000
1001
,
0000
0110
0000
0110
,
0000
0010
1000
0100
,
0001
0010
1000
0100
,
0002
1000
0000
0103
,
0020
1000
0000
0130
,
2000
0001
0000
3100
,
0200
0001
0000
0310
,
0002
1000
0000
0103
,
0020
1000
0000
0130
,
2000
0001
0000
3010
,
0200
0001
0000
0310
;

//---------------dance-single - ----------------
#NOTES:
     dance-single:
     :
     Hard:
     5:
     :
0000
0000
0000
0000
,
0000
0000
0000
0000
,
0000
0000
0000
0000
,
0000
0000
0000
0000
,
0000
0000
0000
0000
,
0000
1000
0000
0010
,
0000
0100
0000
0001
,
0020
0000
2030
0000
,
3002
0000
0000
0000
0000
0003
0000
0000
,
0010
1100
0010
0101
,
1001
0000
0010
0000
0010
1000
0001
0000
,
0010
1100
0010
0011
,
1001
0000
0010
0000
0010
1000
0001
0000
,
0010
1100
0010
0101
,
1001
0000
0010
0000
0010
1000
0001
0000
,
1001
0000
0000
0000
,
1000
0000
0001
0000
0000
0010
0100
0000
,
0000
1000
0000
0001
,
0000
0010
0000
0100
,
0000
1010
0000
0101
,
0000
0011
0000
1100
,
0000
1000
0000
0001
,
0000
0010
0000
0100
,
0000
1010
0000
0101
,
0000
0011
0000
1100
,
0000
0010
1000
0000
0000
0001
1000
0000
,
0000
0100
1000
0000
0000
0001
1000
0000
,
0000
0010
0001
0000
0000
1000
0001
0000
,
0000
0100
0001
0000
0000
1000
0001
0000
,
0000
0010
1000
0000
0000
1000
0100
0000
,
0000
0100
0001
0000
0000
0001
0010
0000
,
0000
0010
0001
0000
0000
0010
0000
0100
,
0000
0001
0000
0010
0100
0000
1001
0000
,
0100
0000
0000
0000
,
0000
0000
0000
0000
,
0010
1000
0001
0000
1000
0001
0100
0000
,
0010
1000
0100
0000
0010
0001
0100
0000
,
0010
1000
0001
0000
1000
0001
0100
0000
,
0010
1000
0100
1000
0010
0100
0001
0000
,
1000
0100
0010
0000
0000
1001
0000
0000
,
0001
0100
0010
0000
0000
1001
0000
0000
,
1000
0100
0010
0000
0000
1001
0000
0000
,
0001
0100
0010
0000
0000
1001
0000
0000
,
0010
1000
0001
0000
1000
0001
0100
0000
,
0010
1000
0100
0000
0010
0001
0100
0000
,
0010
1000
0001
0000
1000
0001
0100
0000
,
0010
1000
0100
1000
0010
0100
0001
0000
,
1000
0100
0010
0000
0000
1001
0000
0000
,
0001
0100
0010
0000
0000
1001
0000
0000
,
1000
0100
0010
0000
0001
0100
0010
1000
,
0000
0100
0000
0010
0001
0000
0110
0000
,
0000
0001
0100
1000
,
0000
1000
0100
0001
,
0000
0001
0100
1000
,
0010
0000
1000
0000
0001
0010
0100
1000
,
0000
1000
0100
0001
,
0000
0001
0100
1000
,
0000
1000
0100
0001
,
0010
0000
1000
0000
1000
0010
0100
0001
,
2000
0001
0000
3001
,
0002
1000
0000
1003
,
0200
0010
0000
0310
,
0020
0100
0100
0130
,
0002
0000
1000
0000
0000
1000
0003
0000
,
2000
0000
0001
0000
0000
0001
0000
3000
,
0200
0000
0010
0000
0000
0010
0300
0000
,
0020
0000
0100
0000
0000
0100
0030
0000
;

//---------------dance-double - ----------------
#NOTES:
     dance-double:
     :
     Beginner:
     1:
     :
00000000
00000000
00000000
00000000
,
00000000
00000000
00000000
00000000
,
00000000
00000000
00000000
00000000
,
00000000
00000000
00000000
00000000
,
00000000
00000000
00000000
00000000
,
00000000
00000000
00000000
00000000
,
00000000
00000000
00000000
00000000
,
00000000
00000000
00000000
00000000
,
00000000
00000000
00000000
00000000
,
00000000
00000000
00000000
00000000
,
00000000
00000000
00000000
00000000
,
00000000
00000000
00000000
00000000
,
00000000
00000000
00000000
00000000
,
00000100
00000000
00000000
00000000
,
00000000
00000000
00000000
00000000
,
00000010
00000000
00000000
00000000
,
00000000
00000000
00000000
00000000
,
00001000
00000000
00000000
00000000
,
00000000
00000000
00000000
00000000
,
00010000
00000000
00000000
00000000
,
00000000
00000000
00000000
00000000
,
00100000
00000000
00000000
00000000
,
00000000
00000000
00000000
00000000
,
01000000
00000000
00000000
00000000
,
00000000
00000000
00000000
00000000
,
10000000
00000000
00000000
00000000
,
00000000
00000000
00000000
00000000
,
00010000
00000000
00000000
00000000
,
00000000
00000000
00000000
00000000
,
00001000
00000000
00000000
00000000
,
00000000
00000000
00000000
00000000
,
00010000
00000000
00000000
00000000
,
00000000
00000000
00000000
00000000
,
00011000
00000000
00000000
00000000
,
00000000
00000000
00000000
00000000
,
00001000
00000000
00000000
00000000
,
00001000
00000000
00000000
00000000
,
00000001
00000000
00000000
00000000
,
00000001
00000000
00000000
00000000
,
00000010
00000000
00000000
00000000
,
00001000
00000000
00000000
00000000
,
00010000
00000000
00000000
00000000
,
01000000
00000000
00000000
00000000
,
00000000
01000000
00000000
01000000
,
00000000
00000000
00000000
00000000
,
00000000
00010000
00000000
00010000
,
00000000
00000000
00000000
00000000
,
00000000
00001000
00000000
00001000
,
00000000
00000000
00000000
00000000
,
00000000
00000100
00000000
00000100
,
00000000
00000000
00000000
00000000
,
00000000
00000001
00000000
00000000
,
00000000
00000000
00000000
00000000
,
00000000
00001000
00000000
00000000
,
00000000
00000000
00000000
00000000
,
00000000
00001000
00000000
00000000
,
00000000
00000000
00000000
00000000
,
00000000
00010000
00000000
00000000
,
00000000
00000000
00000000
00000000
,
00002000
00000000
00000000
00000000
,
00000000
00000000
00000000
00003000
,
00020000
00000000
00000000
00000000
,
00000000
00000000
00000000
00030000
,
00200000
00000000
00000000
00000000
,
00000000
00000000
00000000
00300000
,
02000000
00000000
00000000
00000000
,
00000000
00000000
00000000
03000000
;

//---------------dance-double - ----------------
#NOTES:
     dance-double:
     :
     Easy:
     2:
     :
00000000
00000000
00000000
00000000
,
00000000
00000000
00000000
00000000
,
00000000
00000000
00000000
00000000
,
00000000
00000000
00000000
00000000
,
00000000
00000000
00000000
00000000
,
00000000
00000000
00000000
00000000
,
00000000
00000000
00000000
00000000
,
00000000
00000000
00000000
00000000
,
00000000
00000000
00000000
00000000
,
00000000
00100000
00000000
00100000
,
00000000
00010000
00000000
00010000
,
00000000
00001000
00000000
00001000
,
00000000
00000100
00000000
00000100
,
00000000
00001000
00000000
00010000
,
00000000
00001000
00000000
00100000
,
01000000
00000000
00000000
00000000
,
00000000
00000000
00000000
00000000
,
00000000
10000000
00000000
10000000
,
00000000
00000000
00000000
00000000
,
00000000
00010000
00000000
00010000
,
00000000
00000000
00000000
00000000
,
00000000
00000100
00000000
00000100
,
00000000
00000000
00000000
00000000
,
00000000
00000001
00000000
00000001
,
00000000
00000010
00001000
00010000
,
00000000
00001000
00000000
00001000
,
00000000
00000000
00000000
00000000
,
00000000
00010000
00000000
00010000
,
00000000
00000000
00000000
00000000
,
00000000
00100000
00000000
00100000
,
00000000
00000000
00000000
00000000
,
00000000
01000000
00000000
01000000
,
00000000
00010000
00001000
00010000
,
00002000
00000000
00000000
00000000
,
00000000
00000000
00003000
00000000
,
00000000
00100000
00000000
00010000
,
00000000
00001000
00000000
00010000
,
00000000
00001000
00000000
00000100
,
00000000
00000010
00001000
00000001
,
00000000
00000010
00000000
00001000
,
00000000
00010000
00000000
00000100
,
00000000
00001000
00000000
00000100
,
00000000
00010000
00001000
00010000
,
00000000
00001000
00000000
00001000
,
00000000
00010000
00000000
00010000
,
00000000
00100000
00010000
00100000
,
00000000
01000000
00010000
01000000
,
00000000
10000000
00000000
10000000
,
00000000
00010000
00000000
00010000
,
00000000
00001000
00010000
00001000
,
00000000
00001000
00000100
00001000
,
00000000
00000001
00000000
00000001
,
00000000
00000000
00000000
00000000
,
00000000
00000010
00000000
00000010
,
00000000
00000000
00000000
00000000
,
00000000
00000100
00000000
00000100
,
00000000
00000000
00000000
00000000
,
00000000
00001000
00000000
00001000
,
00000000
00000000
00000000
00000000
,
00020000
00000000
00000000
00030000
,
00002000
00000000
00000000
00003000
,
00000200
00000000
00000000
00000300
,
00000020
00000000
00000000
00000030
,
00000002
00000000
00000000
00000003
,
00000200
00000000
00000000
00000300
,
00020000
00000000
00000000
00030000
,
00001000
00010000
00001000
00000000
;

//---------------dance-double - ----------------
#NOTES:
     dance-double:
     :
     Medium:
     3:
     :
00000000
00000000
00000000
00000000
,
00000000
00000000
00000000
00000000
,
00000000
00000000
00000000
00000000
,
00000000
00000000
00000000
00000000
,
00000000
00000000
00000000
00000000
,
00000000
00000000
00000000
00000000
,
00000000
00000000
00000000
00000000
,
00000000
00000000
00000000
00000000
,
00000000
00000000
00000000
00000000
,
00001000
00000100
00001000
00000000
,
00010000
00100000
00010000
00000000
,
00001000
00000010
00000100
00000001
,
00001000
00000010
00000110
00000000
,
00010000
00100000
00010000
00000000
,
00001000
00000100
00001000
00000000
,
00011000
00000000
00000000
00000000
,
00000000
00100000
01000000
10010000
,
00000000
11000000
00000000
10000000
,
00000000
01010000
00000000
00010000
,
00000000
00011000
00000000
00001000
,
00000000
00001010
00000000
00000001
,
00000000
00000100
00000000
00000100
,
00000000
00000010
00000000
00000010
,
00000001
00000010
00000100
00001000
,
00010000
00100000
01000000
10000000
,
00000000
10100000
00000000
10000000
,
00000000
00110000
00000000
00010000
,
00000000
00011000
00000000
00001000
,
00000000
00001100
00000000
00000100
,
00000000
00000010
00000000
00000010
,
00000000
00000001
00000000
00000001
,
00001000
00000010
00000100
00000001
,
00000010
00000100
00001000
00010000
,
00022000
00000000
00000000
00000000
,
00000000
00000000
00000000
00033000
,
00000000
00100000
00010000
10000000
,
00000000
00100000
10000000
00010000
,
00000000
00100000
00001000
00010000
,
00000000
00100000
00001000
00010000
,
00000000
00001000
00000010
00000100
,
00000000
00001000
00000010
00000100
,
00000000
00000010
00000001
00000100
,
00000000
00000010
00000001
00000100
,
00000010
00001010
00010000
00011000
,
00010000
00001000
00000010
00001001
,
00001000
00001100
00010000
00011000
,
00010000
00001000
00100000
01010000
,
00000000
00100000
00010000
01000000
,
00000000
01000000
00100000
10000000
,
00000000
01000000
00100000
10000000
,
00000000
01000000
10000000
00010000
,
00000000
10100000
00000000
01010000
,
00000000
00110000
00000000
00011000
,
00000000
00001010
00000000
00000101
,
00000000
00000011
00000000
00001100
,
00000000
00001001
00000000
00001001
,
00000000
00000110
00000000
00000110
,
00000000
00000010
00001000
00010000
,
00001000
00100000
00010000
01000000
,
00020000
10000000
00000000
01030000
,
00200000
10000000
00000000
01300000
,
20000000
00010000
00000000
31000000
,
02000000
00010000
00000000
03100000
,
00002000
00010000
00000000
00013000
,
00000020
00001000
00000000
00000130
,
00000002
00000100
00000000
00000013
,
00000200
00000010
00000000
00001300
;

//---------------dance-double - ----------------
#NOTES:
     dance-double:
     :
     Hard:
     6:
     :
00000000
00000000
00000000
00000000
,
00000000
00000000
00000000
00000000
,
00000000
00000000
00000000
00000000
,
00000000
00000000
00000000
00000000
,
00000000
00000000
00000000
00000000
,
00000000
01000000
00000000
00100000
,
00000000
00001000
00000000
00010000
,
00002000
00000000
00003200
00000000
,
00020300
00000000
00000000
00000000
00000000
00030000
00000000
00000000
,
00001000
00000101
00000010
00001100
,
00011000
00000000
00001000
00000000
00000010
00001000
00000001
00000000
,
00000010
00001100
00000010
00001100
,
00011000
00000000
00001000
00000000
00000010
00001000
00000001
00000000
,
00000010
00001100
00000010
00001100
,
00011000
00000000
00100000
00000000
00100000
00010000
10000000
00000000
,
10010000
00000000
00000000
00000000
,
10000000
00000000
00010000
00000000
00000000
00100000
01000000
00000000
,
00000000
10000000
00000000
00010000
,
00000000
00100000
00000000
01000000
,
00000000
00110000
00000000
00011000
,
00000000
00001100
00000000
00000110
,
00000000
00000001
00000000
00000010
,
00000000
00000100
00000000
00001000
,
00000000
00011000
00000000
01010000
,
00000000
00110000
00000000
00011000
,
00000000
00100000
00001000
00000000
00000000
00010000
00001000
00000000
,
00000000
01000000
00001000
00000000
00000000
00010000
00001000
00000000
,
00000000
00000100
00010000
00000000
00000000
00001000
00010000
00000000
,
00000000
00000010
00010000
00000000
00000000
00001000
00010000
00000000
,
00000000
00001000
00000100
00000000
00000000
00000001
00000010
00000000
,
00000000
00000010
00001000
00000000
00000000
00001000
00010000
00000000
,
00000000
00001000
00010000
00000000
00000000
00100000
00000000
01000000
,
00000000
00010000
00000000
00100000
01000000
00000000
10010000
00000000
,
01000000
00000000
00000000
00000000
,
00000000
00000000
00000000
00000000
,
00100000
10000000
00010000
00000000
10000000
00010000
01000000
00000000
,
00001000
00010000
00000100
00000000
00001000
00000010
00000001
00000000
,
00000010
00001000
00000001
00000000
00001000
00000001
00000100
00000000
,
00010000
00001000
00010000
00001000
00100000
01000000
00010000
00000000
,
00010000
01000000
00100000
00000000
00000000
00011000
00000000
00000000
,
10000000
01000000
00100000
00000000
00000000
00011000
00000000
00000000
,
00001000
00000100
00000010
00000000
00000000
00011000
00000000
00000000
,
00000010
00000100
00001000
00000000
00000000
00011000
00000000
00000000
,
00010000
00100000
01000000
00000000
10000000
00010000
01000000
00000000
,
00100000
10000000
01000000
00000000
00100000
00010000
01000000
00000000
,
00001000
00010000
00000100
00000000
00001000
00000001
00000010
00000000
,
00000100
00000001
00000010
00000001
00000100
00000010
00001000
00000000
,
00000001
00000010
00000100
00000000
00000000
00011000
00000000
00000000
,
00010000
00100000
01000000
00000000
00000000
00011000
00000000
00000000
,
10000000
01000000
00100000
00000000
00010000
01000000
00100000
10000000
,
00000000
01000000
00000000
00100000
00010000
00000000
01100000
00000000
,
00000000
00010000
00001000
00000100
,
00000000
00000001
00000010
00000100
,
00000000
00001000
00000100
00000001
,
00000010
00000000
00001000
00000000
00010000
00100000
01000000
10000000
,
00000000
10000000
01000000
00010000
,
00000000
00001000
00000100
00000010
,
00000000
00000001
00000100
00001000
,
00100000
00000000
00010000
00000000
00010000
00100000
00001000
00010000
,
00002000
00010000
00000000
00013000
,
00020000
00001000
00000000
00031000
,
00000200
00001000
00000000
00001300
,
00000020
00000100
00000100
00000130
,
00000002
00000000
00001000
00000000
00000000
00001000
00000003
00000000
,
00000200
00000000
00010000
00000000
00000000
00010000
00000300
00000000
,
00020000
00000000
00100000
00000000
00000000
00100000
00030000
00000000
,
00002000
00000000
01000000
00000000
00000000
01000000
00003000
00000000
;
