#TITLE:Power 5 (Aggro Mix);
#ARTIST:DJ Catzilla;
#BANNER:Power 5 (Aggro Mix).png;
#BACKGROUND:Power 5 (Aggro Mix)-bg.png;
#CDTITLE:./CDTITLES/DanceDanceRevolution UNIVERSE2.png;
#MUSIC:Power 5 (Aggro Mix).ogg;
#SAMPLESTART:33.316;
#SAMPLELENGTH:15;
#DISPLAYBPM:180;
#BPMS:0=180.091,241=179.76,256=180.905,264=152.542,268=180,396=181.208,408=180,640=179.775,672=179.982,872=180;

//---------------dance-single - ----------------
#NOTES:
     dance-single:
     :
     Beginner:
     1:
     :
0000
0000
0000
0000
,
0000
0000
0000
0000
,
0000
0000
0000
0000
,
0000
0000
0000
0000
,
0000
0000
0000
0000
,
1000
0000
0100
0000
,
1000
0000
0001
0000
,
0100
0000
0001
0000
,
0010
0000
0100
0000
,
0001
0000
0100
0000
,
1000
0000
0100
0000
,
0001
0000
0010
0000
,
1000
0000
0010
0000
,
0000
0001
0000
0001
,
0000
1000
0000
1000
,
0000
0010
0000
0001
,
0000
0000
0000
0100
,
0000
0010
0000
1000
,
0000
0000
0000
0000
,
0100
0000
0001
0000
,
0100
0000
0000
0000
,
0010
0000
0100
0000
,
0010
0000
0000
0000
,
0100
0000
0010
0000
,
0100
0000
0001
0000
,
0100
0000
0010
0000
,
0100
0000
0001
0000
,
1000
0000
0010
0000
,
0001
0000
1000
0000
,
0010
0000
0001
0000
,
1000
0000
0100
0000
,
0010
0000
1000
0000
,
0001
0000
0100
0000
,
0010
0000
1000
0000
,
0001
0000
1000
0000
,
0100
0000
0010
0000
,
0001
0000
0001
0000
,
0100
0000
0010
0000
,
0001
0000
1000
0000
,
0001
0000
0100
0000
,
0001
0000
0001
0000
,
1000
0000
0010
0000
,
0001
0000
0010
0000
,
1000
0000
0100
0000
,
0001
0000
0100
0000
,
0000
1000
0000
1000
,
0000
0001
0000
0001
,
0000
0100
0000
1000
,
0000
0000
0000
0010
,
0000
0100
0000
0010
,
0000
0000
0000
0000
,
0010
0000
0100
0000
,
0010
0000
0000
0000
,
0100
0000
0010
0000
,
0100
0000
0000
0000
,
0010
0000
0100
0000
,
0010
0000
1000
0000
,
0010
0000
0100
0000
,
0010
0000
1000
0000
,
0001
0000
0100
0000
,
1000
0000
0001
0000
,
0100
0000
1000
0000
,
0001
0000
0100
0000
,
1000
0000
0001
0000
,
1000
0000
1000
0000
,
0010
0000
1000
0000
,
0110
0000
0000
0000
,
0010
0000
1000
0000
,
0001
0000
0001
0000
,
0100
0000
0001
0000
,
0010
0000
0100
0000
,
1000
0000
0100
0000
,
0100
0000
0100
0000
,
0100
0000
1000
0000
,
0010
0000
0100
0000
,
1000
0000
0100
0000
,
0110
0000
1001
0000
,
1000
0000
0001
0000
,
1001
0000
0110
0000
,
0010
0000
0100
0000
,
1001
0000
0110
0000
,
0010
0000
0001
0000
,
1001
0000
1001
0000
,
1001
0000
0000
0000
,
0100
0000
0000
0100
,
0000
0000
0000
0000
,
0001
0000
0000
0001
,
0000
1000
0000
1000
,
0000
0001
0000
0001
,
0000
0100
0000
0100
,
0000
0100
0000
0100
,
0000
0100
0000
0010
,
0000
1000
0000
1000
,
0000
0001
0000
1000
,
0000
0100
0000
0100
,
0000
1000
0000
0100
,
0000
0001
0000
0001
,
0000
0001
0000
0010
,
0000
1000
0000
1000
,
0000
0000
0100
0000
,
0010
0000
0100
0000
,
1001
0000
0000
0000
,
0001
0000
0001
0000
,
0100
0000
0000
0000
,
0000
1000
0000
0100
,
0000
0100
0000
0000
,
0000
1000
0000
0100
,
0000
1000
0000
0000
,
0000
0010
0000
0100
,
0000
1000
0000
0000
,
1000
0000
1001
0000
,
0000
0000
0000
0000
,
1000
0000
0100
0000
,
1000
0000
0000
0000
,
0000
0001
0000
0100
,
0000
0100
0000
0000
,
0000
0010
0000
0001
,
0000
0010
0000
0000
,
1001
0000
0100
0000
,
0100
0000
0100
0000
,
1001
0000
0100
0000
,
0100
0000
0100
0000
,
1001
0000
0100
0000
,
0100
0000
1001
0000
,
1001
0000
0000
0000
,
1000
0000
1000
0000
,
1000
0000
1000
0000
,
1000
0000
0010
0000
,
0001
0000
0010
0000
,
0100
0000
0100
0000
,
0010
0000
0100
0000
,
1000
0000
0100
0000
,
0010
0000
0001
0000
,
0100
0000
0010
0000
,
1000
0000
0000
0000
,
0010
0000
0010
0000
,
0010
0000
0000
0000
,
0000
0010
0000
0010
,
0000
0100
0000
0000
,
0000
0100
0000
0010
,
0000
1000
0000
0000
,
0000
1000
0000
0010
,
0000
0100
0000
0000
,
1000
0000
1001
0000
,
0000
0000
0000
0000
,
1000
0000
0100
0000
,
1000
0000
0000
0000
,
0000
0001
0000
1000
,
0000
1000
0000
0000
,
0000
0010
0000
0100
,
0000
1000
0000
0000
,
1001
0000
0000
0000
,
1001
0000
0000
0000
,
1001
0000
0000
0000
,
1001
0000
0000
0000
,
1001
0000
0000
0000
,
1001
0000
0000
0000
,
1001
0000
0000
0000
,
1001
0000
0000
0000
,
0000
0000
0000
0000
,
0010
0000
0010
0000
,
0100
0000
1000
0000
,
0100
0000
0010
0000
,
1000
0000
1000
0000
,
1000
0000
0100
0000
,
0100
0000
0010
0000
,
1000
0000
0010
0000
,
0100
0000
0010
0000
,
0110
0000
0000
0000
,
1001
0000
0000
0000
,
0000
0000
0000
1000
,
0000
0010
0000
0100
,
0000
0001
0000
0000
,
0000
1000
0000
1000
,
0000
0000
0000
0001
,
0000
0100
0000
0010
,
0000
1000
0000
0000
,
0000
0001
0000
0001
,
0000
0001
0000
1000
,
0000
0100
0000
0010
,
0000
0001
0000
0000
,
0000
1000
0000
1000
,
0000
0000
0000
0001
,
0000
0010
0000
0100
,
0000
1000
0000
0110
,
0000
0110
0000
0001
,
0000
0001
0000
0000
,
0010
0000
0010
0000
,
0000
0000
1001
0000
,
0000
0000
0000
0000
,
0000
0000
0001
0000
,
1000
0000
0001
0000
,
0100
0000
0000
0000
,
1001
0000
0000
0000
,
1001
0000
1000
0000
,
0100
0000
0010
0000
,
0110
0000
0001
0000
,
0010
0000
0100
0000
,
0110
0000
1000
0000
,
0001
0000
0001
0000
,
1000
0000
0110
0000
,
0000
0000
0000
0000
,
0010
0000
1000
0000
,
0100
0000
0001
0000
,
0100
0000
0010
0000
,
0100
0000
0110
0000
,
0000
0000
0001
0000
,
0010
0000
1000
0000
,
0001
0000
1000
0000
,
0001
0000
0100
0000
,
0000
0000
1000
0000
,
0010
0000
0001
0000
,
0010
0000
0100
0000
,
0010
0000
0110
0000
,
0000
0000
1000
0000
,
0100
0000
1000
0000
,
1000
0000
0001
0000
,
1000
0000
0010
0000
,
1000
0000
0000
0000
,
0001
0000
0000
0000
,
1001
0000
0000
0000
;

//---------------dance-single - ----------------
#NOTES:
     dance-single:
     :
     Easy:
     4:
     :
0000
0000
0000
0000
,
0000
0000
0000
0000
,
0000
0000
0000
0000
,
0000
0000
0000
0000
,
0000
0000
0000
0000
,
1000
0000
0100
0000
,
1000
0000
0001
0000
,
0100
0000
0001
0000
,
0010
0000
0100
1000
,
0001
0000
0100
0000
,
1000
0000
0100
0000
,
0001
0000
0010
0000
,
1000
0000
0010
0000
,
0000
0001
0100
0001
,
0000
1000
0100
1000
,
0000
0010
0100
0001
,
2000
0000
3000
0100
,
0010
0010
0001
1000
,
0010
0000
0000
0000
,
0100
0100
0001
1000
,
0100
0000
0000
0000
,
0010
0001
0100
1000
,
0010
0000
0000
0000
,
0100
0001
0010
1000
,
0100
0000
0001
0010
,
0100
1000
0010
0000
,
0100
0000
0001
0000
,
1000
0100
0010
0000
,
0001
0000
1000
0000
,
0010
0100
0001
0000
,
1000
0000
0100
0000
,
0010
0001
1000
0000
,
0001
0000
0100
0000
,
0010
0000
1000
0000
,
0001
0000
1000
0000
,
0100
0000
0010
0000
,
0001
1000
0001
1000
,
0100
0000
0010
0000
,
0001
0000
1000
0000
,
0001
0000
0100
0000
,
0001
0010
0001
0010
,
1000
0000
0010
0000
,
0001
0000
0010
0000
,
1000
0000
0100
0000
,
0001
0000
0100
0000
,
0000
1000
0010
1000
,
0000
0001
0010
0001
,
0000
0100
0010
1000
,
0002
0000
0003
0010
,
0100
0100
1000
0010
,
0100
0000
0000
0000
,
0010
0010
0100
0001
,
0010
0000
0000
0000
,
0100
1000
0010
0001
,
0100
0000
0000
0000
,
0010
1000
0100
0001
,
0010
0000
1000
0100
,
0010
0001
0100
0000
,
0010
0000
1000
0000
,
0001
0010
0100
0000
,
1000
0000
0001
0000
,
0100
0010
1000
0000
,
0001
0000
0100
0000
,
1000
0100
0001
0000
,
2000
3010
2000
3100
,
0020
0031
2000
3001
,
0220
0000
0000
0330
,
0010
0001
1000
0100
,
0001
0100
0001
0001
,
0100
0010
0001
1000
,
0010
0010
0100
0001
,
1000
0010
0100
1000
,
0100
0010
0100
0010
,
0100
0001
1000
0001
,
0010
0001
0100
1000
,
1000
1100
0100
0101
,
0110
1001
1100
1001
,
1000
1100
0001
0101
,
0011
1001
0101
1001
,
0010
0110
0100
1100
,
1010
1001
1100
1001
,
0010
1010
0001
0011
,
1001
1100
1001
0101
,
2002
0000
0000
3003
,
0100
0000
0010
0100
0000
0000
0100
0000
,
2002
0000
0000
3003
,
0001
0000
1000
0001
0000
0000
0001
0000
,
0002
1000
0100
1003
,
2000
0001
0100
3001
,
0002
0103
2000
3100
,
0002
0103
2000
3100
,
0110
0000
0100
0010
0000
0000
0010
0000
,
0200
1000
1000
1300
,
1001
0000
0001
1000
0000
0000
1000
0000
,
0002
0100
0100
0103
,
1001
0000
1000
0100
0000
0000
0100
0000
,
0020
0001
0001
0031
,
0011
0000
0001
0010
0000
0000
0010
0000
,
0002
1000
1000
1003
,
0010
0000
0100
0000
,
0010
0000
0100
0000
,
1001
0100
0000
0000
,
0001
0100
0001
1000
,
0100
0000
1000
0000
0000
0010
0000
0010
,
0000
1000
0001
0100
,
0010
0000
0100
0000
0000
0001
0000
0001
,
0000
1000
0001
0100
,
0010
0000
1000
0000
0000
0100
0000
0100
,
0000
0010
0001
0100
,
0010
0000
1000
0000
0000
0100
0000
0100
,
1000
0100
1001
0000
,
0000
0000
0000
0000
,
1000
0001
0100
0001
,
1000
0000
0100
0000
0000
0010
0000
0010
,
0000
0001
1000
0100
,
0010
0000
0100
0000
0000
1000
0000
1000
,
0000
0010
0100
0001
,
1000
0000
0010
0000
0000
0100
0000
0100
,
1001
0000
0100
0000
,
0100
0000
0100
0000
,
1001
0000
0100
0000
,
0100
0000
0100
0000
,
1001
0000
0100
0000
,
0100
0000
1001
0000
,
1001
0000
0000
0000
,
1000
0000
1000
0000
,
1000
0000
1000
0000
,
1000
0100
0010
0010
,
0001
0100
0010
0010
,
0100
0100
0100
0010
,
0010
0010
0100
0010
,
1000
0000
0100
0000
,
0010
0000
0001
0000
,
0100
0000
0010
0000
,
1000
0000
0000
0000
,
0010
0100
0010
0100
,
0010
0000
1000
0000
0000
0100
0000
0100
,
0000
0010
0100
0010
,
0001
0000
0100
0000
0000
0010
0000
0010
,
0000
0100
0001
0010
,
0100
0000
1000
0000
0000
0001
0000
0001
,
0000
1000
0100
0010
,
0001
0000
0100
0000
0000
0010
0000
0010
,
1000
0100
1001
0000
,
0000
0000
0000
0000
,
1000
0001
0100
0010
,
1000
0000
0100
0000
0000
0010
0000
0010
,
0000
0001
0001
1000
,
1000
0000
1000
0000
0000
0100
0000
0100
,
0000
0010
0001
0100
,
0010
0000
1000
0000
0000
0100
0000
0000
,
1001
0000
0010
0100
0000
0000
0000
0000
,
1001
0000
0000
1001
0000
0000
0000
0000
,
1001
0000
0010
0100
0000
0000
0000
0000
,
1001
0000
0000
1001
0000
0000
0000
0000
,
1001
0000
0010
0100
0000
0000
0000
0000
,
1001
0000
0000
1001
0000
0000
0000
0000
,
1001
0000
0010
0100
0000
0000
0000
0000
,
1001
0000
0000
1001
0000
0000
0000
0000
,
0000
0000
0000
0000
,
0010
0100
0010
0001
,
0100
0010
0010
0000
1000
0000
0001
0000
,
0100
0010
0010
0010
,
1000
0000
0100
0100
1000
0000
0001
0000
,
1000
0010
0100
0010
,
0100
0000
0001
0000
0010
0010
0100
0000
,
1000
0001
0010
0100
,
0100
0000
0100
0010
0010
0000
0100
0000
,
0110
0000
0000
0000
,
1001
0000
0000
0000
,
0000
0000
0000
1000
,
0000
0010
0000
0100
,
0000
0001
0000
0000
,
0000
1000
0010
1000
,
0100
0000
0000
0001
,
0000
0100
0000
0010
,
0000
1000
0000
0000
,
0000
0001
0100
0001
,
0010
0001
0000
1000
,
0000
0100
0000
0010
,
0000
0001
0000
0000
,
0000
1000
0100
1000
,
0010
0000
0000
0001
,
0000
0010
0000
0100
,
0000
1000
0000
0110
,
0000
0110
0000
0001
,
1000
0001
1000
0000
,
0010
0000
0010
0000
,
0000
0000
1001
0000
,
0000
0000
0000
0000
,
0000
0000
0001
0000
,
1000
0000
0001
0010
,
0100
0000
0000
0000
,
1001
0000
0000
0000
,
1001
0000
1000
0000
,
0100
0000
0010
0000
,
0110
0000
0001
0000
,
0010
0000
0100
0000
,
0110
0000
1000
0100
,
0001
0000
0001
0100
,
1000
0000
0110
0000
,
0000
0000
0000
0000
,
0010
0000
1000
0000
,
0100
0010
0001
0000
,
0100
0000
0010
0000
,
0100
0100
0110
0000
,
0000
0000
0001
0000
,
0010
0100
1000
0000
,
0001
0000
1000
0000
,
0001
0010
0100
1000
,
0000
0000
1000
0000
,
0010
0100
0001
0000
,
0010
0000
0100
0000
,
0010
0010
0110
0000
,
0000
0000
1000
0000
,
0100
0010
1000
0000
,
1000
0000
0001
0000
,
1000
0100
0010
0001
,
1000
0000
0000
0000
,
0001
0000
0000
0000
,
1001
0000
0000
0000
;

//---------------dance-single - ----------------
#NOTES:
     dance-single:
     :
     Medium:
     6:
     :
0000
0000
0000
0000
,
0000
0000
0000
0000
,
0000
0000
0000
0000
,
0000
0000
0000
0000
,
0000
0000
0000
0000
,
1000
0000
0100
0000
0000
1000
0100
0000
,
1000
0000
0010
0000
0000
1000
0010
0000
,
0100
0000
0001
0000
0000
0100
0001
0000
,
0010
0000
0001
0000
0000
0010
0001
0000
,
1000
0101
0001
0011
,
0001
1100
1000
1010
,
0100
0010
0001
0100
,
1000
0000
0010
0000
0100
0001
1000
0000
,
0000
0000
0100
0000
0010
0001
1000
0000
,
0000
0000
0001
0000
0100
0010
1000
0000
,
0001
0100
0001
0100
0010
1000
0010
1000
,
0001
0010
0100
1001
,
0001
0000
0100
0000
1000
0010
0100
0000
,
0001
1000
0100
0000
,
0010
0000
0001
0000
1000
0100
0010
0000
,
0001
0000
0000
0010
0000
0000
0100
0000
,
1000
0000
0010
0000
0001
0100
0010
0000
,
1000
0000
0000
1001
0000
0000
0001
0000
,
0010
0000
0100
0000
1000
0001
0010
0000
,
0100
1000
0010
0110
,
0001
0001
1000
0100
,
0010
0000
0000
0002
0000
0000
1003
0000
,
0100
0100
1000
0010
,
0100
0000
0000
0001
0000
1000
0000
0100
,
0010
0010
0001
1000
,
0010
0000
0000
0002
0000
0000
0103
0000
,
0010
0010
1000
0001
,
0010
0000
0000
0001
0000
1000
0000
0100
,
1000
0001
0100
1000
,
0100
0001
0010
0000
,
1000
0100
0001
0100
,
1000
0000
0010
0000
0100
1000
0100
0000
,
0001
0010
0100
1000
,
0010
0001
0010
0000
,
0100
1000
0010
0001
,
0010
0000
1000
0001
0000
0001
1000
0000
,
1000
0101
0001
0011
,
0001
1100
1000
1010
,
0100
0010
0001
0100
,
1000
0000
0010
0000
0100
0001
1000
0000
,
0000
0000
0100
0000
0010
0001
1000
0000
,
0000
0000
0001
0000
0100
0010
1000
0000
,
0001
0100
0001
0000
1000
0010
1000
0000
,
0001
0010
0100
1001
,
0001
0000
0100
0000
1000
0010
0200
0000
,
0301
0000
1000
0100
0000
0010
0000
0001
,
1000
0001
1000
0100
,
0010
0000
0000
0002
0000
0000
0103
0000
,
0010
1000
0001
0100
,
0010
0000
0000
1000
0000
0001
0000
0100
,
1000
0100
0001
0010
,
0100
0000
0000
1000
0000
0000
0001
0000
,
0100
0001
0010
1000
,
0100
0000
0000
0020
0000
0000
0031
0000
,
1000
0010
0100
0001
,
1000
0000
0100
0000
0000
0010
0001
0000
,
0001
0100
1000
0001
,
0010
0000
1000
0010
0000
0100
0000
0001
,
1000
0100
0010
0001
,
0010
0100
0010
0000
1000
0010
1000
0001
,
0100
0001
0100
0000
0100
0001
1000
0001
,
0020
0000
0000
0030
,
1000
0100
0010
0001
1000
0100
0000
0010
,
0001
1000
0100
0010
0001
1000
0000
0010
,
0001
0010
0000
0100
1000
0100
0000
1000
,
0100
0010
0001
1000
0100
0000
0000
0000
,
0001
0010
0100
1000
0001
0010
0000
0100
,
1000
0001
0010
0100
1000
0001
0000
1000
,
0100
1000
0000
0010
0001
0010
0000
0001
,
0010
0100
1000
0001
0010
0000
0000
0000
,
1000
1100
0001
0101
,
0020
1000
1000
1030
,
0001
0011
1000
1010
,
0001
0000
1001
0000
1000
0100
1000
0000
,
0001
0101
1000
1100
,
0020
0001
0001
0031
,
1000
1010
0001
0011
,
1000
0000
1001
0000
0001
0100
0001
0000
,
1001
0000
1000
0001
0000
0001
0000
1000
,
0100
0000
0010
0001
1000
0100
0010
0100
,
0010
0000
0010
0001
0000
0010
0001
0100
,
0010
0100
0010
0000
1000
0010
1000
0000
,
0010
0100
0001
1000
0000
0000
0010
1000
,
0100
0001
0100
0000
0010
0100
0010
0000
,
0001
1000
0001
1000
0000
0000
0010
0001
,
0100
1000
0100
0000
0010
0100
0010
0000
,
1000
0001
1000
0001
0000
0010
0100
1000
,
0100
0010
0001
0000
1000
0100
1000
0000
,
1000
0100
0010
0001
0000
0001
0010
0100
,
1000
1100
0101
1001
,
0001
1000
0001
1000
0000
0010
0100
0001
,
0100
0010
1000
0000
0001
0100
0001
0000
,
0001
0010
0100
1000
0000
1000
0100
0010
,
0001
0101
1100
1001
,
1000
0100
0010
0100
,
1000
0010
0100
0001
,
1100
0001
0000
0000
,
1000
0100
0010
0000
0010
0001
0100
0000
,
0100
0010
1000
0000
0000
0001
0000
0001
,
0010
0100
1000
0000
1000
0010
0100
0000
,
0100
0001
0010
0000
0000
0010
0000
0010
,
0100
1000
0001
0000
0100
0010
1000
0000
,
0100
0010
0001
0000
0000
0000
1000
0100
,
0010
0100
1000
0000
0000
0000
0001
0010
,
0001
0100
0010
0000
0000
0000
0010
0100
,
1001
0100
0010
0000
,
0001
0010
0001
0000
0000
0100
0000
0100
,
0001
0100
0010
0000
1000
0100
0010
0000
,
0010
0001
0100
0000
0000
0010
0000
0010
,
1000
0100
0010
0000
0010
0001
0100
0000
,
0010
1000
0100
0000
0000
0000
0010
0001
,
1000
0100
0010
0000
0000
0000
0100
1000
,
0000
0000
0100
0000
0000
0000
0100
0010
,
0001
1000
0100
0000
0000
0100
0000
0000
,
0000
0100
0000
0000
0000
0100
0000
0000
,
1000
0010
0100
0000
0000
0100
0000
0000
,
0000
0100
0000
0000
0000
0100
0000
0000
,
0001
0010
0100
0000
0000
0100
0000
0000
,
0000
0100
0000
0000
0000
1001
0000
1001
,
0000
1001
0000
0000
,
1000
0000
0000
1000
0000
0000
1000
0000
1000
0000
0000
1000
0000
0000
1000
0000
,
1000
0000
0000
1000
0000
0000
1000
0000
1000
0000
0000
0000
0000
0000
0000
0000
,
1000
0000
0100
0000
0010
0010
0010
0000
,
0001
0000
0100
0000
0010
0010
0010
0000
,
1000
1000
1000
0000
0001
0001
0001
0000
,
0010
0100
1000
0001
0100
0100
0100
0000
,
1000
0100
0010
0001
,
0100
0010
1000
0100
,
0010
0001
0100
0010
,
1000
0000
0000
0000
,
0001
0100
0010
0000
0010
1000
0100
0000
,
0100
0010
0001
0000
0000
1000
0000
1000
,
0010
0100
0001
0000
0001
0010
0100
0000
,
0100
1000
0010
0000
0000
0010
0000
0010
,
0100
0001
1000
0000
0100
0010
0001
0000
,
0100
0010
1000
0000
0000
0000
0001
0100
,
0010
0100
0001
0000
0000
0000
1000
0010
,
1000
0100
0010
0000
0000
0000
0010
0100
,
1001
0100
0010
0000
,
1000
0010
1000
0000
0000
0100
0000
0100
,
1000
0100
0010
0000
0001
0100
0010
0000
,
0010
1000
0100
0000
0000
0010
0000
0010
,
0001
0100
0010
0000
0010
1000
0100
0000
,
0010
0001
0100
0000
0000
0000
0010
1000
,
0001
0100
0010
0000
0000
0000
0100
0001
,
0000
0000
0100
0000
0000
0000
0100
0010
,
1000
0001
0100
0010
0000
0010
0000
0000
,
0001
0100
0010
1000
0100
0010
0000
0000
,
0001
1000
0010
0100
0000
0100
0000
0000
,
0001
0010
0100
1000
0010
0100
0000
0000
,
0001
0010
0100
1000
0000
1000
0000
0000
,
0001
0100
1000
0100
0001
0010
0000
0000
,
0100
1000
0010
0100
0000
0100
0000
0000
,
0001
0010
1000
0010
0001
0100
0000
0000
,
0001
1000
0001
0000
0010
0000
0100
0000
,
1000
0000
0010
0100
0000
0001
0100
0000
,
0010
0100
0001
1000
0000
0100
0100
0000
,
1000
0000
0010
0100
0000
0001
0100
0000
,
0010
0100
0001
1000
0000
0100
0100
0000
,
1000
0000
0010
0100
0000
0001
0100
0000
,
0010
0100
0001
1000
0000
0100
0100
0000
,
1000
0000
0010
0100
0000
0001
0100
0000
,
0010
0100
0001
1000
0000
0100
0100
0000
,
0200
0000
0000
0000
0000
0000
0300
0010
,
0020
0000
0000
0030
,
0000
0000
1000
1000
,
0001
0010
1000
0100
,
0110
0000
1000
0010
,
0001
0010
1000
0100
,
0010
0001
0010
0000
0000
0000
1000
0000
,
0001
0100
1000
0010
,
0110
0000
1000
0100
,
0010
0001
2000
0010
,
3100
1001
0000
0001
,
1000
0110
0001
0100
,
0110
0000
0001
0100
,
1000
0100
0001
0010
,
0100
1000
0100
0000
0000
0000
0001
0000
,
1000
0110
0001
0010
,
0110
0000
0001
0010
,
0100
1000
0011
1100
,
0002
0000
2000
0003
,
3200
0000
0320
0000
,
0031
0000
1100
0000
,
0000
0000
0000
0000
,
0000
0000
0000
0000
1000
0100
1000
0000
,
0100
0000
0010
0000
0001
0010
0001
0000
,
0010
0100
1000
0001
,
1000
0001
1000
0010
,
0100
1010
0001
1000
,
0001
1000
0001
0100
,
0010
0101
0010
0100
,
0010
0100
0010
1000
,
0001
0000
1001
0000
0200
0000
0000
0300
,
2000
0000
0000
3000
0202
0000
0000
0303
,
2020
0000
0000
3030
0100
0000
0000
0000
,
0000
0000
0000
0000
,
1000
0010
1000
0100
,
1000
0100
1000
1001
,
1000
0100
0010
0001
,
0001
0011
0101
1001
,
0001
0100
0001
0010
,
0001
0010
0001
1001
,
0010
0010
0100
0100
,
0010
0100
0010
0000
0010
0100
0110
0000
,
0000
0100
1000
0010
,
1000
0010
1000
1001
,
1000
0010
0100
0001
,
1000
1100
1010
1001
,
0001
0010
0001
0100
,
0001
0100
0001
1001
,
0100
0100
0010
0010
,
0100
0010
0100
0000
0100
0010
1001
0000
,
0010
0000
0010
0000
,
0100
0000
0100
0000
,
1001
0000
0000
0000
;

//---------------dance-single - ----------------
#NOTES:
     dance-single:
     :
     Hard:
     9:
     :
0000
0000
0000
0000
,
0000
0000
0000
0000
,
0000
0000
0000
0000
,
0000
0000
0000
0000
,
0000
0000
0000
0000
,
1000
0000
0000
0000
0100
0000
0000
0010
0000
0000
0001
0000
1000
0000
0000
0000
,
0001
0000
0000
0000
0100
0000
0000
0010
0000
0000
1000
0000
0001
0000
0000
0000
,
0010
0000
0000
0000
1000
0000
0000
0010
0000
0000
0001
0000
1000
0000
0000
0000
,
0010
0000
0000
0000
0001
0000
0000
0010
0000
0000
2000
0000
0000
0000
0000
0000
,
3001
0000
0100
0000
0001
0000
0000
0010
0000
0000
0001
0000
0100
0000
0000
0000
,
0010
0000
1000
0000
0010
0000
0000
0100
0000
0000
0001
0000
0010
0000
0000
0000
,
0100
0000
1000
0000
0001
0000
0000
0100
0000
0000
1000
0000
0100
0000
0001
0000
,
0010
0000
0001
0000
1000
0000
0000
0100
0000
0000
0001
0000
0100
0000
2000
0000
,
0000
0000
3010
0100
0001
0010
0100
2000
,
0000
0000
3010
1000
0100
0010
0001
0001
,
1000
1000
0001
0001
1000
0001
1000
0001
,
1000
0100
0001
0100
1000
0010
0001
0000
,
0110
0000
0110
0000
1000
0010
0100
0000
,
0001
0010
0001
1000
0002
0000
0103
0000
,
1001
0000
1001
0000
0100
0010
1000
0000
,
0001
0100
0001
0010
0100
1000
0001
0000
,
1100
0000
1100
0000
0001
0010
0100
1000
,
0010
0000
0100
0001
2000
0000
3010
0000
,
0101
0000
0101
0000
1000
0001
0100
0000
,
0010
0000
1000
0000
0001
0000
0010
0000
0100
0000
1000
0000
0001
1000
0001
1000
,
0002
0000
0203
0000
1300
0100
0010
1000
,
0001
0000
1001
0010
0100
1000
0001
0000
,
2000
0000
3020
0000
0031
0010
0100
0001
,
1000
0000
0001
0101
0000
1100
0000
1001
,
0200
0000
2300
0000
3001
0010
1000
0010
,
0001
0000
0010
0100
1000
0001
1000
0000
,
0020
0000
0230
0000
0301
1000
0010
0100
,
0001
0000
1000
1010
0000
0101
0000
1001
,
0001
0000
0000
0000
1000
0000
0000
0010
0000
0000
0100
0000
0001
0000
0000
0000
,
1000
0000
0000
0000
0001
0000
0000
0010
0000
0000
0100
0000
1000
0000
0000
0000
,
0010
0000
0000
0000
0001
0000
0000
0010
0000
0000
1000
0000
0100
0000
0010
0000
,
0001
0100
1000
0200
0000
0302
0000
1003
,
0100
0000
0000
0000
0010
0000
0000
0001
0000
0000
0010
0000
0100
0000
0000
0000
,
1000
0000
0000
0000
0010
0000
0000
0100
0000
0000
0001
0000
1000
0000
0000
0000
,
0100
0000
0000
0000
0010
0000
0000
0001
0000
0000
1000
0000
0010
0000
0001
0000
,
0010
1000
0100
0010
0002
0000
2003
0000
,
3001
0000
0010
0000
1000
0000
0000
0100
0000
0000
1000
0000
0010
0000
0000
0000
,
0100
0000
0001
0000
0100
0000
0000
0010
0000
0000
1000
0000
0100
0000
0000
0000
,
0010
0000
0001
0000
1000
0000
0000
0010
0000
0000
0001
0000
0010
0000
1000
0000
,
0100
0000
1000
0000
0001
0000
0000
0010
0000
0000
1000
0000
0010
0000
0002
0000
,
0000
0000
0103
0010
1000
0100
0010
0002
,
0000
0000
0103
0001
0010
0100
1000
1000
,
0001
0001
1000
1000
0001
1000
0001
1000
,
0001
0010
1000
0010
0001
0100
1000
0000
,
0110
0000
0110
0000
0001
0100
0010
0001
,
0010
1000
1001
0000
0100
0010
0100
0000
,
1001
0000
1001
0000
0010
0100
0001
0000
,
1000
0010
1000
0100
0010
0001
1000
0000
,
0011
0000
0011
0000
1000
0100
0010
0001
,
0100
0000
0010
1100
0000
0101
0000
0001
,
1010
0000
1010
0000
0001
1000
0010
0000
,
0100
0000
0001
0000
1000
0000
0100
0000
0010
0000
0001
1000
0001
1000
0001
1000
,
0200
0000
0320
0000
1030
0010
0100
1000
,
0001
0000
1001
0100
0010
1000
0001
0000
,
2000
0000
3200
0000
0301
0100
0010
0001
,
1000
0010
0100
0000
0001
0010
0100
1000
,
0020
0000
2030
0000
3001
0010
1000
0010
,
0001
0000
0010
0100
1000
0001
1000
0000
,
0020
0000
0230
0000
0301
1000
0010
0100
,
1000
0000
0100
0000
1000
0000
0000
0100
1000
0000
0100
0000
0010
0000
0001
0000
,
0100
0000
1000
0000
0100
0000
0000
0001
0100
0000
0001
0000
1000
0000
0100
0000
,
2002
0000
0000
3003
,
0010
0000
0001
0000
0100
0000
0001
0100
0001
0000
1000
0000
0100
0000
1000
0000
,
0100
0000
0010
0000
0001
0000
0010
0001
0010
0000
0100
0000
0010
0000
0100
0000
,
1000
0100
0000
0010
0001
0010
0000
0001
,
0010
0100
1000
0100
0001
0000
0000
0000
,
0100
0000
0010
0000
0100
0000
1000
0100
1000
0000
0100
0000
0010
0000
0001
0000
,
0010
0000
0100
0000
0001
0000
0100
0001
0100
0000
0001
0000
0100
0000
1000
0000
,
0100
0010
0000
0001
0100
0001
0000
0010
,
1000
0100
0010
1000
0020
0000
0000
0000
,
0000
0000
2030
0000
0000
3020
0000
0000
,
0000
0032
0000
0000
0023
0000
0000
0000
,
0000
0000
0032
0000
0000
1000
0000
0000
,
0203
0000
0000
0000
0000
1300
0000
0000
,
0200
0000
0010
0000
0000
0001
0300
2000
,
0000
0010
0000
0000
3002
0000
0000
0000
,
0010
0000
0203
0000
0000
1000
0000
0301
,
0000
0100
1100
0000
1000
0100
1000
0000
,
1001
0000
0100
1001
0000
0010
0000
0010
,
1001
0000
0010
0001
1000
0100
0001
0100
,
1000
0000
0100
1100
0000
0100
0010
0001
,
1000
0100
0010
0100
0010
0001
0100
1000
,
0100
0010
0100
0010
0001
1000
0100
0010
,
1000
0100
0010
0001
0010
0001
0010
1000
,
0010
0100
1000
0010
0100
1000
0100
0001
,
0100
0010
0100
0001
0010
0100
1000
0000
,
1010
0010
1000
0001
0010
0100
0001
0100
,
0010
0001
0100
0010
1000
0100
1000
0000
,
0011
0010
0001
1000
0010
0100
1000
0100
,
0010
1000
0100
0010
0001
0100
0001
0000
,
1001
0100
0001
0100
1000
0100
0001
0100
,
0010
0100
0001
1000
0100
0010
0100
0010
,
0001
1000
0010
0001
0010
0100
1000
0100
,
0001
0100
0001
0010
1000
0010
0001
0000
,
1000
0000
0100
1000
0010
0000
0100
0001
,
1000
0000
0100
0010
0001
0000
1000
0100
,
1000
0101
0000
0000
,
1000
0100
0010
0000
0010
0001
0100
0000
,
0100
0010
1000
0000
1000
0001
0010
0000
,
0010
0100
1000
0000
1000
0010
0100
0000
,
0100
0001
0010
0000
0010
0100
0010
0000
,
0100
1000
0001
0000
0100
0010
1000
0000
,
0100
0010
0001
0000
0100
0010
1000
0000
,
0100
0010
0001
0000
1000
0100
0010
0000
,
0001
0100
0010
0000
1000
0100
0001
0000
,
0100
0000
1000
0100
1000
0000
0000
0000
,
0001
0100
0001
0010
0100
1000
0000
1000
,
0010
0100
0001
0010
0100
0010
0100
1000
,
0010
0100
0001
0010
0100
1000
0000
1000
,
0100
0010
0001
0100
0010
0100
0001
0010
,
0100
1000
0100
0010
0001
0100
0000
0100
,
0010
1000
0100
0010
0001
0100
0010
0100
,
0001
1000
0100
0010
0001
1000
0000
1000
,
0100
0010
0001
0100
,
1001
0000
0100
0010
0000
0010
0001
0000
,
0001
0100
0010
1000
,
0100
0000
0100
1000
0100
1000
0001
0000
,
1000
0010
0100
0001
,
1001
0000
0010
0100
0000
0001
1000
0000
,
0100
0010
0001
1000
,
1000
0000
0100
0000
0000
0001
0000
0000
1000
0000
0100
0000
0000
0010
0000
0000
,
1000
0000
0001
0000
0000
0010
0000
0000
0100
0000
0000
0000
0000
0000
0000
0000
,
1100
0000
0110
0000
0001
0010
0001
0000
,
0101
0000
0110
0000
1000
0010
1000
0000
,
0100
0010
0001
0000
0100
0010
1000
0000
,
0100
0010
0001
0100
0010
0010
0010
0000
,
1001
1100
1100
0101
,
0101
0110
0110
1001
,
1001
0101
1100
1001
,
0100
0000
0000
0000
,
1000
0100
0010
0001
0100
0001
0100
0010
,
1000
0100
0010
0100
1000
0001
0000
0001
,
1000
0010
0100
0001
0010
0100
1000
0010
,
0100
0001
0010
0100
1000
0010
0000
0010
,
0100
0001
0010
0100
1000
0010
0100
0001
,
0010
0100
1000
0010
0100
0010
0000
0010
,
0100
0001
0010
0100
1000
0010
0100
0001
,
0010
0100
1000
0010
0100
0001
0000
0001
,
0010
0100
0010
0000
1001
0000
0000
0000
,
0001
0100
0001
0010
0100
1000
0000
1000
,
0010
0100
0001
0010
0100
0010
0100
1000
,
0010
0100
0001
0010
0100
1000
0000
1000
,
0100
0010
0001
0100
0010
0100
0001
0010
,
0100
1000
0100
0010
0001
0100
0000
0100
,
0010
1000
0100
0010
0001
0100
0010
0100
,
0001
0010
0100
1000
0001
0100
0000
0100
,
0001
1000
0100
0010
0000
1001
0000
0000
,
0100
0100
0100
0010
0010
0010
0000
0000
,
0001
1000
0010
0100
0000
1001
0000
0000
,
0100
0100
0100
0100
0010
0010
0000
0000
,
0001
0100
0010
1000
0000
1100
0000
0000
,
0001
0100
0100
0100
0100
0100
0000
0000
,
0010
1000
0100
0010
0000
0101
0000
0000
,
0100
0100
0100
0100
0100
0100
0000
0000
,
1000
0100
0001
0000
1001
0000
1001
0000
,
0010
1000
0010
0100
0000
1001
0000
0000
,
0100
0010
0100
1000
0000
1001
0000
0000
,
1000
0100
0010
0001
0000
1100
0000
0000
,
0001
0100
0001
0010
0000
0110
0000
0000
,
1000
0001
0100
0010
0000
1001
0000
0000
,
0100
0010
0001
0100
0000
0110
0000
0000
,
1000
0100
0010
0001
0000
0101
0000
0000
,
0010
1000
0100
0010
0000
0011
0000
0000
,
0012
0000
0000
0000
0000
0000
0003
0100
,
2100
0000
0000
0000
0000
0010
3000
0010
,
0110
0000
0000
0000
1000
0100
1100
0000
,
0100
1000
0000
0010
0000
0000
0000
0010
0000
0000
1000
0000
0100
0010
0000
0000
,
0012
0000
0003
0000
0001
0010
1000
0000
,
0010
0000
0001
0000
0010
0100
1000
0100
,
0010
0000
1001
0000
0001
0010
0011
0000
,
0100
0001
0000
0100
0000
0000
0000
0100
0000
0000
0001
0000
0010
0100
0000
0000
,
2100
3000
0010
1001
,
0010
0000
1000
0000
1000
0100
0010
0001
,
1000
0100
0010
0001
1001
0000
0000
0000
,
0100
1000
0000
0100
0000
0000
0000
0100
0000
0000
0001
0000
0010
0100
0000
0000
,
0202
0000
0303
0000
1000
0010
0001
0000
,
0010
0000
1000
0000
0100
0010
0001
0010
,
0100
1000
1100
0000
,
0010
0001
0000
0100
0000
0000
0000
0010
0000
0000
0001
0000
0100
0010
0000
0000
,
2020
0000
3030
0000
0000
0010
0020
0000
,
0000
0100
0230
0000
1000
0000
0301
0000
,
0010
1000
0100
0010
0110
0000
0000
0000
,
1010
0000
0100
0000
,
0101
0000
0000
0001
2000
0000
0000
0000
,
0000
0000
0000
3000
,
0000
0000
0000
0000
1000
0100
1000
0100
,
1000
0000
1100
0000
0001
0010
0001
0010
,
0001
0011
1000
0001
,
1000
0100
0010
0100
0010
1000
0010
0001
,
1000
0010
0100
0010
0100
0001
0010
1000
,
0001
0010
0100
0010
0100
1000
0010
0001
,
1000
0100
0010
0100
0010
0001
0100
1000
,
0001
0010
0100
0010
0100
0001
0010
1000
,
0100
0001
0010
0100
2000
0000
0010
3010
,
0002
0000
0100
0103
1020
0000
1000
1030
,
0201
0000
0001
0301
0100
0000
0000
0000
,
0000
0000
0000
0000
,
1000
0010
0001
0010
1000
0000
0100
0000
,
0100
0010
0001
0000
0100
1000
0001
0000
,
0100
0010
1000
0010
0001
0010
0100
0000
,
1000
0010
0001
0010
0100
0010
0100
0001
,
1000
0100
0001
0100
1000
0000
0001
0000
,
0100
0010
0001
0000
0010
0001
1000
0000
,
1000
0000
1100
0000
0110
0100
0101
0000
,
0001
0000
0100
0000
0010
0000
1000
0000
0001
1000
0001
1000
0001
1000
0001
1000
,
0001
0000
1000
0100
0001
0000
0100
0000
,
0010
0100
0001
0000
0100
0001
1000
0000
,
0010
0100
0001
0100
1000
0100
0010
0000
,
0001
0100
1000
0100
0010
0100
0010
1000
,
0001
0010
0100
0010
0001
0000
1000
0000
,
0100
0010
1000
0000
0100
0001
1000
0000
,
0001
0000
0101
0000
0110
0100
1100
0000
,
1000
0000
0010
0000
0100
0000
0001
0000
1000
0001
1000
0001
1000
0001
1000
0001
,
1000
0000
0001
0000
,
0100
0000
0000
0000
0010
0000
0000
1000
,
0001
0000
0000
0000
;

//---------------dance-double - ----------------
#NOTES:
     dance-double:
     :
     Beginner:
     1:
     :
00000000
00000000
00000000
00000000
,
00000000
00000000
00000000
00000000
,
00000000
00000000
00000000
00000000
,
00000000
00000000
00000000
00000000
,
00000000
00000000
00000000
00000000
,
01000000
00000000
00100000
00000000
,
01000000
00000000
00010000
00000000
,
10000000
00000000
00010000
00000000
,
00100000
00000000
00001000
00000000
,
00001000
00000000
00000100
00000000
,
00000001
00000000
00000010
00000000
,
00001000
00000000
00010000
00000000
,
01000000
00000000
10000000
00000000
,
00000000
00100000
00000000
00001000
,
00000000
00010000
00000000
00000100
,
00000000
00001000
00000000
00000001
,
00000000
00000000
00000000
00000001
,
00000000
00000100
00000000
00000001
,
00000000
00000000
00000000
00000000
,
00000100
00000000
00010000
00000000
,
00001000
00000000
00000000
00000000
,
00100000
00000000
10000000
00000000
,
00100000
00000000
00000000
00000000
,
01000000
00000000
00100000
00000000
,
00001000
00000000
00010000
00000000
,
00000100
00000000
00000100
00000000
,
00000001
00000000
00001000
00000000
,
00000100
00000000
00000100
00000000
,
00010000
00000000
00001000
00000000
,
00100000
00000000
10000000
00000000
,
00100000
00000000
01000000
00000000
,
00010000
00000000
01000000
00000000
,
00010000
00000000
00001000
00000000
,
00010000
00000000
00000100
00000000
,
00001000
00000000
00000010
00000000
,
00000001
00000000
00000010
00000000
,
00001000
00000000
00010000
00000000
,
00001000
00000000
01000000
00000000
,
00010000
00000000
00100000
00000000
,
10000000
00000000
00100000
00000000
,
00010000
00000000
00001000
00000000
,
00001000
00000000
00000010
00000000
,
00000001
00000000
00000100
00000000
,
00001000
00000000
00010000
00000000
,
00100000
00000000
10000000
00000000
,
00000000
01000000
00000000
00001000
,
00000000
00010000
00000000
00000010
,
00000000
00001000
00000000
00000001
,
00000000
00000000
00000000
00000001
,
00000000
00000010
00000000
00000001
,
00000000
00000000
00000000
00000000
,
00000010
00000000
00010000
00000000
,
00001000
00000000
00000000
00000000
,
01000000
00000000
10000000
00000000
,
01000000
00000000
00000000
00000000
,
00100000
00000000
01000000
00000000
,
00001000
00000000
00010000
00000000
,
00000010
00000000
00000010
00000000
,
00000001
00000000
00001000
00000000
,
00000010
00000000
00000010
00000000
,
00010000
00000000
00001000
00000000
,
01000000
00000000
10000000
00000000
,
01000000
00000000
00100000
00000000
,
00010000
00000000
00100000
00000000
,
10000000
00000000
00100000
00000000
,
00100000
00000000
00010000
00000000
,
00011000
00000000
00000000
00000000
,
00010000
00000000
00010000
00000000
,
00000100
00000000
00000100
00000000
,
00000100
00000000
00001000
00000000
,
00000010
00000000
00000100
00000000
,
00010000
00000000
00010000
00000000
,
10000000
00000000
00010000
00000000
,
10000000
00000000
00100000
00000000
,
00100000
00000000
01000000
00000000
,
01000000
00000000
01000000
00000000
,
00100000
00000000
00010000
00000000
,
00010000
00000000
00000100
00000000
,
00000100
00000000
00000010
00000000
,
00000010
00000000
00000100
00000000
,
00000010
00000000
00000010
00000000
,
00000100
00000000
00010000
00000000
,
10000000
00000000
00010000
00000000
,
10010000
00000000
00000000
00000000
,
01000000
00000000
00001000
00000000
,
00011000
00000000
00000000
00000000
,
00001000
00000000
00000010
00000000
,
00000010
00000000
00000100
00000000
,
00000100
00000000
00001000
00000000
,
00001000
00000000
00010000
00000000
,
00010000
00000000
01000000
00000000
,
00100000
00000000
00100000
00000000
,
00010000
00000000
00010000
00000000
,
00100000
00000000
00100000
00000000
,
00010000
00000000
00010000
00000000
,
00100000
00000000
01000000
00000000
,
01000000
00000000
00010000
00000000
,
00010000
00000000
00001000
00000000
,
00001000
00000000
00000100
00000000
,
10000000
00000000
10000000
00000000
,
10000000
00000000
10000000
00000000
,
00010000
00000000
00000000
00000000
,
10000000
00000000
10000000
00000000
,
00010000
00000000
00010000
00000000
,
10000000
00000000
00010000
00000000
,
00010000
00000000
00000100
00000000
,
00000001
00000000
00000001
00000000
,
00001000
00000000
00001000
00000000
,
00000001
00000000
00001000
00000000
,
00001000
00000000
01000000
00000000
,
00100000
00000000
10010000
00000000
,
00100000
00000000
00010000
00000000
,
00100000
00000000
10000000
00000000
,
00010000
00000000
00000100
00000000
,
00000010
00000000
00001001
00000000
,
00000010
00000000
00001000
00000000
,
00000010
00000000
00000001
00000000
,
00001000
00000000
00010000
00000000
,
00011000
00000000
00011000
00000000
,
00010000
00000000
00010000
00000000
,
00011000
00000000
00011000
00000000
,
00001000
00000000
00001000
00000000
,
00011000
00000000
00011000
00000000
,
00010000
00000000
00010000
00000000
,
00011000
00000000
00011000
00000000
,
00001000
00000000
00000100
00000000
,
00000001
00000000
00000100
00000000
,
00001001
00000000
00001000
00000000
,
00001001
00000000
00001000
00000000
,
00001001
00000000
00001000
00000000
,
00000100
00000000
00010000
00000000
,
10010000
00000000
10000000
00000000
,
10010000
00000000
10000000
00000000
,
10010000
00000000
10000000
00000000
,
00010000
00000000
00000000
00000000
,
00100000
00000000
00100000
00000000
,
00100000
00000000
01000000
00000000
,
01000000
00000000
01000000
00000000
,
01000000
00000000
00100000
00000000
,
01000000
00000000
00001000
00000000
,
00001000
00000000
01000000
00000000
,
01000000
00000000
00000000
00000000
,
00010000
00000000
01000000
00000000
,
00100000
00000000
10000000
00000000
,
00100000
00000000
00010000
00000000
,
10000000
00000000
00010000
00000000
,
00000100
00000000
00000010
00000000
,
00001000
00000000
00001000
00000000
,
00001000
00000000
00001000
00000000
,
00000100
00000000
00000010
00000000
,
00000100
00000000
00000010
00000000
,
00000110
00000000
00010000
00000000
,
00100000
00000000
10000000
00000000
,
01100000
00000000
00001000
00000000
,
00000010
00000000
00000001
00000000
,
00000110
00000000
00010000
00000000
,
00100000
00000000
10000000
00000000
,
01100000
00000000
00001000
00000000
,
00000010
00000000
00000001
00000000
,
00000001
00000000
00000001
00000000
,
00000001
00000000
00001000
00000000
,
00000001
00000000
00010000
00000000
,
00100000
00000000
00100000
00000000
,
00100000
00000000
00100000
00000000
,
10000000
00000000
00010000
00000000
,
00001000
00000000
00010000
00000000
,
10000000
00000000
00010000
00000000
,
00100000
00000000
10000000
00000000
,
00011000
00000000
00000000
00000000
,
10010000
00000000
00000000
00000000
,
00000000
00000000
00000000
10000000
,
00000000
00100000
00000000
01000000
,
00000000
00010000
00000000
00000000
,
00001000
00000000
00010000
00000000
,
00000100
00000000
00000000
00010000
,
00000000
00000100
00000000
00001000
,
00000000
00000000
00000000
00000000
,
00000000
00010000
00000000
00010000
,
00000000
00010000
00000000
00001000
,
00000000
00000100
00000000
00000010
,
00000000
00000001
00000000
00000000
,
00000000
00001000
00000000
00001000
,
00000000
00000000
00000000
00000100
,
00000000
00001000
00000000
00010000
,
00000000
00100000
00000000
00011000
,
00000000
00011000
00000000
00010000
,
00000000
00010000
00000000
00000000
,
00010000
00000000
00010000
00000000
,
00000000
00000000
10010000
00000000
,
00000000
00000000
00000000
00000000
,
00000000
00000000
00010000
00000000
,
00001000
00000000
00010000
00000000
,
01000000
00000000
00000000
00000000
,
00011000
00000000
00000000
00000000
,
00011000
00000000
00001000
00000000
,
00000100
00000000
00000010
00000000
,
00001001
00000000
00000010
00000000
,
00000100
00000000
00001000
00000000
,
00011000
00000000
00100000
00000000
,
00010000
00000000
00001000
00000000
,
00001000
00000000
00011000
00000000
,
00000000
00000000
00000000
00000000
,
00000010
00000000
00001000
00000000
,
00000100
00000000
00000001
00000000
,
00000100
00000000
00000010
00000000
,
00001000
00000000
00001001
00000000
,
00000000
00000000
00000001
00000000
,
00000010
00000000
00001000
00000000
,
00010000
00000000
00001000
00000000
,
00010000
00000000
01000000
00000000
,
00000000
00000000
00010000
00000000
,
00001000
00000000
00001000
00000000
,
00100000
00000000
01000000
00000000
,
00100000
00000000
01100000
00000000
,
00000000
00000000
10000000
00000000
,
01000000
00000000
00010000
00000000
,
00001000
00000000
00010000
00000000
,
00001000
00000000
00000010
00000000
,
00001000
00000000
00000000
00000000
,
00010000
00000000
00000000
00000000
,
00011000
00000000
00000000
00000000
;

//---------------dance-double - ----------------
#NOTES:
     dance-double:
     :
     Easy:
     4:
     :
00000000
00000000
00000000
00000000
,
00000000
00000000
00000000
00000000
,
00000000
00000000
00000000
00000000
,
00000000
00000000
00000000
00000000
,
00000000
00000000
00000000
00000000
,
01000000
00000000
00100000
00000000
,
01000000
00000000
00010000
00000000
,
10000000
00000000
00010000
00000000
,
00100000
00000000
00001000
00010000
,
00001000
00000000
00000100
00000000
,
00000001
00000000
00000010
00000000
,
00001000
00000000
00010000
00000000
,
01000000
00000000
10000000
00000000
,
00000000
00100000
00010000
00001000
,
00000000
00010000
00001000
00000100
,
00000000
00001000
00000100
00000001
,
00002000
00000000
00003000
00000001
,
00000010
00000100
00001000
00000001
,
00000001
00000000
00000000
00000000
,
00000100
00000010
00010000
00001000
,
00001000
00000000
00000000
00000000
,
00100000
00010000
10000000
00100000
,
00100000
00000000
00000000
00000000
,
01000000
00010000
00100000
00001000
,
00001000
00000000
00010000
00001000
,
00000100
00000010
00000100
00000000
,
00000001
00000000
00001000
00000000
,
00000100
00000010
00000100
00000000
,
00010000
00000000
00001000
00000000
,
00100000
00010000
10000000
00000000
,
00100000
00000000
01000000
00000000
,
00010000
10000000
01000000
00000000
,
00010000
00000000
00001000
00000000
,
00010000
00000000
00000100
00000000
,
00001000
00000000
00000010
00000000
,
00000001
00000000
00000010
00000000
,
00001000
00000100
00010000
00001000
,
00001000
00000000
01000000
00000000
,
00010000
00000000
00100000
00000000
,
10000000
00000000
00100000
00000000
,
00010000
01000000
00001000
00010000
,
00001000
00000000
00000010
00000000
,
00000001
00000000
00000100
00000000
,
00001000
00000000
00010000
00000000
,
00100000
00000000
10000000
00000000
,
00000000
01000000
00010000
00001000
,
00000000
00010000
00001000
00000010
,
00000000
00001000
00000010
00000001
,
00002000
00000000
00003000
00000001
,
00000100
00000010
00001000
00000001
,
00000001
00000000
00000000
00000000
,
00000010
00000100
00010000
00001000
,
00001000
00000000
00000000
00000000
,
01000000
00010000
10000000
01000000
,
01000000
00000000
00000000
00000000
,
00100000
00010000
01000000
00001000
,
00001000
00000000
00010000
00001000
,
00000010
00000100
00000010
00000000
,
00000001
00000000
00001000
00000000
,
00000010
00000100
00000010
00000000
,
00010000
00000000
00001000
00000000
,
01000000
00010000
10000000
00000000
,
01000000
00000000
00100000
00000000
,
00010000
10000000
00100000
00000000
,
10000000
01000000
00100000
00010000
,
00100000
01000000
00010000
00001000
,
00022000
00000000
00000000
00033000
,
00010000
00001000
00010000
00001000
,
00000100
00001000
00000100
00001000
,
00000100
00000010
00001000
00000100
,
00000010
00000001
00000100
00001000
,
00010000
00001000
00010000
01000000
,
10000000
00100000
00010000
00100000
,
10000000
01000000
00100000
10000000
,
00100000
00010000
01000000
10000000
,
01000000
00100000
01000000
00010000
,
00100000
01000000
00010000
00001000
,
00010000
00001000
00000100
00001000
,
00000100
00000001
00000010
00001000
,
00000010
00000001
00000100
00000001
,
00000010
00001000
00000010
00000001
,
00000100
00001000
00010000
01000000
,
10000000
01000000
00010000
01000000
,
20020000
00000000
00000000
30030000
,
01000000
00010000
00001000
00010000
,
00022000
00000000
00000000
00033000
,
00001000
00000100
00000010
00000100
,
00000020
00001000
00000100
00001030
,
00000200
00010000
00001000
00010300
,
00002000
01000000
00010000
01003000
,
00020000
10000000
01000000
10030000
,
00100000
01000000
00100000
01000000
,
00010000
10000000
00010000
10000000
,
00100000
10000000
00100000
10000000
,
00010000
00100000
00010000
00100000
,
00200000
00010000
01000000
00310000
,
02000000
00001000
00010000
03001000
,
00020000
00000100
00001000
00030100
,
00002000
00000001
00000100
00003001
,
10000000
00000000
10000000
00000000
,
10000000
00000000
10000000
01000000
,
00010000
00010000
00000000
00000000
,
10000000
10000000
10000000
01000000
,
00010000
00010000
00010000
01000000
,
10000000
01000000
00010000
01000000
,
00010000
00001000
00000100
00000100
,
00000001
00000001
00000001
00000100
,
00001000
00001000
00001000
00000100
,
00000001
00000100
00001000
00000100
,
00001000
00010000
01000000
10000000
,
00100000
10000000
10010000
01000000
,
00100000
00010000
00010000
01000000
,
00100000
10000000
10000000
01000000
,
00010000
00001000
00000100
00000001
,
00000010
00000001
00001001
00000100
,
00000010
00001000
00001000
00000100
,
00000010
00000001
00000001
00000100
,
00001000
00010000
00010000
00010000
,
00010100
00011000
00010100
00011000
,
00010000
01000000
00010000
00001000
,
01001000
00011000
01001000
00011000
,
00001000
00000100
00001000
00010000
,
00010100
00011000
00010100
00011000
,
00010000
01000000
00010000
00001000
,
01001000
00011000
01001000
00011000
,
00001000
00000000
00000100
00000000
,
00000001
00000000
00000100
00000000
,
00001001
00001000
00001000
00000001
,
00001001
00001000
00001000
00000001
,
00001001
00001000
00001000
00000001
,
00000100
00001000
00010000
01000000
,
10010000
10000000
10000000
00010000
,
10010000
10000000
10000000
00010000
,
10010000
10000000
10000000
00010000
,
00010000
00000000
00000000
00000000
,
00100000
10000000
00100000
10000000
,
00100000
10000000
01000000
00010000
,
01000000
00010000
01000000
00010000
,
01000000
00010000
00100000
10000000
,
01000000
00010000
00001000
00000100
,
00001000
00010000
01000000
00010000
,
01000000
10000000
00000000
01000000
00000000
00100000
00000000
01000000
,
00010000
01000000
01000000
01000000
,
00100000
10000000
10000000
01000000
,
00100000
00010000
00010000
01000000
,
10000000
01000000
00010000
00001000
,
00000100
00000100
00000010
00000010
,
00001000
00000100
00001000
00000010
,
00001000
00000100
00001000
00000010
,
00000100
00000001
00000010
00000001
,
00000100
00000001
00000010
00000001
,
00000110
00001000
00010000
01000000
,
00100000
00010000
10000000
00100000
,
01100000
00010000
00001000
00000100
,
00000010
00001000
00000001
00000010
,
00000110
00001000
00010000
01000000
,
00100000
00010000
10000000
00100000
,
01100000
00010000
00001000
00000100
,
00000010
00001000
00000001
00000010
,
00000001
00000100
00000001
00000001
,
00000001
00001000
00001000
00000001
,
00000001
00001000
00010000
01000000
,
00100000
01000000
00100000
01000000
,
00100000
01000000
00100000
01000000
,
10000000
01000000
00010000
00001000
,
00001000
00001000
00010000
01000000
,
10000000
10000000
00010000
00010000
,
00100000
00010000
10000000
10000000
,
00011000
00000000
00000000
00000000
,
10010000
00000000
00000000
00000000
,
00000000
00000000
00000000
10000000
,
00000000
00100000
00000000
01000000
,
00000000
00010000
00000000
00000000
,
00001000
00000000
00010000
00001000
,
00000100
00000000
00000000
00010000
,
00000000
00000100
00000000
00001000
,
00000001
00000000
00000000
00000000
,
00000000
00010000
00000100
00010000
,
00000010
00010000
00000000
00001000
,
00000000
00000100
00000000
00000010
,
00000000
00000001
00000000
00000000
,
00000000
00001000
00000100
00001000
,
00000010
00000000
00000000
00000100
,
00000000
00001000
00000000
00010000
,
00000000
00100000
00000000
00011000
,
00000000
00011000
00000000
00010000
,
00100000
00010000
00100000
00000000
,
00010000
00000000
00010000
00000000
,
00000000
00000000
10010000
00000000
,
00000000
00000000
00000000
00000000
,
00000000
00000000
00010000
00000000
,
00001000
00000000
00010000
00100000
,
01000000
00000000
00000000
00000000
,
00011000
00000000
00000000
00000000
,
00011000
00000000
00001000
00000000
,
00000100
00000000
00000010
00000000
,
00001001
00000000
00000010
00000000
,
00000100
00000000
00001000
00000000
,
00011000
00000000
00100000
01000000
,
00010000
00000000
00001000
00010000
,
00001000
00000000
00011000
00000000
,
00000000
00000000
00000000
00000000
,
00000010
00000000
00001000
00000000
,
00000100
00000010
00000001
00000000
,
00000100
00000000
00000010
00000000
,
00001000
00001000
00001001
00000000
,
00000000
00000000
00000001
00000000
,
00000010
00000100
00001000
00000000
,
00010000
00000000
00001000
00000000
,
00010000
00100000
01000000
10000000
,
00000000
00000000
00010000
00000000
,
00001000
00010000
00001000
00000000
,
00100000
00000000
01000000
00000000
,
00100000
00100000
01100000
00000000
,
00000000
00000000
10000000
00000000
,
01000000
00100000
00010000
00000000
,
00001000
00000000
00010000
00000000
,
00001000
00000100
00000010
00000001
,
00001000
00000000
00000000
00000000
,
00010000
00000000
00000000
00000000
,
00011000
00000000
00000000
00000000
;

//---------------dance-double - ----------------
#NOTES:
     dance-double:
     :
     Medium:
     6:
     :
00000000
00000000
00000000
00000000
,
00000000
00000000
00000000
00000000
,
00000000
00000000
00000000
00000000
,
00000000
00000000
00000000
00000000
,
00000000
00000000
00000000
00000000
,
00000001
00000000
00000100
00000000
00000000
00000001
00000100
00000000
,
00000010
00000000
00001000
00000000
00000000
00000010
00001000
00000000
,
00000100
00000000
00010000
00000000
00000000
00000100
00010000
00000000
,
00001000
00000000
00100000
00000000
00000000
00001000
00100000
00000000
,
00010000
10010000
10000000
10010000
,
01000000
01100000
00100000
01100000
,
01000000
00010000
00100000
00001000
,
00010000
00000000
00000010
00000000
00000100
00000001
00000020
00000000
,
00000000
00000000
00000031
00000000
00001000
00000010
00000200
00000000
,
00000000
00000310
00010000
00001000
,
00010000
00001000
00010000
00001000
00100000
00010000
00100000
00010000
,
10000000
00100000
01000000
01100000
,
00010000
00000000
00100000
00000000
01000000
10000000
00010000
00000000
,
01000000
00001000
00010000
00000000
,
00000100
00000000
00001000
00000000
00000001
00000010
00000100
00000000
,
00001000
00000000
00000000
00000001
00000000
00000000
00000100
00000000
,
00000010
00000000
00010000
00000000
00001000
00100000
00010000
00000000
,
01000000
00000000
00000000
00200000
00000000
00000000
10300000
00000000
,
00010000
00000000
00100000
00000000
01000000
10000000
00100000
00000000
,
00010000
00001000
00010000
00011000
,
00000100
00000100
00001000
00000001
,
00000010
00000000
00000000
00000200
00000000
00000000
00001300
00000000
,
00000010
00000010
00010000
00001000
,
00100000
00000000
00000000
00010000
00000000
10000000
00000000
00100000
,
01000000
01000000
00010000
10000000
,
01000000
00000000
00000000
00020000
00000000
00000000
00031000
00000000
,
00000010
00000010
00000001
00001000
,
00000010
00000000
00000000
00000100
00000000
00000001
00000000
00000010
,
00000100
00001000
00000010
00001000
,
00000001
00000100
00000010
00000000
,
00010000
00001000
00010000
01000000
,
10000000
00000000
00100000
00000000
01000000
00010000
01000000
00000000
,
00001000
00010000
00000100
00001000
,
00000001
00000100
00000010
00000000
,
00001000
00000100
00010000
00001000
,
01000000
00000000
00010000
00100000
00000000
00100000
00010000
00000000
,
00010000
10010000
10000000
10010000
,
00100000
01100000
01000000
01100000
,
00100000
00010000
01000000
00001000
,
00010000
00000000
00000100
00000000
00000010
00000001
00000200
00000000
,
00000000
00000000
00000301
00000000
00001000
00000100
00000020
00000000
,
00000000
00000130
00010000
00001000
,
00010000
00001000
00010000
00001000
01000000
00010000
01000000
00010000
,
10000000
01000000
00100000
01100000
,
00010000
00000000
01000000
00000000
00100000
10000000
00020000
00000000
,
00230000
00301000
00010000
00000000
,
00000010
00000000
00001000
00000000
00000001
00000100
00000010
00000000
,
00001000
00000000
00000000
00000002
00000000
00000000
00000013
00000000
,
00000100
00000000
00010000
00000000
00001000
01000000
00010000
00000000
,
00100000
00000000
00000000
01000000
00000000
10000000
00000000
00010000
,
00010000
00000000
01000000
00000000
00100000
10000000
01000000
00000000
,
00010000
00001000
00010000
00011000
,
00000010
00000010
00001000
00000001
,
00000100
00000000
00000000
00000020
00000000
00000000
00001030
00000000
,
00000100
00000100
00010000
00001000
,
01000000
00100000
10000000
01000000
,
00100000
00100000
00010000
10000000
,
00100000
00000000
00000000
00010000
00000000
00001000
00000000
00000100
,
00000001
00000010
00000100
00010000
,
00010000
00001000
00000100
00000001
00000010
00000001
00000100
00000000
,
00001000
00010000
00001000
00010000
01000000
10000000
01000000
10000000
,
02000000
00000000
00000000
03000000
,
00100000
10000000
00010000
10000000
01000000
00100000
00000000
01000000
,
00100000
00010000
00000000
01000000
00010000
00001000
00000000
00000000
,
00010000
00001000
00000100
00001000
00000100
00000001
00000000
00000010
,
00000001
00000100
00000000
00000100
00000101
00000000
00000000
00000000
,
00001000
00000010
00000100
00001000
00000100
00001000
00000000
00000100
,
00001000
00010000
00000000
00001000
00010000
01000000
00000000
00000000
,
00100000
00010000
10000000
00010000
10000000
01000000
00000000
00100000
,
00010000
10000000
00000000
10000000
11000000
00000000
00000000
00000000
,
00000000
00000000
20000000
00000000
00000000
30010000
00000000
00000000
,
00000000
00001000
00000000
00000000
00000002
00000000
00000000
00000000
,
00000000
00000000
00001003
00000000
00000000
00010000
00000000
00000000
,
20000000
00000000
00000000
00000000
00000000
30200000
00000000
00000000
,
01000000
00000000
01300000
00000000
00000000
00002000
00000000
01000000
,
00000000
01003000
00000000
00000000
00020000
00000000
00000000
00000000
,
00001000
00000000
00031000
00000000
00000000
00011000
00000000
00011000
,
00000000
00001000
00010000
00000000
00010000
00001000
00000100
00000000
,
00000001
00000000
00001000
00000100
00000000
00000010
00000000
00000001
,
00001000
00000000
00000010
00000100
00001000
00000000
00000100
00001000
,
00010000
00000000
00010000
00001000
00000000
00100000
00010000
01000000
,
00010000
10000000
01000000
00000000
10000000
01000000
10000000
00000000
,
00100000
10000000
01000000
00010000
01000000
10000000
01000000
00000000
,
00010000
01000000
00010000
00001000
00010000
00001000
00000100
00000000
,
00000001
00000010
00000001
00000100
00001000
00000100
00000001
00000000
,
00000010
00000001
00000100
00001000
00000100
00000001
00000100
00000000
,
00000100
00001000
00000100
00001000
00000000
00010000
00001000
00010000
,
00000000
00001000
00010000
00001000
00000000
00010000
00011000
00000000
,
00010000
01000000
00010000
01000000
00000000
10000000
01000000
10000000
,
00000000
00100000
01000000
00100000
00000000
01000000
01100000
00000000
,
00010000
00100000
00010000
00100000
00000000
01000000
00100000
01000000
,
00000000
00010000
01000000
00010000
00000000
00010000
00011000
00000000
,
00010000
00001000
00010000
00001000
00000000
00000100
00001000
00000100
,
00000000
00000010
00001000
00000010
00000000
00001000
00001010
00000000
,
00100000
00100000
10000000
01000000
,
00100000
00100000
10000000
01000000
,
00100000
01000000
00000000
00000000
,
01100000
00010000
00010000
10000000
,
01000000
10000000
01000000
10000000
,
01000000
00010000
00001000
00000100
,
00001000
00001000
00000100
00000001
,
00000110
00001000
00001000
00000001
,
00000100
00000001
00000100
00000001
,
00000100
00001000
00010000
01000000
,
01100000
00110000
11000000
10010000
,
00100000
10000000
01000000
01000000
,
00110000
10000000
01000000
01000000
,
00100000
10000000
00100000
10000000
,
01000000
00010000
00001000
00000100
,
00000010
00000001
00000100
00000100
,
00001010
00000001
00000100
00000100
,
00000010
00000001
00000010
00000001
,
00000100
00001000
00010000
00010000
,
00010010
00011000
00101000
00110000
,
00010000
01000000
00010000
00100000
,
00101000
00011000
00010010
00001010
,
00001000
00000100
00001000
00000010
,
00010010
00011000
00101000
00110000
,
00010000
01000000
00010000
00100000
,
01000000
01000000
10000000
00010000
,
10000000
00000000
00000000
10000000
00000000
00000000
10000000
00000000
00010000
00000000
00000000
00010000
00000000
00000000
00010000
00000000
,
01000000
00000000
00000000
01000000
00000000
00000000
01000000
00000000
01000000
00000000
00000000
00000000
00000000
00000000
00000000
00000000
,
01000000
00010000
00001000
00000100
,
00000100
00001000
00010000
01000000
,
01000000
00010000
00001000
00000100
,
00000100
00001000
00010000
01000000
,
00010000
01000000
00010000
00000000
01000000
10000000
01000000
00000000
,
00010000
01000000
00010000
00000000
01000000
10000000
01000000
00000000
,
00010000
01000000
00010000
00000000
01000000
10000000
01000000
00000000
,
01000000
00000000
00000000
00000000
,
00100000
10000000
00010000
10000000
,
01000000
10000000
01000000
00010000
,
00001000
00000100
00000010
00000100
,
00000001
00000001
00000001
00000001
,
00000010
00000001
00001000
00000001
,
00000100
00000001
00000100
00001000
,
00000001
00000001
00000000
00000001
00000000
00000100
00000000
00001000
,
00010000
01000000
10000000
10000000
,
01000000
00010000
10000000
01000000
,
01000000
10000000
00010000
01000000
,
10010000
01000000
10010000
01000000
,
10010000
01000000
10010000
01000000
,
00010000
00001000
00000100
00000100
,
00001000
00010000
01000000
01000000
,
00010000
00001000
00000100
00000100
,
00001000
00010000
01000000
01000000
,
01000000
00010000
00001000
00000100
,
00000101
00001000
00000100
00000001
,
00000100
00001000
00010000
01000000
,
10000000
00010000
00100000
10000000
,
01000000
00010000
00001000
00000100
,
00000010
00000101
00000010
00000001
,
00000100
00001000
00010000
01000000
,
00100000
00100000
10000000
00010000
,
01000000
00100000
01000000
00000000
00100000
00000000
00100000
00000000
,
10000000
01000000
10000000
00000000
10000000
00000000
00010000
00000000
,
10000000
01000000
00010000
00000000
00001000
00000000
00000100
00000000
,
00000001
00000010
00000100
00000000
00000010
00000000
00000001
00000000
,
00000100
00001000
00010000
00000000
00101000
00000000
00011000
00000000
,
00010000
00001000
00010000
00000000
01000000
00000000
10000000
00000000
,
00010000
01000000
10000000
00000000
00100000
00000000
00100000
00000000
,
00100000
10000000
00010000
00000000
01000000
00000000
01000000
00000000
,
10000000
01000000
00010000
00000000
00001000
00000000
00000100
00000000
,
00020000
00000000
00000000
00000000
00000000
00000000
00030000
00001000
,
00020000
00000000
00000000
00030000
,
00000000
00000000
00001000
00001000
,
00010000
00100000
10000000
01000000
,
01100000
00000000
00100000
00001000
,
00010000
00001000
00100000
01000000
,
00100000
00010000
00100000
00000000
00000000
00000000
00001000
00000000
,
00010000
01000000
00010000
00001000
,
00011000
00000000
00001000
00000100
,
00000010
00000001
00002000
00000010
,
00003100
00011000
00000000
00001000
,
00000100
00001001
00000001
00000100
,
00001001
00000000
00000010
00000100
,
00001000
00000100
00010000
00001000
,
00010000
00001000
00010000
00000000
00000000
00000000
00001000
00000000
,
00100000
01100000
00010000
00100000
,
01100000
00000000
00010000
00100000
,
01000000
10000000
00110000
11000000
,
00020000
00000000
00002000
00030000
,
00003200
00000000
00000320
00000000
,
00001030
00000000
00011000
00000000
,
00000000
00000000
00000000
00000000
,
00000000
00000000
00000000
00000000
00010000
00001000
00010000
00000000
,
01000000
00000000
00100000
00000000
00001000
00010000
00001000
00000000
,
00100000
01000000
00100000
00010000
,
00100000
00010000
00100000
00001000
,
00000000
00011000
00000100
00000001
,
00000100
00000001
00000100
00001000
,
00010000
00011000
00100000
01000000
,
00100000
01000000
00100000
00010000
,
00001000
00000000
00011000
00000000
02000000
00000000
00000000
03000000
,
00002000
00000000
00000000
00003000
00020000
00000000
00000000
00030000
,
00000000
00000200
00000000
00000300
00000010
00000000
00000000
00000000
,
00000000
00000000
00000000
00000000
,
00000001
00000010
00000001
00000100
,
00000001
00000100
00000001
00001001
,
00001000
00000100
00000010
00000001
,
00001000
00001100
00001010
00001001
,
00001000
00010000
00001000
00100000
,
00010000
00100000
00010000
10010000
,
00100000
00100000
00010000
00010000
,
00001000
00010000
00000000
00000000
00001000
00010000
00001000
00000000
,
00000000
00010000
00001000
00100000
,
00010000
00100000
10000000
10010000
,
10000000
00010000
00001000
00010000
,
00001100
00001010
00001001
00011000
,
00010000
00001000
00010000
01000000
,
00010000
01000000
00010000
00011000
,
00000100
00000100
00100000
00100000
,
01000000
00100000
01000000
00000000
01000000
00100000
10010000
00000000
,
00100000
00000000
00100000
00000000
,
00001000
00000000
00001000
00000000
,
00011000
00000000
00000000
00000000
;

//---------------dance-double - ----------------
#NOTES:
     dance-double:
     :
     Hard:
     8:
     :
00000000
00000000
00000000
00000000
,
00000000
00000000
00000000
00000000
,
00000000
00000000
00000000
00000000
,
00000000
00000000
00000000
00000000
,
00000000
00000000
00000000
00000000
,
00100000
00010000
01000000
00000000
00010000
00000000
00100000
00000000
,
01000000
10000000
00100000
00000000
10000000
00000000
01000000
00000000
,
00010000
00001000
00000100
00000000
00000010
00000000
00001000
00000000
,
00000001
00000010
00001000
00000000
00010000
00022000
00000000
00033000
,
00001000
00000000
00010000
00000000
01000000
00000000
00000000
00100000
00000000
00000000
01000000
00000000
10000000
00000000
00000000
00000000
,
00100000
00000000
10000000
00000000
01000000
00000000
00000000
00100000
00000000
00000000
01000000
00000000
00010000
00000000
00000000
00000000
,
00001000
00000000
00000100
00000000
00000001
00000000
00000000
00000010
00000000
00000000
00000100
00000000
00000010
00000000
00001000
00000000
,
00000010
00000000
00000001
00000000
00000100
00000000
00000000
00001000
00000000
00000000
00010000
00000000
01000000
00000000
20000000
00000000
,
00000000
00000000
30100000
10000000
01000000
00010000
00001000
00000200
,
00000000
00000000
00000310
00000100
00000001
00000010
00001000
00001000
,
00010000
00010000
00001000
00001000
00010000
00001000
00010000
00001000
,
00010000
01000000
10000000
00100000
00010000
00001000
00000010
00000000
,
00000110
00000000
00000110
00000000
00000010
00000001
00000100
00000000
,
00000010
00001000
00000001
00000100
00000020
00000000
00010030
00000000
,
00010010
00000000
00010010
00000000
00001000
00100000
00010000
00000000
,
01000000
00100000
10000000
00010000
00100000
01000000
10000000
00000000
,
10010000
00000000
10010000
00000000
01000000
00010000
00100000
00000000
,
00001000
00010000
00000010
00001000
00000200
00000000
00000301
00000000
,
00000101
00000000
00000101
00000000
00000010
00000001
00001000
00000000
,
00000010
00000000
00000100
00000000
00000001
00000000
00001000
00000000
00000100
00000000
00010000
00000000
00001000
00010000
00001000
00010000
,
00002000
00000000
00203000
00000000
00301000
00100000
00001000
00010000
,
01000000
00000000
10000000
00010000
00000000
00010000
01000000
00000000
,
00002000
00000000
02003000
00000000
03001000
01000000
00010000
00100000
,
00001000
00000000
00010000
00010100
00000000
00001100
00000000
00001001
,
00000200
00000000
00000302
00000000
00000103
00000001
00001000
00000010
,
00010000
00000000
00001000
00100000
00000000
00100000
00010000
00000000
,
20000000
00000000
30200000
00000000
10300000
00100000
01000000
00001000
,
00010000
00000000
00000100
00001100
00000000
00001001
00000000
00000101
,
00000010
00000000
00000000
00000000
00001000
00000000
00000000
00000010
00000000
00000000
00001000
00000000
00000100
00000000
00000000
00000000
,
00000010
00000000
00000000
00000000
00000001
00000000
00000000
00000010
00000000
00000000
00000001
00000000
00000100
00000000
00000000
00000000
,
00001000
00000000
00000000
00000000
00010000
00000000
00000000
01000000
00000000
00000000
10000000
00000000
00100000
00000000
00010000
00000000
,
00001000
00000100
00000001
00000020
00000000
00000230
00000000
00001300
,
00000001
00000000
00000000
00000000
00000100
00000000
00000000
00000001
00000000
00000000
00000100
00000000
00000010
00000000
00000000
00000000
,
00001000
00000000
00000000
00000000
00000100
00000000
00000000
00010000
00000000
00000000
00001000
00000000
01000000
00000000
00000000
00000000
,
00100000
00000000
00000000
00000000
10000000
00000000
00000000
01000000
00000000
00000000
00010000
00000000
00001000
00000000
00000100
00000000
,
00000010
00001000
00000001
00000010
00002000
00000000
00023000
00000000
,
00031000
00000000
00010000
00000000
00100000
00000000
00000000
01000000
00000000
00000000
00100000
00000000
10000000
00000000
00000000
00000000
,
01000000
00000000
10000000
00000000
00100000
00000000
00000000
01000000
00000000
00000000
00100000
00000000
00010000
00000000
00000000
00000000
,
00001000
00000000
00000010
00000000
00000001
00000000
00000000
00000100
00000000
00000000
00000010
00000000
00000100
00000000
00001000
00000000
,
00000100
00000000
00000001
00000000
00000010
00000000
00000000
00001000
00000000
00000000
00010000
00000000
00100000
00000000
20000000
00000000
,
00000000
00000000
31000000
10000000
00100000
00010000
00001000
00000020
,
00000000
00000000
00000130
00000010
00000001
00000100
00001000
00001000
,
00010000
00010000
00001000
00001000
00010000
00001000
00010000
00001000
,
00010000
00100000
10000000
01000000
00010000
00001000
00000100
00000000
,
00000110
00000000
00000000
00000000
00000110
00000000
00000000
00000000
00001000
00000000
00000001
00000000
00000100
00000010
00000100
00000010
,
00000100
00000001
00001000
00000200
00000000
00020300
00000000
00031000
,
00011000
00000000
00011000
00000000
00001000
01000000
00010000
00100000
,
01000000
00000000
10000000
00100000
00000000
00100000
01000000
00000000
,
01100000
00000000
01100000
00000000
10000000
00010000
00100000
01000000
,
10000000
00000000
00100000
00020000
00000000
00032000
00000000
00003100
,
00001100
00000000
00001100
00000000
00000010
00001000
00000001
00000100
,
00000010
00000000
00000000
00000000
00001000
00000000
00000100
00000000
00010000
00000000
00001000
00010000
00001000
00010000
00001000
00010000
,
00002000
00000000
00203000
00000000
00310000
00100000
00001000
01000000
,
00010000
00000000
10000000
00010000
00000000
00010000
01000000
00000000
,
00200000
00000000
02300000
00000000
03010000
01000000
00100000
00010000
,
00001000
00000000
00010000
00000100
00001000
00000001
00000100
00000000
,
00000020
00000000
00002030
00000000
00003100
00010000
00000010
00001000
,
00000100
00000000
00010000
00010100
00000000
00011000
00000000
01001000
,
00020000
00000000
20030000
00000000
30010000
10000000
01000000
00100000
,
00010000
00000000
01000000
00000000
00001000
00000000
00000000
00010000
00001000
00000000
00100000
00000000
00010000
00000000
01000000
00000000
,
00001000
00000000
00010000
00000000
00000010
00000000
00000000
00001000
00000100
00000000
00010000
00000000
00001000
00000000
00010000
00000000
,
00022000
00000000
00000000
00033000
,
00100000
10000000
01000000
00010000
01000000
00010000
00001000
00000100
,
00000001
00000010
00001000
00010000
00100000
01000000
00010000
01000000
,
00001000
00010000
00000000
00001000
00010000
01000000
00000000
01000000
,
00010000
00001000
00000010
00000100
00000001
00000000
00000000
00000000
,
00000010
00000001
00000100
00001000
00000100
00001000
00010000
01000000
,
10000000
00100000
00010000
00001000
00000010
00000100
00001000
00000100
,
00010000
00001000
00000000
00010000
00001000
00000100
00000000
00000100
,
00001000
00010000
00100000
01000000
10000000
00000000
00000000
00000000
,
00000000
00000000
02000000
00000000
00000000
03002000
00000000
00000000
,
00000000
00023000
00000000
00000000
00032000
00000000
00000000
00000000
,
00000000
00000000
00203000
00000000
00000000
00302000
00000000
00000000
,
02003000
00000000
00000000
00000000
00000000
03020000
00000000
00000000
,
10000000
00000000
01030000
00000000
00000000
01001000
00000000
00011000
,
00000000
00010100
00000000
00000000
00020000
00000000
00000000
00000000
,
01000000
00000000
01030000
00000000
00000000
01100000
00000000
10010000
,
00000000
01000000
00010000
00000000
00001000
00000100
00000001
00000000
,
00000100
00000000
00000010
00000001
00000000
00000010
00000000
00001000
,
00000010
00000000
00000001
00000100
00001000
00010000
00001000
00000100
,
00000010
00000000
00010000
00001000
00000000
00100000
00010000
01000000
,
00001000
00010000
00000100
00000010
00000001
00000100
00000010
00001000
,
00000001
00000100
00001000
00010000
00001000
00000100
00001000
00010000
,
00100000
10000000
01000000
00100000
00001000
00010000
00100000
00010000
,
00100000
10000000
01000000
00010000
00001000
00000100
00000001
00000010
,
00001000
00010000
00001000
00000010
00001000
00010000
00100000
00000000
,
00100000
10000000
01000000
00010000
00001000
00000100
00000001
00000010
,
00001000
00000010
00000001
00000100
00001000
00100000
00010000
10000000
,
01000000
00010000
10000000
00100000
00010000
01000000
00001000
00000010
,
00000001
00001000
00000100
00000010
00000001
00000100
00001000
00010000
,
00100000
00010000
00001000
00000010
00001000
00010000
00100000
10000000
,
01000000
00100000
00010000
01000000
00001000
00100000
00010000
01000000
,
00001000
00100000
00010000
01000000
00001000
00000100
00000001
00000010
,
00001000
00000010
00000001
00001000
00000100
00000010
00000001
00000000
,
01001000
00011000
00010010
00011000
,
00110000
00011000
00001100
00011000
,
01000000
10000000
00000000
00000000
,
00010000
01000000
00010000
01000000
00100000
01000000
00010000
00000000
,
00001000
01000000
00010000
00100000
00001000
00010000
00001000
00000000
,
00000010
00000100
00000001
00000000
00000010
00000100
00001000
00000000
,
00000010
00010000
00001000
00000100
00000010
00010000
00001000
00000000
,
00010000
01000000
10000000
00100000
00010000
00100000
10000000
00000000
,
01000000
10000000
00010000
00100000
01000000
10000000
01000000
00000000
,
00100000
01000000
00010000
00000000
10000000
00100000
00010000
00000000
,
10100000
01010000
10010000
11000000
,
00100000
10000000
01000000
00010000
00001000
00000100
00000010
00000000
,
00010000
00001000
00000100
00000010
00010000
00001000
00000100
00000000
,
00000010
00001000
00000100
00000000
00000010
00000001
00000100
00000000
,
00000010
00001000
00010000
01000000
00010000
01000000
10000000
00000000
,
10000000
01000000
00100000
00010000
10000000
01000000
00010000
00000000
,
00001000
00000100
00000010
00001000
00000001
00000100
00000010
00000000
,
00000100
00000001
00000010
00000000
00001000
00000001
00000100
00000000
,
00001000
00010000
00001000
00010000
01000000
10000000
00100000
00000000
,
01000000
10000000
01000000
10000000
01000000
10000000
01000000
00010000
,
00001000
00000000
00001000
00000100
00000000
00000001
00000100
00000000
,
00000100
00000001
00000100
00000001
00000100
00000001
00000100
00001000
,
00010000
00000000
00010000
01000000
00000000
10000000
01000000
00000000
,
01000000
10000000
01000000
10000000
01000000
10000000
01000000
00010000
,
00001000
00000000
00001000
00000100
00000000
00000001
00000100
00000000
,
00000100
00000001
00000100
00000001
00000100
00000001
00000100
00000000
,
00001000
00010000
01000000
10000000
,
00100000
01000000
01000000
00000000
,
10000000
00010000
10000000
00010000
10000000
01000000
10000000
01000000
,
00010000
00001000
00000100
00000001
00000100
00001000
00000100
00000000
,
00000001
00001000
00000001
00001000
00000001
00000100
00000001
00000100
,
00001000
00010000
01000000
10000000
01000000
00010000
01000000
00000000
,
10000000
00010000
10000000
00010000
10000000
01000000
10000000
01000000
,
00010000
00001000
00000100
00000001
00000100
00001000
00000100
00000000
,
00001000
00000001
00000010
00000100
,
00000100
00000000
00000000
00000000
,
00000010
00000100
00001000
00000010
00000100
00000001
00001000
00000100
,
00000010
00000001
00000100
00000010
00001000
00000100
00000010
00000100
,
00000010
00000100
00000001
00000000
00000010
00000100
00001000
00000000
,
00000110
00001000
00010000
01000000
,
00100000
01000000
10000000
00100000
01000000
00010000
10000000
01000000
,
00100000
01000000
10000000
00000000
00100000
01000000
00100000
01000000
,
00010000
10000000
00000000
00110000
00000000
11000000
00000000
00010000
,
00001000
00000100
00000001
00000001
,
00001000
00000001
00000100
00001000
00010000
00000100
00001000
00000001
,
00000010
00000001
00001000
00000010
00001000
00000100
00001000
00000000
,
00000010
00010000
00001000
00000100
00000010
00001000
00000100
00000010
,
00001000
00010000
01000000
00010000
00001000
01000000
00010000
00000000
,
10000000
00100000
01000000
00010000
00100000
00001000
00010000
00001000
,
01000000
00010000
00100000
01000000
00010000
00001000
00000100
00000000
,
00000010
00001000
00000010
00000100
00000001
00000100
00000010
00001000
,
00000010
00000001
00000010
00001000
00000100
00000001
00000100
00000000
,
00000001
00000100
00000001
00000100
00000000
00001000
00000100
00000000
,
00000010
00000001
00001000
00000010
00000100
00000001
00001000
00000000
,
00000001
00000100
00000001
00000100
00000000
00001000
00000100
00000000
,
00000100
00010000
00001000
00010000
01000000
10000000
01000000
00000000
,
10000000
01000000
10000000
01000000
00000000
00010000
01000000
00000000
,
10000000
00010000
01000000
00100000
10000000
01000000
00010000
00000000
,
10000000
01000000
10000000
01000000
00000000
00010000
01000000
00000000
,
01000000
00001000
00010000
00001000
00000100
00000001
00000100
00000000
,
00000001
00001000
00000100
00000000
00000011
00000000
00001100
00000000
,
00000010
00001000
00000100
00000010
00000001
00000100
00000010
00001000
,
00000001
00000100
00001000
00010000
01000000
10000000
00100000
00000000
,
00010000
01000000
10000000
01000000
00010000
10000000
01000000
00100000
,
00010000
10000000
01000000
00010000
01000000
00100000
00010000
00000000
,
10000000
01000000
00010000
00001000
00000100
00000010
00000001
00000010
,
00000001
00000010
00001000
00000100
00000010
00000001
00000100
00000000
,
00001000
00000001
00000100
00000001
00001000
00000100
00001000
00000010
,
00001000
00000001
00000100
00001000
00010000
01000000
00100000
00000000
,
00021000
00000000
00000000
00000000
00000000
00000000
00030000
00001000
,
00000120
00000000
00000000
00000000
00000000
00000100
00000030
00000100
,
00000110
00000000
00000000
00000000
00001000
00000100
00001100
00000000
,
00000010
00000001
00000000
00000100
00000000
00000000
00000000
00000100
00000000
00000000
00000001
00000000
00000010
00000100
00000000
00000000
,
00021000
00000000
00030000
00000000
00001000
00010000
00001000
00000000
,
00000100
00000000
00000010
00000000
00001000
00010000
00100000
00010000
,
00001000
00000000
00011000
00000000
00001000
00000100
00001100
00000000
,
00001000
00010000
00000000
00001000
00000000
00000000
00000000
00001000
00000000
00000000
00010000
00000000
00100000
01000000
00000000
00000000
,
21000000
30000000
00100000
10010000
,
00100000
00000000
10000000
00000000
10000000
01000000
00100000
00010000
,
00001000
00000100
00000010
00000001
00001001
00000000
00000000
00000000
,
00000010
00000001
00000000
00000010
00000000
00000000
00000000
00000100
00000000
00000000
00001000
00000000
00000100
00000010
00000000
00000000
,
00002020
00000000
00003030
00000000
00001000
00000010
00000001
00000000
,
00000100
00000000
00010000
00000000
00001000
00010000
00100000
00010000
,
00001000
00000100
00001100
00000000
,
00001000
00010000
00000000
00001000
00000000
00000000
00000000
00100000
00000000
00000000
00010000
00000000
01000000
00100000
00000000
00000000
,
20200000
00000000
30300000
00000000
00000000
00100000
00200000
00000000
,
00000000
01000000
02300000
00000000
10000000
00000000
03010000
00000000
,
00001000
00010000
00001000
00010000
00011000
00000000
00000000
00000000
,
00001010
00000000
00000001
00000000
,
00001010
00000000
00000000
00010000
00002000
00000000
00000000
00000000
,
00000000
00000000
00000000
00003000
,
00000000
00000000
00000000
00000000
00010000
00001000
00010000
00001000
,
00010000
00000000
00011000
00000000
00001000
00000100
00001000
00000100
,
00001000
00001100
00000001
00001000
,
00000001
00000100
00000010
00000100
00000010
00001000
00000010
00001000
,
00010000
00100000
00010000
00100000
00010000
00100000
00001000
00010000
,
00000100
00001000
00010000
00001000
00010000
00000100
00001000
00010000
,
00001000
01000000
00100000
01000000
00100000
00010000
00001000
00010000
,
00001000
00100000
01000000
00100000
01000000
00010000
00001000
00000100
,
00000010
00000001
00000010
00000100
00002000
00000000
00000010
00003010
,
00020000
00000000
00001000
00031000
00210000
00000000
00010000
00310000
,
12000000
00000000
10000000
13000000
00010000
00000000
00000000
00000000
,
00000000
00000000
00000000
00000000
,
00001000
00010000
00001000
00010000
00000100
00000000
00000010
00000000
,
00000010
00000100
00001000
00000000
00000100
00001000
00000001
00000000
,
00000010
00000100
00001000
00000100
00000010
00000100
00001000
00000000
,
00010000
00001000
00010000
00001000
00100000
00001000
01000000
00010000
,
10000000
01000000
00010000
01000000
10000000
00000000
00010000
00000000
,
01000000
00100000
00010000
00000000
00100000
00010000
00001000
00000000
,
00010000
00000000
00011000
00000000
00001100
00000100
00000101
00000000
,
00001000
00000000
00000010
00000000
00010000
00000000
00001000
00000000
00010000
00001000
00010000
00001000
00010000
00001000
00010000
00001000
,
00010000
00000000
00001000
00000100
00000001
00000000
00000100
00000000
,
00000010
00000100
00000001
00000000
00000100
00000010
00010000
00000000
,
00001000
01000000
00010000
10000000
00010000
01000000
00100000
00000000
,
00010000
00000100
00001000
00000001
00001000
00000100
00010000
00001000
,
00010000
00100000
01000000
00100000
00010000
00000000
00001000
00000000
,
00000100
00000010
00000001
00000000
00000100
00000001
00001000
00000000
,
00000001
00000000
00000101
00000000
00000110
00000100
00001100
00000000
,
00010000
00000000
00001000
00000000
01000000
00000000
00001000
00000000
00010000
00001000
00010000
00001000
00010000
00001000
00010000
00001000
,
00010000
00000000
00001000
00000000
,
01000000
00000000
00000000
00000000
00001000
00000000
00000000
00010000
,
00001000
00000000
00000000
00000000
;
