#TITLE:Power 4 (Global Mix);
#ARTIST:DJ Kale;
#BANNER:Power 4 (Global Mix).png;
#BACKGROUND:Power 4 (Global Mix)-bg.png;
#CDTITLE:./CDTITLES/DanceDanceRevolution UNIVERSE2.png;
#MUSIC:Power 4 (Global Mix).ogg;
#SAMPLESTART:28.805;
#SAMPLELENGTH:15;
#DISPLAYBPM:175;
#BPMS:0=174.97,244=174.863,276=174.97,372=174.984,432=173.913,436=174.97,468=175,496=179.104,500=174.922,624=177.34,628=173.077,629=175.002,872=174.879;

//---------------dance-single - ----------------
#NOTES:
     dance-single:
     :
     Beginner:
     1:
     :
0000
0000
0000
0000
,
0000
0000
0000
0000
,
0000
0000
0000
0000
,
0000
0000
0000
0000
,
0000
0000
0000
0000
,
1000
0000
1000
0000
,
0001
0000
0000
0000
,
0010
0000
0010
0000
,
0100
0000
0000
0000
,
1000
0000
1000
0000
,
0100
0000
0000
0000
,
0001
0000
0001
0000
,
0010
0000
0000
0000
,
0100
0000
1000
0000
,
0010
0000
0000
0000
,
0001
0000
0100
0000
,
1000
0000
0000
0000
,
0010
0000
1000
0000
,
0100
0000
0000
0000
,
1000
0000
0100
0000
,
0001
0000
0000
0000
,
1001
0000
0100
0000
,
0001
0000
0010
0000
,
1000
0000
0001
0000
,
1000
0000
0010
0000
,
0110
0000
0100
0000
,
0010
0000
0100
0000
,
1000
0000
0001
0000
,
0100
0000
0010
0000
,
0110
0000
1000
0000
,
1000
0000
0010
0000
,
1001
0000
0001
0000
,
0001
0000
0010
0000
,
0110
0000
0001
0000
,
0001
0000
0100
0000
,
1001
0000
1000
0000
,
1000
0000
0100
0000
,
0010
0000
0001
0000
,
0100
0000
0000
0000
,
1000
0000
0010
0000
,
0001
0000
0000
0000
,
0100
0000
0001
0000
,
0010
0000
1000
0000
,
0001
0000
0010
0000
,
1000
0000
0000
0000
,
1001
0000
0010
0000
,
1000
0000
0100
0000
,
0001
0000
1000
0000
,
0001
0000
0100
0000
,
0110
0000
0010
0000
,
0100
0000
0010
0000
,
0001
0000
0010
0000
,
1000
0000
0001
0000
,
1000
0000
0010
0000
,
0001
0000
0001
0000
,
0100
0000
0010
0000
,
0100
0000
0010
0000
,
0100
0000
1000
0000
,
0010
0000
0100
0000
,
0001
0000
0100
0000
,
0010
0000
1000
0000
,
0110
0000
1000
0000
,
0001
0000
0100
0000
,
1001
0000
0001
0000
,
0100
0000
0010
0000
,
0110
0000
1000
0000
,
1001
0000
0001
0000
,
0110
0000
1001
0000
,
0110
0000
1001
0000
,
0010
0000
0010
0000
,
0100
0000
0100
0000
,
1000
0000
0001
0000
,
0100
0000
0010
0000
,
0100
0000
0100
0000
,
0010
0000
0010
0000
,
1000
0000
0001
0000
,
0010
0000
0100
0000
,
1000
0000
1000
0000
,
0001
0000
0001
0000
,
0010
0000
0100
0000
,
1000
0000
1000
0000
,
0001
0000
0001
0000
,
1000
0000
1000
0000
,
0010
0000
0100
0000
,
0001
0000
0001
0000
,
1000
0000
0000
0000
,
0001
0000
0000
0000
,
0100
0000
0000
0000
,
0010
0000
0000
0000
,
1000
0000
0100
0000
,
0010
0000
0001
0000
,
1000
0000
1000
0000
,
0001
0000
1000
0000
,
0001
0000
0001
0000
,
0010
0000
0010
0000
,
0100
0000
0100
0000
,
1000
0000
0001
0000
,
0100
0000
0100
0000
,
0010
0000
0010
0000
,
1000
0000
1000
0000
,
0100
0000
0010
0000
,
0001
0000
0001
0000
,
1000
0000
1000
0000
,
0010
0000
0010
0000
,
0100
0000
0010
0000
,
0110
0000
0000
0000
,
1001
0000
0000
0000
,
1000
0000
0001
0000
,
1001
0000
0000
1001
,
0000
0000
0010
0000
,
1000
0000
0010
0000
,
0100
0000
0001
0000
,
0100
0000
0001
0000
,
0010
0000
0010
0000
,
0100
0000
0100
0000
,
1000
0000
0001
0000
,
0001
0000
1000
0000
,
0001
0000
0001
0000
,
0010
0000
0010
0000
,
0100
0000
0100
0000
,
1000
0000
0001
0000
,
0100
0000
0100
0000
,
0010
0000
0010
0000
,
1000
0000
1000
0000
,
0001
0000
0001
0000
,
0001
0000
0010
0000
,
1000
0000
0100
0000
,
1000
0000
0100
0000
,
0001
0000
0010
0000
,
0001
0000
0000
0000
,
0100
0000
0010
0000
,
1000
0000
0000
0000
,
1000
0000
0001
0000
,
1000
0000
1000
0000
,
0001
0000
0000
0100
,
0000
0000
0001
0000
,
0100
0000
0000
0010
,
0000
0000
1000
0000
,
0001
0000
0100
0000
,
0100
0000
1000
0000
,
0010
0000
0001
0000
,
0010
0000
0000
0000
,
0100
0000
0000
0000
,
1000
0000
0000
0000
,
0001
0000
0000
0000
,
0001
0000
0010
0000
,
1000
0000
0100
0000
,
0001
0000
0001
0000
,
0100
0000
1000
0000
,
0001
0000
0010
0000
,
1000
0000
0100
0000
,
0100
0000
0010
0000
,
0010
0000
0100
0000
,
1001
0000
0000
0000
,
0110
0000
0000
0000
,
0100
0000
1000
0000
,
0010
0000
0001
0000
,
0100
0000
0000
0000
,
0100
0000
0001
0000
,
0010
0000
0000
0000
,
1000
0000
0010
0000
,
0001
0000
0000
0000
,
1000
0000
0010
0000
,
0100
0000
0000
0000
,
0001
0000
1000
0000
,
0010
0000
0000
0000
,
0010
0000
1000
0000
,
0100
0000
0000
0000
,
0001
0000
0100
0000
,
1000
0000
0000
0000
,
0001
0000
0100
0000
,
0010
0000
1000
0000
,
0001
0000
1001
0000
,
1000
0000
0100
0000
,
0010
0000
0000
0100
,
0000
0000
1000
0000
,
0100
0000
0000
0000
,
0001
0000
0010
0000
,
0100
0000
0000
0010
,
0000
0000
0001
0000
,
0010
0000
0000
0000
,
0100
0000
0001
0000
,
1000
0000
0000
0000
,
0100
0000
0010
0000
,
1000
0000
0001
0000
,
0010
0000
1000
0000
,
0001
0000
0000
0000
,
0010
0000
0100
0000
,
0001
0000
0000
0000
,
1000
0000
0000
0000
,
0000
0000
0000
0000
,
0010
0000
0100
0000
,
0001
0000
1000
0000
,
0001
0000
0100
0000
,
0010
0000
0000
0000
,
0100
0000
0010
0000
,
1000
0000
0001
0000
,
1000
0000
0010
0000
,
0100
0000
0000
0000
,
0001
0000
1000
0000
,
0100
0000
0100
0000
,
0001
0000
1000
0000
,
0001
0000
0000
0000
,
0000
0000
0000
0000
,
0000
0000
0000
0000
,
0110
0000
1000
0000
,
0010
0000
0000
0000
,
0001
0000
1000
0000
,
0010
0000
0000
0000
,
0100
0000
0001
0000
,
1000
0000
0000
0000
,
1001
0000
0000
0000
,
0100
0000
0010
0000
,
0110
0000
0001
0000
,
0100
0000
0000
0000
,
1000
0000
0001
0000
,
0100
0000
0000
0000
,
0010
0000
1000
0000
,
0001
0000
0000
0000
,
1000
0000
0100
0000
,
0010
0000
0000
0000
,
1001
0000
0000
0000
;

//---------------dance-single - ----------------
#NOTES:
     dance-single:
     :
     Easy:
     4:
     :
0000
0000
0000
0000
,
0000
0000
0000
0000
,
0000
0000
0000
0000
,
0000
0000
0000
0000
,
0000
0000
0000
0000
,
1000
0000
1000
0000
,
0002
0000
0000
0003
,
0010
0000
0010
0000
,
0200
0000
0000
0300
,
1000
0000
1000
0000
,
0200
0000
0000
0300
,
0001
0000
0001
0000
,
0020
0000
0000
0030
,
0100
0000
1000
0000
,
0010
0000
0000
0000
,
0001
0000
0100
0000
,
1000
0000
0000
0000
,
0010
0000
1000
0000
,
0100
0000
0000
0000
,
1000
0000
0100
0000
,
0001
0000
0000
0000
,
1001
0000
0100
0000
,
0001
0000
0010
0100
,
1000
0000
0001
0000
,
1000
0000
0010
0000
,
0110
0000
0100
0001
,
0010
0000
0100
0000
,
1000
0000
0001
0000
,
0100
0000
0010
0000
,
0110
0000
1000
0100
,
1000
0000
0010
0000
,
1001
0000
0001
0100
,
0001
0000
0010
0000
,
0110
0000
0001
0010
,
0001
0000
0100
0000
,
1001
0000
1000
0010
,
1000
0000
0100
0000
,
0010
0000
0001
0000
,
0200
0000
0000
0300
,
1000
0000
0010
0000
,
0002
0000
0000
0003
,
0100
0000
0001
0000
,
0010
1000
1000
0000
,
0001
0000
0010
0000
,
2000
0000
0000
3000
,
1001
0000
0010
0000
,
1000
0000
0100
0010
,
0001
0000
1000
0000
,
0001
0000
0100
0000
,
0110
0000
0010
1000
,
0100
0000
0010
0000
,
0001
0000
0010
0001
,
1000
0000
0001
0000
,
1000
0000
0010
0000
,
0001
0100
0001
0000
,
0100
0000
0010
0000
,
0100
0001
0010
0000
,
0100
0000
1000
0000
,
0010
0000
0100
0000
,
0001
0000
0100
0000
,
0010
0000
1000
0000
,
0110
0000
1000
0000
,
0001
0010
0100
0000
,
1001
0000
0001
0000
,
0100
0100
0010
0000
,
0110
0000
1000
0000
,
1001
0000
0001
0000
,
0110
0000
1001
0000
,
0110
0000
1001
0000
,
0010
0010
0010
0000
,
0100
0000
0100
0000
,
1000
1000
0001
0001
,
0200
0300
0020
0030
,
0100
0100
0100
0000
,
0010
0000
0010
0000
,
1000
1000
0001
0001
,
0020
0030
0200
0300
,
1000
0000
1000
0000
,
0001
0000
0001
0000
,
0010
0000
0100
0000
,
1000
0001
1000
0000
,
0001
0000
0001
0000
,
1000
0000
1000
0000
,
0010
0000
0100
0000
,
0001
1000
0001
0000
,
2000
0000
3000
0000
,
0002
0000
0003
0000
,
0200
0000
0300
0000
,
0020
0000
0030
0000
,
1000
0000
0100
0000
,
0010
0000
0001
0000
,
1000
0001
1000
0000
,
0001
0000
1000
0000
,
0001
0000
0001
0000
,
0010
0000
0010
0000
,
0100
0000
0100
0000
,
1000
1000
0001
0001
,
0100
0000
0100
0000
,
0010
0000
0010
0000
,
1000
0000
1000
0000
,
0100
0100
0010
0010
,
0001
0000
0001
0000
,
1000
0000
1000
0000
,
0010
0000
0010
0000
,
0100
0100
0010
0010
,
0110
0000
0000
0000
,
1001
0000
0000
0000
,
2000
3000
0002
0003
,
2002
3003
0000
1001
,
1000
0000
0010
0000
,
1000
0000
0010
0000
,
0100
0000
0001
0000
,
0100
0000
0001
0000
,
0010
0000
0010
0000
,
0100
0000
0100
0000
,
1000
0000
0001
1000
,
0001
0000
1000
0000
,
0001
0000
0001
0000
,
0010
0000
0010
0000
,
0100
0000
0100
0000
,
1000
1000
0001
0001
,
0100
0000
0100
0000
,
0010
0000
0010
0000
,
1000
0000
1000
0000
,
0001
1000
0001
1001
,
0001
1000
0010
0010
,
1000
1000
0100
0100
,
1000
0001
0100
0100
,
0001
0001
0010
0010
,
0001
0000
0000
0000
0000
0000
0000
0000
0002
0000
0000
0000
0000
0000
0000
0000
0003
0000
0000
0000
0000
0000
0000
0000
0000
0000
0000
0000
0000
0001
0000
0000
,
0200
0300
0020
0030
,
1000
0000
0000
0000
0000
0000
0000
0000
2000
0000
0000
0000
0000
0000
0000
0000
3000
0000
0000
0000
0000
0000
0000
0000
0000
0000
0000
0000
0000
0001
0000
0000
,
2000
3000
0002
0003
,
1000
0000
0000
0000
0000
0000
0000
0000
0000
0000
0000
0000
0000
0001
0000
0000
1000
0000
0000
0000
0000
0000
0000
0000
1000
0000
0000
0000
0000
0000
0000
0000
,
0001
0001
0000
0100
,
0001
0000
0000
0000
0000
0000
0000
0000
0000
0000
0000
0000
0000
0100
0000
0000
0001
0000
0000
0000
0000
0000
0000
0000
0001
0000
0000
0000
0000
0000
0000
0000
,
0100
0100
0000
0010
,
1000
0000
0000
0000
0000
0000
0000
0000
0000
0000
0000
0000
0000
0001
0000
0000
1000
0000
0000
0000
0000
0000
0000
0000
1000
0000
0000
0000
0000
0000
0000
0000
,
0001
1000
0100
0100
,
0100
0000
0000
0000
0000
0000
0000
0000
0000
0000
0000
0000
0000
0100
0000
0000
2000
0000
0000
0000
0000
0000
0000
0000
3000
0000
0000
0000
0000
0000
0000
0000
,
0010
0100
0001
0001
,
0010
0000
0000
0000
0000
0000
0000
0000
0000
0000
0000
0000
0000
0100
0000
0000
0000
0000
0000
0000
0000
0100
0000
0000
0000
0000
0000
0000
0000
0000
0000
0000
,
0100
0000
0000
0000
0000
0000
0000
0000
0000
0000
0000
0000
0000
0010
0000
0000
0000
0000
0000
0000
0000
0010
0000
0000
0000
0000
0000
0000
0000
0000
0000
0000
,
1000
0000
0000
0000
0000
0000
0000
0000
0000
0000
0000
0000
0000
0001
0000
0000
0000
0000
0000
0000
0000
0001
0000
0000
0000
0000
0000
0000
0000
0000
0000
0000
,
0001
0000
0000
0000
0000
0000
0000
0000
0000
0000
0000
0000
0000
1000
0000
0000
0000
0000
0000
0000
0000
1000
0000
0000
0000
0000
0000
0000
0000
0000
0000
0000
,
0001
0100
0010
0010
,
1000
0010
0100
0100
,
0001
1000
0001
0001
,
0100
0010
1000
1000
,
0001
0100
0010
0010
,
1000
0000
0000
0000
0000
0000
0000
0000
0001
0000
0000
0000
0000
0000
0000
0000
0100
0000
0000
0000
0000
0000
0000
0000
0100
0000
0000
0000
0000
0001
0000
0000
,
0100
0000
0000
0000
0000
0000
0000
0000
0001
0000
0000
0000
0000
0000
0000
0000
0020
0000
0000
0000
0000
0000
0000
0000
0030
0000
0000
0000
0000
0001
0000
0000
,
0010
0001
0100
0100
,
2020
0000
0030
0000
3000
0001
0000
0000
,
0202
0000
0300
0000
0003
1000
0000
0000
,
0100
1000
1000
0001
,
0010
0001
0001
0100
,
0100
0010
0000
0000
,
0100
0000
0001
0000
,
0010
0100
0000
0000
,
1000
0000
0010
0000
,
0001
0001
0000
0000
,
1000
0000
0010
0000
,
0100
0100
0000
0000
,
0001
0001
1000
0000
,
0010
0100
0000
0000
,
0010
0000
1000
0000
,
0100
0010
0000
0000
,
0001
0000
0100
0000
,
1000
1000
0000
0000
,
0001
0000
0100
0000
,
0010
0000
1000
0000
,
0001
0000
1001
0000
,
1000
0000
0100
0000
,
0010
0001
0000
0100
,
0010
0000
1000
0000
,
0100
0000
0000
0000
,
0001
0000
0010
0000
,
0100
1000
0000
0010
,
0100
0000
0001
0000
,
0020
0000
0000
0030
,
0100
0000
0001
0000
,
1000
1000
0000
0000
,
0100
0000
0010
0000
,
1000
0001
0001
0000
,
0010
0000
1000
0000
,
0001
0001
0000
0000
,
0010
0000
0100
0000
,
0002
0000
0000
0003
,
2000
0000
0000
3000
,
0000
0000
0000
0000
,
0010
0000
0100
0000
,
0001
0000
1000
1000
,
0001
0000
0100
0000
,
0010
0000
0000
0000
,
0100
0000
0010
0000
,
1000
0000
0001
0001
,
1000
0000
0010
0000
,
0100
0000
0000
0000
,
0001
0000
1000
0000
,
0100
0010
0100
0000
,
0001
0000
1000
0000
,
0002
0000
0000
0003
,
0000
0000
0000
0000
,
0000
0000
0000
0000
,
0110
0000
1000
0000
,
0010
0000
0000
0000
,
0001
0000
1000
0000
,
0010
0000
0000
0000
,
0100
0000
0001
0000
,
1000
0000
0000
0000
,
1001
0000
0000
0000
,
0100
0000
0010
0000
,
0110
0000
0001
0000
,
0100
0000
0000
0000
,
1000
0000
0001
0000
,
0100
0000
0000
0000
,
0010
0000
1000
0000
,
0001
0000
0000
0000
,
1000
0000
0100
0000
,
0010
0000
0000
0000
,
1001
0000
0000
0000
;

//---------------dance-single - ----------------
#NOTES:
     dance-single:
     :
     Medium:
     6:
     :
0000
0000
0000
0000
,
0000
0000
0000
0000
,
0000
0000
0000
0000
,
0000
0000
0000
0000
,
0000
0000
0000
0000
,
0101
0000
0000
0101
0000
0000
0000
0000
,
1000
0001
0100
0000
,
1001
0000
0000
1010
0000
0000
0000
0000
,
0001
0000
0010
0000
0100
2000
0000
0000
,
3001
0000
0000
0101
0000
0000
0000
0000
,
1000
0000
0100
0010
0001
0000
1000
0000
,
0011
0000
0000
0101
0000
0000
0100
0000
,
0020
0000
0000
0000
0000
0000
1000
0000
0000
1000
0000
0000
1030
0000
0000
0000
,
0100
0000
0001
0010
0100
0000
1000
0000
,
0020
0000
0000
0230
0000
0000
0301
0000
,
1000
0000
0100
0010
0001
1000
0000
0000
,
1100
0000
0000
0010
0200
0000
0000
0000
,
0301
0000
1000
0000
0010
0100
0001
0000
,
1020
0000
0000
0230
0000
0000
0000
0000
,
0301
0000
0001
0100
1000
0000
1000
0100
,
0001
0010
1100
0000
,
0000
0200
0000
0320
,
0032
0000
0203
0000
,
2300
0000
0100
0000
,
3100
0000
0010
0000
1000
0010
0100
0000
,
0002
0100
0010
1000
,
0203
1000
0001
0010
,
0320
1000
0001
0100
,
0032
1000
0100
0010
,
1003
1000
0001
0000
0010
0000
0100
0000
,
1000
0010
0100
0100
,
0001
0001
0010
0000
0100
0000
1000
0000
,
0002
0013
0200
1300
,
0100
0100
1000
0000
0010
0000
0100
0000
,
0001
0001
0100
0100
,
0010
0010
1000
0000
0010
0000
0100
0000
,
0001
0100
0010
0000
2000
0000
0000
0000
,
3100
0000
0001
0010
0100
0000
1000
0000
,
0020
0000
0000
0230
0000
0000
0301
0000
,
1000
0000
0100
0010
0001
1000
0000
0000
,
1100
0000
0000
0010
0100
0000
0000
0000
,
0001
0000
1000
0000
0010
0100
0001
0000
,
1020
0000
0000
0230
0000
0000
0000
0000
,
0301
0000
0001
0100
1000
0000
1000
0100
,
0001
0010
1100
0000
,
0000
0200
0000
0320
,
0032
0000
0203
0000
,
2300
0000
0100
0000
,
3100
0000
0010
0000
1000
0010
0100
0000
,
0002
0100
0010
1000
,
0203
1000
0001
0010
,
0320
0000
0000
0000
0000
0000
0000
0000
0000
0000
0000
0000
0000
0000
0000
0000
1000
0000
0000
0000
0000
0000
0000
0000
0000
0000
0000
0000
0000
0000
0000
0000
0001
0000
0000
0000
0000
0000
0000
0000
0000
0000
0000
0000
0000
0000
0000
0000
0100
0000
0000
0000
0000
0000
0000
0000
0000
0000
0000
0000
0000
0000
0000
0030
,
1000
0010
0100
0001
,
0010
0001
0010
0000
1000
0000
0010
0000
,
0100
0000
1000
0000
0001
0010
0001
0000
,
0100
0000
0010
0000
1000
0010
1000
0000
,
0100
0000
0010
0000
0001
0100
0001
0000
,
1000
0000
0010
0100
0010
0000
0001
0000
,
0020
0000
2030
0000
,
3200
1000
1000
1000
,
0310
0000
0001
0000
0100
0001
0100
0000
,
1010
0000
0101
0000
0000
0010
0000
0010
,
0001
1000
0100
0000
1000
0001
0010
0000
,
1100
0000
0011
0000
0000
0100
0000
0100
,
0010
1000
0001
0100
1000
0100
0001
0000
,
0011
0000
1100
0000
0000
0100
0000
0001
,
1010
0000
0110
0000
0000
0100
0000
1000
,
1010
0001
0101
1000
,
0110
1001
1100
0021
,
0030
0000
0010
0001
0100
0000
0000
0000
,
0001
0001
1000
1000
,
1100
0001
0101
1000
,
1010
0110
0101
0000
,
1000
0000
0010
1000
0100
0000
0000
0000
,
1000
1000
0001
0001
,
0101
1000
1100
0001
,
0011
0110
1100
0000
,
2000
0000
3000
0010
0100
0000
0001
0000
,
2000
0000
3000
0100
0010
0000
0001
0000
,
1000
0001
0000
0010
0100
0000
1000
0000
,
0010
0100
0010
0000
,
0002
0000
0003
0010
0100
0000
1000
0000
,
0002
0000
0003
0100
0010
0000
1000
0000
,
0001
1000
0000
0010
0100
0000
0001
0000
,
0011
1001
1100
0000
,
0002
0000
2003
0000
,
3200
0000
0320
0000
,
2030
0000
3002
0000
,
0003
0020
0000
0000
0000
0000
0000
0000
0230
0000
0000
0000
0000
0000
0000
0000
,
0302
0000
0023
0000
,
2030
0000
3200
0000
,
0302
0000
2003
0000
,
3002
0000
2003
0000
,
3010
0100
0001
1000
,
1100
0001
0101
1000
,
0200
0310
0002
1003
,
0010
0100
0001
0000
1001
0000
0000
0000
,
0100
0010
1000
0001
,
0011
1000
1010
0001
,
0020
0130
2000
3001
,
0100
0010
1000
0000
1001
0000
0000
0000
,
0010
0100
0010
1000
,
1100
0010
0011
0001
,
0200
0301
2000
3010
,
0100
0001
1000
0000
1001
0000
0000
0000
,
1000
0010
1000
0010
,
0100
0001
0100
0001
,
0010
0100
1000
0001
,
1000
0001
1000
1001
,
2000
0000
3002
0000
,
0023
0000
0230
0000
,
0302
0000
2003
0000
,
3000
0200
0000
0000
0000
0000
0000
0000
0320
0000
0000
0000
0000
0000
0000
0000
,
2030
0000
3200
0000
,
0302
0000
0023
0000
,
2030
0001
3001
0100
,
0100
0010
0010
1001
,
1000
0000
0001
0010
0100
0000
0010
0000
,
0100
0000
0010
0100
2000
0000
0000
0000
,
3001
1000
0001
1000
,
0010
0000
0100
0001
0020
0000
0030
0000
,
0001
0000
1000
0100
0010
0000
0100
0000
,
0010
0000
0100
0010
0002
0000
0000
0000
,
1003
0001
1000
0001
,
0100
0000
0010
1000
0100
0000
1001
0000
,
1000
0000
0000
0000
0000
0000
0000
0000
1002
0000
0000
0000
0000
0000
0000
0000
1003
0000
0000
0000
0000
0000
0000
0000
0000
0000
0000
0000
0000
0001
0000
0000
,
0010
0000
0000
0000
0000
0000
0000
0000
0010
0000
0000
0000
0000
0100
0000
0000
1000
0000
0000
0000
0000
0000
0000
0000
1000
0000
0000
0000
0000
0001
0000
0000
,
0100
0000
0000
0000
0000
0000
0000
0000
0120
0000
0000
0000
0000
0000
0000
0000
0130
0000
0000
0000
0000
0000
0000
0000
0000
0000
0000
0000
0000
1000
0000
0000
,
0001
0000
0000
0000
0000
0000
0000
0000
0001
0000
0000
0000
0000
0010
0000
0000
0100
0000
0000
0000
0000
0000
0000
0000
0100
0000
0000
0000
0000
1000
0000
0000
,
0001
0000
0000
0000
0000
0000
0000
0000
2001
0000
0000
0000
0000
0000
0000
0000
3001
0000
0000
0000
0000
0000
0000
0000
0000
0000
0000
0000
0000
1000
0000
0000
,
0010
0000
0000
0000
0000
0000
0000
0000
0010
0000
0000
0000
0000
1000
0000
0000
0001
0000
0000
0000
0000
0000
0000
0000
0001
0000
0000
0000
0000
1000
0000
0000
,
0001
0000
0000
0000
0000
0000
0000
0000
2001
0000
0000
0000
0000
0000
0000
0000
3001
0000
0000
0000
0000
0000
0000
0000
0000
0000
0000
0000
0000
0001
0000
0000
,
0100
0000
0000
0000
0000
0000
0000
0000
0100
0000
0000
0000
0000
0010
0000
0000
1000
0000
0000
0000
0000
0000
0000
0000
1000
0000
0000
0000
0000
0001
0000
0000
,
1000
0000
0000
0000
0000
0000
0000
0000
0010
0000
0000
0000
0000
1000
0000
0000
0001
0000
0000
0000
0000
0000
0000
0000
0001
0000
0000
0000
0000
0010
0000
0000
,
0100
0000
0000
0000
0000
0000
0000
0000
1000
0000
0000
0000
0000
0001
0000
0000
0100
0000
0000
0000
0000
0000
0000
0000
0100
0000
0000
0000
0000
0010
0000
0000
,
0100
0000
0000
0000
0000
0000
0000
0000
0100
0000
0000
0000
0000
0100
0000
0000
0001
0000
0000
0000
0000
0000
0000
0000
0001
0000
0000
0000
0000
1000
0000
0000
,
0001
0000
0000
0000
0000
0000
0000
0000
0001
0000
0000
0000
0000
0001
0000
0000
1000
0000
0000
0000
0000
0000
0000
0000
1000
0000
0000
0000
0000
0010
0000
0000
,
0100
0000
0000
0000
0000
0000
0000
0000
0100
0000
0000
0000
0000
0100
0000
0000
0001
0000
0000
0000
0000
0000
0000
0000
0001
0000
0000
0000
0000
0010
0000
0000
,
0001
0000
0000
0000
0000
0000
0000
0000
0001
0000
0000
0000
0000
0001
0000
0000
1000
0000
0000
0000
0000
0000
0000
0000
1000
0000
0000
0000
0000
0010
0000
0000
,
0100
0000
0000
0000
0000
0000
0000
0000
0100
0000
0000
0000
0000
0100
0000
0000
0001
0000
0000
0000
0000
0000
0000
0000
0001
0000
0000
0000
0000
1000
0000
0000
,
0010
0000
0000
0000
0000
0000
0000
0000
0010
0000
0000
0000
0000
0010
0000
0000
1000
0000
0000
0000
0000
0000
0000
0000
1000
0000
0000
0000
0000
0000
0000
0000
,
0002
0000
0000
0000
0000
0000
0000
0000
0003
0000
0000
0000
0000
1000
0000
0000
0000
0000
0000
0000
0000
1000
0000
0000
0000
0000
0000
0000
0000
0000
0000
0000
,
2000
0000
0000
0000
0000
0000
0000
0000
3000
0000
0000
0000
0000
0001
0000
0000
0000
0000
0000
0000
0000
0001
0000
0000
0000
0000
0000
0000
0000
0000
0000
0000
,
0020
0000
0000
0000
0000
0000
0000
0000
0030
0000
0000
0000
0000
0100
0000
0000
0000
0000
0000
0000
0000
0100
0000
0000
0000
0000
0000
0000
0000
0000
0000
0000
,
0200
0000
0000
0000
0000
0000
0000
0000
0300
0000
0000
0000
0000
0001
0000
0000
0000
0000
0000
0000
0000
0001
0000
0000
0000
0000
0000
0000
0000
0001
0000
0000
,
1000
0000
0000
0000
0000
0000
0000
0000
0100
0000
0000
0000
0000
0000
0000
0000
0010
0000
0000
0000
0000
0000
0000
0000
0010
0000
0000
0000
0000
0001
0000
0000
,
0100
0000
0000
0000
0000
0000
0000
0000
0010
0000
0000
0000
0000
1000
0000
0000
0200
0000
0000
0000
0000
0000
0000
0000
0300
0000
0000
0000
0000
1000
0000
0000
,
0001
0000
0000
0000
0000
0000
0000
0000
0100
0000
0000
0000
0000
0000
0000
0000
0010
0000
0000
0000
0000
0000
0000
0000
0010
0000
0000
0000
0000
1000
0000
0000
,
0100
0000
0000
0000
0000
0000
0000
0000
0010
0000
0000
0000
0000
0001
0000
0000
0200
0000
0000
0000
0000
0000
0000
0000
0300
0000
0000
0000
0000
0001
0000
0000
,
1000
0000
0000
0000
0000
0000
0000
0000
0100
0000
0000
0000
0000
0000
0000
0000
0010
0000
0000
0000
0000
0000
0000
0000
0010
0000
0000
0000
0000
0001
0000
0000
,
0100
0000
0000
0000
0000
0000
0000
0000
0010
0000
0000
0000
0000
1000
0000
0000
0100
0000
0000
0000
0000
0000
0000
0000
0100
0000
0000
0000
0000
1000
0000
0000
,
0001
0000
0000
0000
0000
0000
0000
0000
0100
0000
0000
0000
0000
0000
0000
0000
0010
0000
0000
0000
0000
0000
0000
0000
0010
0000
0000
0000
0000
1000
0000
0000
,
0100
0000
0000
0000
0000
0000
0000
0000
0010
0000
0000
0000
0000
0001
0000
0000
0100
0000
0000
0000
0000
0000
0000
0000
0100
0000
0000
0000
0000
0000
0000
0000
,
2002
0000
0003
0000
3000
0001
1000
0000
,
2002
0000
0003
0000
3000
0001
0100
0000
,
0010
1010
1001
0001
,
0010
0110
1100
1000
,
0100
0000
1000
0010
0100
0000
0001
0000
,
0100
0000
0010
0000
1000
0001
0100
0000
,
0010
0000
0100
0001
1000
0000
0010
0000
,
0100
0000
0000
0001
0000
0000
1000
0000
,
0010
0000
0100
0000
0001
0100
0001
0000
,
0010
0000
0001
0000
1000
0100
1000
0000
,
0010
0000
0100
0000
0001
1000
0001
0000
,
0100
1010
0200
0000
,
0301
1000
0100
0010
,
0001
0100
0010
0000
1000
0000
0001
0000
,
1000
0010
0100
0001
,
0100
1000
0100
0000
0001
0000
0010
0000
,
1000
0010
0100
1000
,
0010
0100
0010
0000
1000
0000
1000
0000
,
0002
0100
1000
0010
,
0103
0000
0100
0000
0100
0001
0010
0000
,
0001
0000
1000
0000
0010
0000
0100
0010
,
1000
0001
0200
0000
,
0310
0000
1000
0000
0100
0000
1000
0001
,
0010
0001
0200
0000
,
0301
0010
0001
0000
1000
0000
0010
1000
,
0010
0100
0002
0000
,
0103
1000
0100
0001
,
0010
0100
1000
0001
0100
0010
0001
0000
,
0010
0000
0100
0001
0010
0000
0100
0000
,
1000
2020
3030
0100
,
0001
0000
0100
1000
0100
0000
0001
0000
,
0010
0022
0033
0100
,
1000
0000
0010
0001
0010
0000
1000
0000
,
0100
1010
0101
0010
,
2000
0100
0001
3020
,
0230
0000
0301
0000
,
1001
0000
0000
0000
,
0000
0000
0000
0000
,
1000
0000
0001
0000
0000
0100
0010
0000
,
0001
0000
1000
0000
0000
0010
0100
0001
,
1000
0000
0001
0000
0100
0000
0010
0100
,
0001
1000
0020
1000
,
0130
0000
0001
0000
0010
0000
0001
1000
,
0100
1000
0020
0100
,
1030
0100
1000
0000
0001
0000
0100
0001
,
0100
0010
2000
0100
,
3010
0001
0010
1000
,
0100
0010
0001
1000
0010
0100
1000
0000
,
0010
0000
0001
0100
0010
0000
1000
0000
,
0010
0000
0100
0000
0001
1000
0010
0000
,
0220
0000
0000
0330
,
0010
0000
0001
0000
1000
0000
0000
0001
,
0100
0000
0010
0000
1000
0010
1000
0000
,
0100
0000
1000
0000
0001
0010
0001
0000
,
0100
0000
0010
0000
1000
0001
1000
0000
,
0010
0101
0020
0000
,
1030
0001
0010
0100
,
1000
0010
0100
0000
0001
0000
1000
0000
,
0001
0100
0010
1000
,
0010
0001
0010
1000
0100
0001
0100
0000
,
1000
0100
0010
0001
,
0100
0010
0100
0000
0001
0000
1000
0100
,
1000
0010
0100
0001
,
1000
0100
1000
0010
0001
0010
1000
0000
,
0001
0010
0100
0000
1000
0100
0001
0000
,
0100
1000
0010
0000
0100
0000
0001
0010
,
1000
0010
0001
0100
,
2000
0000
3200
0000
,
0310
0000
0000
0000
;

//---------------dance-single - ----------------
#NOTES:
     dance-single:
     :
     Hard:
     7:
     :
0000
0000
0000
0000
,
0000
0000
0000
0000
,
0000
0000
0000
0000
,
0000
0000
0000
0000
,
0000
0000
0000
0000
,
0000
0000
0001
0100
1000
0100
0000
2010
,
0000
0000
3100
0010
0000
0001
0000
1000
,
0010
0000
0100
0001
0010
0100
0000
2001
,
0000
0000
3100
0010
0100
1000
0010
0000
,
0100
0000
0001
0010
1000
0010
0000
0002
,
0000
0000
0013
0100
0000
1000
0001
0000
,
0010
0000
0100
1000
0100
0001
0000
0201
,
0000
0000
0000
0000
0000
0000
0010
0000
0000
0010
0000
0000
0310
0000
0000
0000
,
0100
0000
1000
0100
1000
0000
0001
0010
,
0001
0000
0100
0010
0100
0000
0010
0000
,
1000
0000
0201
0000
0000
0320
0000
0000
,
1030
0000
0100
0010
0001
1000
0100
0000
,
0001
0000
1000
0010
1000
0000
0001
0000
,
0100
0000
1000
0100
1000
0000
0001
0000
,
1000
0000
0100
1000
0010
0000
1000
0010
,
0001
0000
1000
0010
1000
0000
0100
0000
,
0020
0000
0000
0130
1000
0000
0010
0000
,
0002
0000
0000
0013
0100
0000
1000
0000
,
0020
0000
0000
0130
0001
0000
0010
0000
,
0200
0000
0000
1300
0010
0100
0001
0010
,
2000
0000
0000
3010
0100
0000
1000
0000
,
0020
0000
0000
0031
0010
0000
1000
0100
,
0002
0000
0000
0103
0010
0000
1000
0000
,
0020
0000
0000
0031
1000
0100
0001
0000
,
0100
0010
1010
0000
0000
1000
0000
0010
,
0100
0010
1000
0001
0100
0010
1000
0000
,
0001
0010
0101
0000
0000
0100
0000
2020
,
0000
0000
3030
0000
0002
0000
0103
0010
,
1000
0010
1001
0000
0000
0011
0000
2100
,
0000
0000
3010
0101
,
0010
0100
0101
0000
0000
0110
0000
1020
,
0000
0000
0130
1000
0100
0001
0010
0000
,
0100
0000
0001
0010
0001
0000
1000
0100
,
1000
0000
0010
0100
0010
0000
0100
0000
,
0001
0000
1020
0000
0000
0230
0000
0000
,
0301
0000
0010
0100
1000
0001
0010
0000
,
1000
0000
0001
0100
0001
0000
1000
0000
,
0010
0000
0001
0010
0001
0000
1000
0000
,
0001
0000
0010
0001
0100
0000
0001
0100
,
1000
0000
0001
0100
0001
0000
0010
0000
,
0200
0000
0000
0301
0010
0000
0100
0000
,
2000
0000
0000
3100
0010
0000
0001
0000
,
0200
0000
0000
0310
1000
0000
0100
0000
,
0020
0000
0000
0031
0100
0010
1000
0100
,
0002
0000
0000
0103
0010
0000
0001
0000
,
0200
0000
0000
1300
0100
0000
0001
0010
,
2000
0000
0000
3010
0100
0000
0001
0000
,
0200
0000
0000
1300
0001
0010
1000
0000
,
0010
0000
0000
0100
1000
1000
0000
0100
,
0000
0010
0000
0001
0000
0100
0020
0000
,
0031
0000
1000
0100
0010
0001
0000
1010
,
0000
0000
0000
0000
0010
0001
0010
0000
,
1000
0000
0100
0001
0100
0000
1000
0000
,
0010
0000
0100
0001
0200
0000
1000
0000
,
0320
0100
1000
0031
,
0010
0000
1000
0010
1000
0000
0100
0000
,
0010
0100
0011
0000
0000
0100
0000
0001
,
1000
0000
0010
0100
0000
0100
0001
0000
,
0001
0100
1100
0000
0000
0010
0000
0100
,
1000
0000
0010
0100
0000
0001
0010
0000
,
0001
1000
0101
0000
0000
0010
0000
0100
,
1000
0010
1100
0000
0000
0100
0000
0010
,
0001
1000
0001
0000
0100
0000
0000
0000
0010
0100
0010
0000
0001
0000
0000
0000
,
0001
0100
0001
0000
1000
0010
1000
0000
0010
0100
0010
0000
0100
0001
0100
0000
,
0010
0100
1000
0010
1000
0000
0001
0000
,
1000
0010
0100
0001
,
1000
0101
0001
1100
,
0001
0100
1000
0010
1000
0000
0000
0000
,
0010
0100
0001
0010
0001
0000
1000
0000
,
0001
0010
0100
1000
,
0001
1100
1000
0101
,
1000
0100
0001
0010
0001
0000
0000
0000
,
1000
0000
0000
0010
0100
0001
0100
1000
,
0100
0000
0000
0001
1000
0000
0100
0010
,
0001
1000
0000
0001
0100
0010
1000
0010
,
0100
0001
1000
0001
,
1000
0001
0000
0100
0010
1000
0010
0001
,
0010
0000
0000
1000
0001
0000
0010
0100
,
1000
0001
0000
1000
0010
0100
0001
0100
,
1010
1001
1100
0000
,
0010
0000
0000
0001
2000
0000
3002
0000
,
0203
0000
0320
0000
,
0130
0000
0000
0001
2000
0000
3200
0000
,
0320
0000
0230
0000
,
1300
0000
1100
0000
,
0001
0000
0101
0000
,
1000
0001
1000
0000
,
0101
0000
1100
0000
,
1000
1000
0001
1000
0001
0001
0100
0010
,
0100
0000
0001
0000
1000
0010
1000
0001
,
1000
0100
0100
1000
,
1000
0001
0010
0000
0001
0000
0000
0000
,
0001
0001
1000
0001
1000
1000
0100
0010
,
0100
0000
1000
0000
0001
0010
0001
1000
,
0001
0100
0100
0001
,
0001
1000
0010
0000
1000
0000
0000
0000
,
1000
1000
0010
0100
0001
0001
1000
0100
,
0010
0000
0001
0000
0100
0010
1000
0001
,
0100
0001
0001
1000
,
1000
0100
0001
0000
0100
0000
0000
0000
,
2000
3200
0320
0032
,
2003
3020
0230
0302
,
1003
0001
1000
0001
,
2000
0002
3003
1001
,
0010
0000
0000
1000
0200
0000
0302
0000
,
0023
0000
1030
0000
,
0010
0000
0000
0001
0200
0000
2300
0000
,
3020
0000
0031
0000
,
1100
0000
0011
0000
,
0101
0000
1010
0000
,
1000
0001
1000
2000
,
0001
3002
1000
1003
,
0001
0000
1000
0100
0001
0000
0000
0000
,
0100
1000
0010
0100
0020
0000
0000
0000
,
1030
0100
0010
0001
,
1000
0000
0001
0100
0020
0000
0030
0000
,
1000
0000
0000
0001
1000
0000
0100
0000
0010
0000
0000
0000
0000
0000
0000
0000
,
0001
1000
0001
1000
0001
0000
0100
0000
0020
0000
0000
0000
0000
0000
0000
0000
,
1030
0100
0010
0001
,
1000
0100
0010
0001
1000
0000
1001
0000
,
0010
0000
0000
0000
0000
0000
0000
0000
0011
0000
0000
0000
0000
0000
0000
0000
0011
0000
0000
0000
0000
0000
0000
0000
0000
0000
0000
0000
0000
1000
0000
0000
,
0010
0000
0000
0000
0000
0000
0000
0000
0010
0000
0000
0000
0000
1000
0000
0000
0001
0000
0000
0000
0100
0000
0000
0000
0001
0000
0000
0000
0000
1000
0000
0000
,
0001
0000
0000
0000
0000
0000
0000
0000
0101
0000
0000
0000
0000
0000
0000
0000
0101
0000
0000
0000
0000
0000
0000
0000
0000
0000
0000
0000
0000
0001
0000
0000
,
0100
0000
0000
0000
0000
0000
0000
0000
0100
0000
0000
0000
0000
0010
0000
0000
1000
0000
0000
0000
0001
0000
0000
0000
0100
0000
0000
0000
0000
0010
0000
0000
,
0100
0000
0000
0000
0000
0000
0000
0000
0110
0000
0000
0000
0000
0000
0000
0000
0110
0000
0000
0000
0000
0000
0000
0000
0000
0000
0000
0000
0000
0100
0000
0000
,
0001
0000
0000
0000
0000
0000
0000
0000
0001
0000
0000
0000
0000
0100
0000
0000
0010
0000
0000
0000
1000
0000
0000
0000
0001
0000
0000
0000
0000
0100
0000
0000
,
0010
0000
0000
0000
0000
0000
0000
0000
0110
0000
0000
0000
0000
0000
0000
0000
0110
0000
0000
0000
0000
0000
0000
0000
0000
0000
0000
0000
0000
1000
0000
0000
,
0100
0000
0000
0000
0000
0000
0000
0000
0100
0000
0000
0000
0000
0010
0000
0000
0100
0000
0000
0000
1000
0000
0000
0000
0001
0000
0000
0000
0000
0000
0000
0000
,
0020
0000
0000
0000
0031
0000
0000
0000
0000
0000
0000
0000
0000
1000
0000
0000
0100
0000
0000
0000
0000
0000
0000
0000
0100
0000
0000
0000
0000
0010
0000
0000
,
0002
0000
0000
0000
1003
0000
0000
0000
0000
0000
0000
0000
0000
0001
0000
0000
0100
0000
0000
0000
0000
0000
0000
0000
0100
0000
0000
0000
0000
0010
0000
0000
,
2000
0000
0000
0000
3001
0000
0000
0000
0000
0000
0000
0000
0000
0100
0000
0000
0010
0000
0000
0000
0000
0000
0000
0000
0010
0000
0000
0000
0000
1000
0000
0000
,
0002
0000
0000
0000
0103
0000
0000
0000
0000
0000
0000
0000
0000
0010
0000
0000
1000
0000
0000
0000
0000
0000
0000
0000
1000
0000
0000
0000
0000
0010
0000
0000
,
0200
0000
0000
0000
0301
0000
0000
0000
0000
0000
0000
0000
0000
1000
0000
0000
1000
0000
0000
0000
0000
0000
0000
0000
1000
0000
0000
0000
0000
0100
0000
0000
,
0020
0000
0000
0000
0031
0000
0000
0000
0000
0000
0000
0000
0000
1000
0000
0000
0100
0000
0000
0000
0000
0000
0000
0000
0100
0000
0000
0000
0000
0010
0000
0000
,
0200
0000
0000
0000
0310
0000
0000
0000
0000
0000
0000
0000
0000
0001
0000
0000
0100
0000
0000
0000
0000
0000
0000
0000
0100
0000
0000
0000
0000
0010
0000
0000
,
2000
0000
0000
0000
3100
0000
0000
0000
0000
0000
0000
0000
0000
0010
0000
0000
0001
0000
0000
0000
0000
0000
0000
0000
0001
0000
0000
0000
0000
1000
0000
0000
,
0010
0000
0000
0000
0000
1000
0000
0000
0000
0000
0000
0000
0000
0100
0000
0000
0000
0000
0000
0000
0000
1000
0000
0000
0000
0000
0000
0000
0000
0000
0000
0000
,
1000
0000
0000
0000
0000
0001
0000
0000
0000
0000
0000
0000
0000
0010
0000
0000
0000
0000
0000
0000
0000
0001
0000
0000
0000
0000
0000
0000
0000
1000
0000
0000
,
0010
0000
0000
0000
0000
1000
0000
0000
0000
0000
0000
0000
0000
0100
0000
0000
0000
0000
0000
0000
0000
1000
0000
0000
0000
0000
0000
0000
0000
0000
0000
0000
,
0100
0000
0000
0000
0000
0000
0000
0000
0000
0000
0000
0000
0000
0001
0000
0000
0000
0000
0000
0000
0000
0010
0000
0000
0000
0000
0000
0000
0000
0001
0000
0000
,
1000
0000
0000
0000
0001
0000
0000
0000
0100
0000
0000
0000
0000
0001
0000
0000
1000
0000
0000
0000
0000
0000
0000
0000
1000
0000
0000
0000
0000
0001
0000
0000
,
0100
0000
0000
0000
0010
0000
0000
0000
0100
0000
0000
0000
0000
0001
0000
0000
1000
0000
0000
0000
0000
0000
0000
0000
1000
0000
0000
0000
0000
0010
0000
0000
,
0100
0000
0000
0000
0001
0000
0000
0000
0100
0000
0000
0000
0000
0001
0000
0000
1000
0000
0000
0000
0000
0000
0000
0000
1000
0000
0000
0000
0000
0001
0000
0000
,
0100
0000
0000
0000
0001
0000
0000
0000
1000
0000
0000
0000
0000
0001
0000
0000
0010
0000
0000
0000
0000
0000
0000
0000
0010
0000
0000
0000
0000
0001
0000
0000
,
0100
0000
0000
0000
0010
0000
0000
0000
1000
0000
0000
0000
0000
0001
0000
0000
0100
0000
0000
0000
0000
0000
0000
0000
0100
0000
0000
0000
0000
0001
0000
0000
,
1000
0000
0000
0000
0001
0000
0000
0000
0010
0000
0000
0000
0000
0100
0000
0000
1000
0000
0000
0000
0000
0000
0000
0000
1000
0000
0000
0000
0000
0100
0000
0000
,
1000
0000
0000
0000
0001
0000
0000
0000
0010
0000
0000
0000
0000
0001
0000
0000
0100
0000
0000
0000
0000
0000
0000
0000
0100
0000
0000
0000
0000
0001
0000
0000
,
0100
0000
0000
0000
0010
0000
0000
0000
1000
0000
0000
0000
0000
0100
0000
0000
1000
0000
0000
0000
0000
0000
0000
0000
1000
0000
0000
0000
0000
0000
0000
0000
,
2000
0000
0000
0000
3002
0000
0000
0000
0003
0000
0000
0000
0000
0100
0000
0000
0000
0000
0000
0000
0002
0000
0000
0000
0003
0000
0000
0000
0000
0000
0000
0000
,
0200
0000
0000
0000
0320
0000
0000
0000
0030
0000
0000
0000
0000
1000
0000
0000
0000
0000
0000
0000
0200
0000
0000
0000
0300
0000
0000
0000
0000
1000
0000
0000
,
0002
0000
0000
0000
2003
0000
0000
0000
3000
0000
0000
0000
0000
0100
0000
0000
0000
0000
0000
0000
2000
0000
0000
0000
3000
0000
0000
0000
0000
0000
0000
0000
,
0200
0000
0000
0000
0320
0000
0000
0000
0030
0000
0000
0000
0000
0001
0000
0000
0000
0000
0000
0000
0200
0000
0000
0000
0300
0000
0000
0000
0000
0000
0000
0000
,
0010
0100
1000
0100
0000
0010
0001
0000
,
0100
1000
0100
0001
0000
0010
1000
0000
,
0010
0100
0001
0100
0000
1000
0010
0100
,
0001
0010
0010
0100
1000
0010
0100
0000
,
0001
1000
0010
0100
0000
0001
0010
0000
,
0100
1000
0010
0100
0000
0001
1000
0000
,
0100
1000
0100
0001
0000
0100
1000
0010
,
0100
0000
0100
0000
0001
0000
0010
0000
0100
0000
1000
0100
1000
0000
0010
0000
,
0100
0000
0001
0010
0000
0001
0100
0000
,
0010
1000
0001
0100
1000
0100
0001
0000
,
1000
0000
0010
1000
0000
0001
0100
0000
,
0100
0010
0001
0010
1000
0100
0001
0000
,
0010
0000
1000
0100
0000
1000
0010
0000
,
0100
0001
1000
0010
0001
0010
1000
0000
,
1000
0000
0000
0000
0010
0000
0000
0010
0000
0000
1000
0000
0001
0000
0000
0000
,
1000
0000
0100
0000
0001
0000
0000
0100
0000
0000
1000
0000
0000
0000
0010
0000
,
0100
0000
1000
0002
0000
0203
0000
0000
,
0310
1000
0001
0100
1000
0100
0010
0000
,
0010
0000
0001
2000
0000
3020
0000
0000
,
0130
0001
1000
0010
0001
0010
0100
0000
,
0001
0000
1000
0200
0000
0302
0000
0000
,
0103
1000
0010
0100
0001
0010
1000
0000
,
0010
0000
0100
2000
0000
3020
0000
0000
,
0130
0000
0100
0000
0001
0000
0010
0000
0100
0000
1000
0010
0000
0010
0100
0000
,
0001
0000
2000
0010
0000
3100
0001
0000
,
0001
0100
1000
0010
0010
1000
0001
0000
,
1000
0000
0002
0100
0000
0013
1000
0000
,
1000
0010
0001
0100
0100
0001
1000
0100
,
0010
0001
1000
0010
0100
0001
1000
0001
,
0100
0000
0010
1000
0000
0001
0100
0000
,
0010
0000
1000
0100
0001
0100
1000
0000
,
0010
0000
1000
0000
,
0002
0000
0000
0000
,
0003
0000
0000
0000
,
0100
0000
0010
0000
,
0100
0000
0001
0010
0100
0000
1010
0000
,
1000
0000
0001
1000
0000
0010
0000
0000
,
0100
0000
0010
1000
0000
0001
0000
0000
,
0001
0000
1000
0010
0000
0100
0000
0000
,
0001
0000
1000
0001
0000
0010
0000
0000
,
0100
0000
1000
0010
0000
0100
0001
0000
,
0100
1000
0000
0100
0001
0000
1000
0000
,
0010
0000
0100
0001
0000
1000
0010
0000
,
1000
0100
0000
0010
0011
0000
1100
0000
,
0001
0000
1000
0010
0100
0000
0100
0001
,
0010
0020
0000
0000
,
0030
0000
0000
0000
,
0000
0000
0000
0000
,
1100
0000
1000
0010
0000
0100
0001
0000
,
0100
0001
0010
0100
1000
1000
0001
0000
,
0010
0000
0100
1000
0000
1000
0010
0000
,
0101
0000
0010
1000
0100
0010
1000
0000
,
1000
0000
0010
0001
0000
0010
1000
0000
,
0100
1000
0010
0100
0001
0000
1000
0010
,
0100
0000
0100
1000
0000
0100
0001
0000
,
0101
1010
1001
0000
,
0001
0100
0010
0010
1000
0010
0100
0100
,
0001
0000
0100
0000
1000
0000
1000
0000
0100
0000
0001
0000
0001
0000
0010
0100
,
0010
0100
1000
0100
0001
0100
1000
0010
,
0001
0000
0010
0000
0100
0000
0001
0000
0010
0100
0010
0000
0100
0000
0000
0000
,
1000
0000
0010
0000
0100
0000
0001
0000
1000
0100
1000
0000
0001
0010
0001
0000
,
0100
0010
1000
0100
0010
0001
1000
0000
,
0010
1000
0001
0100
,
0020
0000
0230
0000
,
0301
0000
0000
0000
;

//---------------dance-double - ----------------
#NOTES:
     dance-double:
     :
     Beginner:
     1:
     :
00000000
00000000
00000000
00000000
,
00000000
00000000
00000000
00000000
,
00000000
00000000
00000000
00000000
,
00000000
00000000
00000000
00000000
,
00000000
00000000
00000000
00000000
,
10000000
00000000
01000000
00000000
,
00100000
00000000
00000000
00000000
,
00010000
00000000
00001000
00000000
,
00000010
00000000
00000000
00000000
,
00001000
00000000
00000001
00000000
,
00000100
00000000
00001000
00000000
,
00010000
00000000
01000000
00000000
,
10000000
00000000
00100000
00000000
,
00010000
00000000
01000000
00000000
,
00001000
00000000
00000000
00000000
,
00010000
00000000
00001000
00000000
,
00000010
00000000
00000000
00000000
,
00000100
00000000
00001000
00000000
,
00000010
00000000
00000000
00000000
,
00000001
00000000
00000010
00000000
,
00001000
00000000
00000100
00000000
,
00010000
00000000
00001000
00000000
,
00100000
00000000
01000000
00000000
,
00010000
00000000
00100000
00000000
,
00001000
00000000
00010000
00000000
,
00000010
00000000
00000100
00000000
,
00001000
00000000
00000001
00000000
,
00000010
00000000
00000100
00000000
,
00001000
00000000
00010000
00000000
,
01100000
00000000
00000000
00000000
,
10000000
00000000
00100000
00000000
,
00011000
00000000
00000000
00000000
,
00000100
00000000
00000001
00000000
,
00001001
00000000
00000000
00000000
,
00000100
00000000
00010000
00000000
,
10010000
00000000
00000000
00000000
,
01000000
00000000
01000000
00000000
,
00010000
00000000
00000010
00000000
,
00000100
00000000
00000001
00000000
,
00000010
00000000
00000001
00000000
,
00000100
00000000
00000000
00000000
,
00001000
00000000
00010000
00000000
,
00100000
00000000
00000000
00000000
,
10000000
00000000
01000000
00000000
,
00010000
00000000
00100000
00000000
,
00001000
00000000
00010000
00000000
,
00000100
00000000
00000010
00000000
,
00001000
00000000
00000100
00000000
,
00010000
00000000
00001000
00000000
,
01000000
00000000
00100000
00000000
,
10000000
00000000
01000000
00000000
,
00010000
00000000
00001000
00000000
,
00000010
00000000
00000100
00000000
,
00000110
00000000
00000001
00000000
,
00000100
00000000
00001000
00000000
,
00000100
00000000
00001000
00000000
,
00010000
00000000
10000000
00000000
,
01000000
00000000
00010000
00000000
,
00001000
00000000
00010000
00000000
,
00010000
00000000
00001000
00000000
,
00000100
00000000
00000001
00000000
,
00001001
00000000
00000100
00000000
,
00010000
00000000
00100000
00000000
,
10010000
00000000
01000000
00000000
,
10000000
00000000
00100000
00000000
,
10010000
00000000
00000000
00000000
,
00011000
00000000
00000000
00000000
,
00001001
00000000
00000100
00000000
,
00001000
00000000
00100000
00000000
,
00001000
00000000
00001000
00000000
,
00000100
00000000
00000100
00000000
,
00010000
00000000
00001000
00000000
,
00010000
00000000
00001000
00000000
,
00010000
00000000
00010000
00000000
,
01000000
00000000
01000000
00000000
,
10000000
00000000
00100000
00000000
,
00010000
00000000
00001000
00000000
,
00010000
00000000
00010000
00000000
,
00000100
00000000
00000100
00000000
,
00001000
00000000
00000001
00000000
,
00000100
00000000
00000100
00000000
,
00001000
00000000
00001000
00000000
,
00010000
00000000
00010000
00000000
,
01000000
00000000
10000000
00000000
,
00100000
00000000
00100000
00000000
,
00010000
00000000
00000000
00000000
,
00001000
00000000
00000000
00000000
,
00000100
00000000
00000000
00000000
,
00000001
00000000
00000000
00000000
,
00001000
00000000
00000100
00000000
,
00010000
00000000
00010000
00000000
,
00001000
00000000
00001000
00000000
,
00100000
00000000
00010000
00000000
,
10000000
00000000
10000000
00000000
,
00100000
00000000
00100000
00000000
,
00010000
00000000
00010000
00000000
,
00001000
00000000
00000100
00000000
,
00000001
00000000
00000010
00000000
,
00001000
00000000
00010000
00000000
,
01000000
00000000
10000000
00000000
,
01000000
00000000
00010000
00000000
,
00001000
00000000
00001000
00000000
,
00010000
00000000
00010000
00000000
,
00000100
00000000
00000100
00000000
,
00001000
00000000
00000001
00000000
,
00001001
00000000
00000000
00000000
,
00000110
00000000
00000000
00000000
,
00001000
00000000
00010000
00000000
,
00011000
00000000
00000000
00011000
,
00000000
00000000
00100000
00000000
,
00001000
00000000
00100000
00000000
,
00010000
00000000
01000000
00000000
,
00010000
00000000
01000000
00000000
,
00100000
00000000
00100000
00000000
,
10000000
00000000
10000000
00000000
,
01000000
00000000
00010000
00000000
,
00010000
00000000
00001000
00000000
,
00010000
00000000
00010000
00000000
,
00000100
00000000
00000100
00000000
,
00001000
00000000
00001000
00000000
,
00000010
00000000
00000100
00000000
,
00000001
00000000
00000100
00000000
,
00001000
00000000
00010000
00000000
,
01000000
00000000
10000000
00000000
,
00010000
00000000
00010000
00000000
,
00010000
00000000
00000010
00000000
,
00000001
00000000
00001000
00000000
,
00000001
00000000
00000100
00000000
,
00001000
00000000
00000010
00000000
,
00010000
00000000
00000000
00000000
,
00010000
00000000
10000000
00000000
,
00010000
00000000
00000000
00000000
,
01000000
00000000
00001000
00000000
,
00010000
00000000
00001000
00000000
,
00000001
00000000
00000000
00000100
,
00000000
00000000
00000010
00000000
,
00010000
00000000
00000000
00100000
,
00000000
00000000
00010000
00000000
,
10000000
00000000
01000000
00000000
,
00100000
00000000
00010000
00000000
,
10000000
00000000
01000000
00000000
,
00001000
00000000
00000000
00000000
,
00010000
00000000
00000000
00000000
,
00000010
00000000
00000000
00000000
,
00000100
00000000
00000000
00000000
,
00001000
00000000
00010000
00000000
,
00001000
00000000
00010000
00000000
,
10000000
00000000
00100000
00000000
,
01000000
00000000
01000000
00000000
,
10000000
00000000
00100000
00000000
,
00001000
00000000
00000100
00000000
,
00000100
00000000
00000001
00000000
,
00000001
00000000
00000100
00000000
,
00010000
00000000
00000000
00000000
,
00010000
00000000
00000000
00000000
,
01000000
00000000
00010000
00000000
,
00010000
00000000
01000000
00000000
,
01000000
00000000
00100000
00000000
,
10000000
00000000
01000000
00000000
,
00010000
00000000
00001000
00000000
,
00000100
00000000
00000001
00000000
,
00000100
00000000
00000010
00000000
,
00010000
00000000
00001000
00000000
,
00000100
00000000
00000001
00000000
,
00000010
00000000
00000100
00000000
,
00001000
00000000
00000100
00000000
,
00000001
00000000
00000000
00000000
,
00000010
00000000
00001000
00000000
,
00010000
00000000
00000000
00000000
,
01000000
00000000
10000000
00000000
,
00010000
00000000
00010000
00000000
,
00100000
00000000
00000000
00000000
,
00000000
00000000
00000000
00000000
,
01000000
00000000
10000000
00000000
,
00100000
00000000
00000000
00000000
,
00010000
00000000
00001000
00000000
,
00010000
00000000
00000000
00000000
,
00000100
00000000
00001000
00000000
,
00000010
00000000
00000000
00000000
,
00000100
00000000
00000001
00000000
,
00000010
00000000
00000000
00000000
,
00000100
00000000
00010000
00000000
,
00001000
00000000
00010000
00000000
,
00100000
00000000
01000000
00000000
,
10000000
00000000
00000000
00000000
,
01000000
00000000
00010000
00000000
,
00100000
00000000
01000000
00000000
,
10000000
00000000
00000000
00000000
,
01000000
00000000
00000000
00000000
,
00010000
00000000
00000000
00000000
,
00000000
00000000
00000000
00000000
,
00001000
00000000
00010000
00000000
,
00000100
00000000
00000010
00000000
,
00000001
00000000
00000000
00000000
,
00000010
00000000
00000100
00000000
,
00001000
00000000
00000000
00000000
,
00100000
00000000
10000000
00000000
,
01000000
00000000
00000000
00000000
,
01000000
00000000
00100000
00000000
,
00001000
00000000
00010000
00000000
,
01000000
00000000
10000000
00000000
,
00100000
00000000
00010000
00000000
,
00001000
00000000
00000000
00000000
,
00000001
00000000
00000000
00000000
,
00000100
00000000
00000000
00000000
,
00000010
00000000
00000001
00000000
,
00000100
00000000
00000000
00000000
,
00010000
00000000
00100000
00000000
,
01000000
00000000
00010000
00000000
,
10000000
00000000
01000000
00000000
,
00100000
00000000
00000000
00000000
,
00010000
00000000
00001000
00000000
,
00000010
00000000
00000000
00000000
,
00000001
00000000
00000000
00000000
,
00000100
00000000
00000010
00000000
,
00001000
00000000
00000000
00000000
,
00000100
00000000
00010000
00000000
,
00001000
00000000
00000000
00000000
,
01000000
00000000
00010000
00000000
,
00100000
00000000
00000000
00000000
,
01000000
00000000
00000000
00000000
,
10000000
00000000
00000000
00000000
;

//---------------dance-double - ----------------
#NOTES:
     dance-double:
     :
     Easy:
     4:
     :
00000000
00000000
00000000
00000000
,
00000000
00000000
00000000
00000000
,
00000000
00000000
00000000
00000000
,
00000000
00000000
00000000
00000000
,
00000000
00000000
00000000
00000000
,
10000000
00000000
01000000
00000000
,
00100000
00000000
00000000
00000000
,
00010000
00000000
00001000
00000000
,
00000010
00000000
00000000
00000000
,
00001000
00000000
00000001
00000000
,
00000100
00000000
00001000
00000000
,
00010000
00000000
01000000
00000000
,
10000000
01000000
00100000
00000000
,
00010000
00000000
01000000
00000000
,
00002000
00000000
00000000
00000000
,
00013000
00000000
00001000
00000000
,
00000020
00000000
00000000
00000000
,
00000130
00000000
00001000
00000000
,
00000020
00000000
00000000
00000000
,
00000031
00000000
00000010
00000000
,
00001000
00000000
00000100
00000000
,
00010000
00000000
00001000
00000000
,
00100000
00000000
01000000
10000000
,
00010000
00000000
00100000
00000000
,
00001000
00000000
00010000
00000010
,
00000010
00000000
00000100
00000000
,
00001000
00000000
00000001
00000000
,
00000010
00000000
00000100
00000000
,
00001000
00000000
00010000
00000000
,
01100000
00000000
00000000
00000000
,
10000000
01000000
00100000
00000000
,
00011000
00000000
00000000
00000000
,
00000100
00000010
00000001
00000000
,
00001001
00000000
00000000
00000000
,
00000100
00001000
00010000
00000000
,
10010000
00000000
00000000
00000000
,
01000000
10000000
01000000
00000000
,
00010000
00000000
00000010
00000000
,
00000100
00000000
00000001
00000000
,
00000010
00000000
00000001
00000000
,
00000200
00000000
00000000
00000000
,
00001300
00000000
00010000
00000000
,
00200000
00000000
00000000
00000000
,
10300000
00000000
01000000
00000000
,
00010000
00000000
00100000
00000000
,
00001000
00000000
00010000
00000000
,
00000100
00000000
00000010
00000001
,
00001000
00000000
00000100
00000000
,
00010000
00000000
00001000
01000000
,
01000000
00000000
00100000
00000000
,
10000000
00000000
01000000
00000000
,
00010000
00000000
00001000
00000000
,
00000010
00000000
00000100
00000000
,
00000110
00000000
00000001
00000000
,
00000100
00000000
00001000
00000010
,
00000100
00000000
00001000
00000000
,
00010000
00100000
10000000
00000000
,
01000000
00000000
00010000
00000000
,
00001000
00000000
00010000
00001000
,
00010000
00000000
00001000
00000000
,
00000100
00000000
00000001
00000000
,
00001001
00000000
00000100
00001000
,
00010000
00000000
00100000
00000000
,
10010000
00000000
01000000
00010000
,
10000000
00000000
00100000
00000000
,
10010000
00000000
00000000
00000000
,
00011000
00000000
00000000
00000000
,
00001001
00000000
00000100
00000000
,
00001000
00010000
00100000
10000000
,
00001000
00001000
00001000
00000000
,
00000100
00000000
00000100
00000000
,
00010000
00010000
00001000
00001000
,
00020000
00030000
00002000
00003000
,
00010000
00010000
00010000
00000000
,
01000000
00000000
01000000
00000000
,
10000000
10000000
00100000
00100000
,
00020000
00030000
00002000
00003000
,
00010000
00000000
00010000
00000000
,
00000100
00000000
00000100
00000000
,
00001000
00000000
00000001
00000000
,
00000100
00000010
00000100
00000000
,
00001000
00000000
00001000
00000000
,
00010000
00000000
00010000
00000000
,
01000000
00000000
10000000
00000000
,
00100000
01000000
00100000
00000000
,
00020000
00000000
00030000
00000000
,
00002000
00000000
00003000
00000000
,
00000200
00000000
00000300
00000000
,
00000002
00000000
00000003
00000000
,
00001000
00000000
00000100
00000000
,
00010000
00000000
00010000
00000000
,
00001000
00010000
00001000
00000000
,
00100000
00000000
00010000
00000000
,
10000000
00000000
10000000
00000000
,
00100000
00000000
00100000
00000000
,
00010000
00000000
00010000
00000000
,
00001000
00001000
00000100
00000100
,
00000001
00000000
00000010
00000000
,
00001000
00000000
00010000
00000000
,
01000000
00000000
10000000
00000000
,
01000000
01000000
00010000
00010000
,
00001000
00000000
00001000
00000000
,
00010000
00000000
00010000
00000000
,
00000100
00000000
00000100
00000000
,
00001000
00001000
00000001
00000001
,
00001001
00000000
00000000
00000000
,
00000110
00000000
00000000
00000000
,
00002000
00003000
00020000
00030000
,
00022000
00033000
00000000
00011000
,
00001000
00000000
00100000
00000000
,
00001000
00000000
00100000
00000000
,
00010000
00000000
01000000
00000000
,
00010000
00000000
01000000
00000000
,
00100000
00000000
00100000
00000000
,
10000000
00000000
10000000
00000000
,
01000000
00000000
00010000
00001000
,
00010000
00000000
00001000
00000000
,
00010000
00000000
00010000
00000000
,
00000100
00000000
00000100
00000000
,
00001000
00000000
00001000
00000000
,
00000010
00000010
00000100
00000100
,
00000001
00000000
00000100
00000000
,
00001000
00000000
00010000
00000000
,
01000000
00000000
10000000
00000000
,
00010000
10000000
00010000
10010000
,
00010000
00000100
00000010
00000010
,
00000001
00000001
00001000
00001000
,
00000001
00001000
00000100
00000100
,
00001000
00001000
00000010
00000010
,
00010000
00000000
00000000
00000000
00000000
00000000
00000000
00000000
00002000
00000000
00000000
00000000
00000000
00000000
00000000
00000000
00003000
00000000
00000000
00000000
00000000
00000000
00000000
00000000
00000000
00000000
00000000
00000000
00000000
01000000
00000000
00000000
,
00020000
00030000
20000000
30000000
,
00010000
00000000
00000000
00000000
00000000
00000000
00000000
00000000
20000000
00000000
00000000
00000000
00000000
00000000
00000000
00000000
30000000
00000000
00000000
00000000
00000000
00000000
00000000
00000000
00000000
00000000
00000000
00000000
00000000
00010000
00000000
00000000
,
02000000
03000000
00002000
00003000
,
00010000
00000000
00000000
00000000
00000000
00000000
00000000
00000000
00000000
00000000
00000000
00000000
00000000
00000010
00000000
00000000
00001000
00000000
00000000
00000000
00000000
00000000
00000000
00000000
00001000
00000000
00000000
00000000
00000000
00000000
00000000
00000000
,
00000001
00000001
00000000
00000100
,
00000100
00000000
00000000
00000000
00000000
00000000
00000000
00000000
00000000
00000000
00000000
00000000
00000000
00000100
00000000
00000000
00000010
00000000
00000000
00000000
00000000
00000000
00000000
00000000
00000010
00000000
00000000
00000000
00000000
00000000
00000000
00000000
,
00010000
00001000
00000000
00100000
,
01000000
00000000
00000000
00000000
00000000
00000000
00000000
00000000
00000000
00000000
00000000
00000000
00000000
10000000
00000000
00000000
00010000
00000000
00000000
00000000
00000000
00000000
00000000
00000000
00010000
00000000
00000000
00000000
00000000
00000000
00000000
00000000
,
10000000
10000000
01000000
01000000
,
00100000
00000000
00000000
00000000
00000000
00000000
00000000
00000000
00000000
00000000
00000000
00000000
00000000
00100000
00000000
00000000
00020000
00000000
00000000
00000000
00000000
00000000
00000000
00000000
00030000
00000000
00000000
00000000
00000000
00000000
00000000
00000000
,
10000000
00010000
01000000
01000000
,
00002000
00000000
00000000
00000000
00000000
00000000
00000000
00000000
00003000
00000000
00000000
00000000
00000000
00010000
00000000
00000000
00000000
00000000
00000000
00000000
00000000
00010000
00000000
00000000
00000000
00000000
00000000
00000000
00000000
00000000
00000000
00000000
,
00020000
00000000
00000000
00000000
00000000
00000000
00000000
00000000
00030000
00000000
00000000
00000000
00000000
00001000
00000000
00000000
00000000
00000000
00000000
00000000
00000000
00001000
00000000
00000000
00000000
00000000
00000000
00000000
00000000
00000000
00000000
00000000
,
00000020
00000000
00000000
00000000
00000000
00000000
00000000
00000000
00000030
00000000
00000000
00000000
00000000
00001000
00000000
00000000
00000000
00000000
00000000
00000000
00000000
00001000
00000000
00000000
00000000
00000000
00000000
00000000
00000000
00000000
00000000
00000000
,
00000200
00000000
00000000
00000000
00000000
00000000
00000000
00000000
00000300
00000000
00000000
00000000
00000000
00000001
00000000
00000000
00000000
00000000
00000000
00000000
00000000
00000001
00000000
00000000
00000000
00000000
00000000
00000000
00000000
00000000
00000000
00000000
,
00001000
00000100
00010000
00010000
,
00001000
01000000
00010000
00010000
,
10000000
01000000
00100000
00100000
,
01000000
00100000
01000000
01000000
,
10000000
01000000
00100000
00100000
,
00001000
00000000
00000000
00000000
00000000
00000000
00000000
00000000
00010000
00000000
00000000
00000000
00000000
00000000
00000000
00000000
00000100
00000000
00000000
00000000
00000000
00000000
00000000
00000000
00000100
00000000
00000000
00000000
00000000
00001000
00000000
00000000
,
00000100
00000000
00000000
00000000
00000000
00000000
00000000
00000000
00001000
00000000
00000000
00000000
00000000
00000000
00000000
00000000
00000002
00000000
00000000
00000000
00000000
00000000
00000000
00000000
00000003
00000000
00000000
00000000
00000000
00001000
00000000
00000000
,
00000001
00001000
00000200
00000300
,
00020000
00000000
00000000
00000000
00030000
00001000
00000000
00000000
,
00020000
00000000
00000000
00000000
00030000
00001000
00000000
00000000
,
01000000
00010000
00010000
10000000
,
00010000
01000000
01000000
00010000
,
01000000
00000000
00100000
00000000
,
10000000
00000000
01000000
00000000
,
00010000
00000000
00001000
00000000
,
00000100
00000000
00000001
00000000
,
00000100
00000000
00000010
00000000
,
00010000
00000000
00001000
00000000
,
00000100
00000000
00000001
00000000
,
00000010
00000100
00000100
00000000
,
00001000
00000000
00000100
00000000
,
00000001
00000000
00000000
00000000
,
00000010
00000000
00001000
00000000
,
00010000
00000000
00000000
00000000
,
01000000
00000000
10000000
00000000
,
00010000
00000000
00010000
00000000
,
00100000
00000000
00000000
00000000
,
00000000
00000000
00000000
00000000
,
01000000
00000000
10000000
00000000
,
00100000
00100000
00000000
00000000
,
00010000
00000000
00001000
00000000
,
00010000
00010000
00000000
00000000
,
00000100
00000000
00001000
00000000
,
00000010
00000010
00000000
00000000
,
00000100
00000000
00000001
00000000
,
00000010
00000000
00000000
00000000
,
00000100
00000000
00010000
00000000
,
00001000
00000000
00010000
00000000
,
00100000
00000000
01000000
00000000
,
10000000
10000000
00000000
00000000
,
01000000
00000000
00010000
00000000
,
00100000
00000000
01000000
00000000
,
20000000
00000000
00000000
30000000
,
02000000
00000000
00000000
03000000
,
00010000
00000000
00000000
00000000
,
00000000
00000000
00000000
00000000
,
00001000
00000000
00010000
00000000
,
00000100
00000000
00000010
00000000
,
00000001
00000100
00000000
00000000
,
00000010
00000000
00000100
00000000
,
00001000
00010000
00000000
00000000
,
00100000
00000000
10000000
00000000
,
01000000
10000000
00000000
00000000
,
01000000
00000000
00100000
00000000
,
00001000
00000000
00010000
00000000
,
01000000
00000000
10000000
00000000
,
00100000
00000000
00010000
00000000
,
00001000
00000100
00000000
00000000
,
00000002
00000000
00000000
00000003
,
00000200
00000000
00000000
00000300
,
00000010
00000000
00000001
00000000
,
00000100
00001000
00000000
00000000
,
00010000
00000000
00100000
00000000
,
01000000
00000000
00010000
00000000
,
10000000
00000000
01000000
00000000
,
00100000
00001000
00000000
00000000
,
00010000
00000000
00001000
00000000
,
00000010
00000000
00000000
00000000
,
00000001
00000001
00000000
00000000
,
00000100
00000000
00000010
00000000
,
00001000
00001000
00000000
00000000
,
00000100
00000000
00010000
00000000
,
00001000
00001000
00000000
00000000
,
01000000
00000000
00010000
00000000
,
00100000
00000000
00000000
00000000
,
01000000
00000000
00000000
00000000
,
10000000
00000000
00000000
00000000
;

//---------------dance-double - ----------------
#NOTES:
     dance-double:
     :
     Medium:
     7:
     :
00000000
00000000
00000000
00000000
,
00000000
00000000
00000000
00000000
,
00000000
00000000
00000000
00000000
,
00000000
00000000
00000000
00000000
,
00000000
00000000
00000000
00000000
,
00000100
00000000
00000001
00000000
,
00000100
00001000
00010000
00000000
,
00100000
00000000
10000000
01000000
,
10000000
00000000
00100000
00000000
,
10000000
00000000
01000000
00000000
,
00010000
00001000
00000100
00000000
,
00000001
00000100
00001000
00010000
,
00001000
00100000
01000000
10000000
,
01000000
00010000
00001000
00000000
,
00000010
00000100
00001000
00000000
,
00010000
00100000
10000000
00000000
,
01100000
00000000
00000000
00000000
00010000
00100000
00001000
00000000
,
00010000
01000000
10000000
01000000
,
00010000
00001000
00000010
00000000
,
00001000
00000010
00000001
00000000
,
00000100
00000000
00000010
00000000
00001000
00000001
00000010
00000000
,
00000110
00000000
00001000
00000000
00000001
00000010
00000000
00000100
,
00010000
00001000
01000000
00010000
,
01000000
10000000
01000000
00010000
,
00100000
11000000
00100000
00010000
,
00100000
00000000
01000000
00000000
10000000
01000000
00000000
01000000
,
00010000
00001000
00000010
00000001
,
00000100
00000000
00001000
00000000
00001000
00010000
00000000
00010000
,
00100000
10000000
01000000
00010000
,
00010000
00000000
11000000
00000000
00000000
00100000
00000000
00002000
,
00000000
00000000
00023000
00000000
,
00030100
00000000
00001010
00000000
00000000
00000100
00000000
00000002
,
00000000
00000000
00000023
00000000
,
00000130
00000110
00000000
00000100
,
00010000
00000000
00001000
00000000
00100000
01000000
00100000
00000000
,
10000000
11000000
00000000
10000000
,
01000000
00010000
01000000
00000000
,
00010000
01000000
10000000
00000000
,
01000000
00000000
00100000
00000000
00001000
00010000
00000100
00000000
,
00001000
00000100
00000001
00000000
,
00001001
00000000
00000000
00000000
,
00000100
00001000
00010000
00000000
,
00010000
01000000
10000000
00000000
,
00010000
00100000
10000000
00000000
,
00100000
00000000
01000000
00000000
10000000
01000000
10000000
00000000
,
00100000
00000000
10000000
00100000
00010000
00000000
00001000
00000000
,
00010000
01000000
00010000
00001000
,
00000010
00000000
00000001
00000100
00001000
00000000
00000100
00000000
,
00000001
00000100
00001000
00010000
,
00100000
00000000
10000000
00100000
10000000
00000000
01000000
00000000
,
00100000
00001000
00010000
00100000
,
10000000
01000000
00010000
00001000
,
00000100
00000001
00000020
00000000
,
00001030
00000000
00000001
00000000
00000100
00000001
00000010
00000000
,
00000100
00010000
00001000
00000100
,
00000001
00000000
00000100
00001000
00010000
00000000
00100000
00000000
,
20000000
00000000
31000000
00100000
,
00110000
01000000
10000000
01000000
,
00220000
00000000
00000000
00330000
00022000
00000000
00000000
00033000
,
00020020
00000000
00000000
00000000
,
00000000
00000000
00000000
00030000
00000200
00000000
00000000
00000330
,
00000001
00000000
00001010
00000000
00000000
00000100
00000000
00000100
,
00000001
00000100
00001000
00010000
,
01000000
00000000
10100000
00000000
00000000
01000000
00000000
01000000
,
00100000
00010000
00001000
00000010
,
00000001
00001010
00000000
00000100
,
00010100
00010000
00000000
00001000
,
01001000
00100000
10010000
00100000
,
00011000
00000000
00000000
00000000
00000000
00000000
00000000
00000000
00000000
00000000
00000000
00000000
00000000
00000000
00000000
00000000
00010100
00000000
00000000
00000000
00000000
00000000
00000000
00000000
00000000
00000000
00000000
00000000
00000000
00000000
00000000
00000000
00002001
00000000
00000000
00000000
00000000
00000000
00000000
00000000
00000000
00000000
00000000
00000000
00000000
00000000
00000000
00000000
00000202
00000000
00000000
00000000
00000000
00000000
00000000
00000000
00000000
00000000
00000000
00000000
00000000
00000000
00000000
00000303
,
00003000
00000000
00001000
00010000
00001000
00000000
00000000
00000000
,
00010000
00010000
00001000
00001000
,
00101000
00100000
00110000
00010000
,
01010000
01100000
10100000
00000000
,
00100000
00000000
10000000
00010000
10000000
00000000
00000000
00000000
,
01000000
01000000
00010000
00010000
,
00011000
00001000
00001100
00000100
,
00000101
00001001
00000011
00000000
,
00000002
00000000
00000003
00000010
00000100
00000000
00001000
00000000
,
00000200
00000000
00000300
00010000
00001000
00000000
00010000
00000000
,
00001000
00100000
00000000
00010000
01000000
00000000
00100000
00000000
,
10000000
00010000
10000000
00000000
,
20000000
00000000
30000000
01000000
00100000
00000000
00010000
00000000
,
00200000
00000000
00300000
00001000
00010000
00000000
00001000
00000000
,
00010000
00000100
00000000
00001000
00000010
00000000
00000100
00000000
,
00000001
00001000
00000001
00000000
,
00000020
00000000
00002030
00000000
,
00023000
00000000
02030000
00000000
,
23000000
00000000
32000000
00000000
,
03020000
00000000
00032000
00000000
,
00003020
00000000
00000032
00000000
,
00000203
00000000
00002300
00000000
,
00023000
00000000
00230000
00000000
,
20300000
00000000
30200000
00000000
,
00310000
00001000
00000100
00001000
,
00011000
00010000
00011000
00001000
,
00000020
00000130
00002000
00003001
,
00000100
00000010
00000001
00000000
00001100
00000000
00000000
00000000
,
00001000
00010000
00100000
00010000
,
00011000
00001000
00011000
00010000
,
02000000
03100000
00020000
10030000
,
00100000
01000000
10000000
00000000
01010000
00000000
00000000
00000000
,
00010000
00100000
10000000
00100000
,
01100000
01000000
01100000
00100000
,
00002000
00013000
00000200
00001300
,
00000001
00001000
00000010
00000000
00000110
00000000
00000000
00000000
,
00000100
00000010
00000100
00000010
,
00001000
00000001
00001000
00000001
,
00001000
00000100
00010000
00001000
,
00010000
00001000
00010000
00011000
,
00002000
00000000
02003000
00000000
,
03200000
00000000
02300000
00000000
,
03002000
00000000
00023000
00000000
,
00030020
00000000
00000230
00000000
,
00000320
00000000
00020030
00000000
,
00032000
00000000
00023000
00000000
,
00032000
00010000
00013000
00001000
,
00001000
00010000
00001000
00011000
,
00010000
00000000
00100000
01000000
00010000
00000000
01000000
00000000
,
00010000
00000000
01000000
00010000
00200000
00000000
00300000
00000000
,
01000000
10000000
00100000
01000000
,
00100000
00000000
00010000
00001000
00020000
00000000
00030000
00000000
,
00001000
00000000
00000010
00000100
00001000
00000000
00000100
00000000
,
00001000
00000000
00000100
00001000
00000020
00000000
00000030
00000000
,
00000100
00000001
00000010
00000100
,
00000010
00000000
00001000
00010000
00001000
00000000
00011000
00000000
,
00001000
00000000
00000000
00000000
00000000
00000000
00000000
00000000
00001002
00000000
00000000
00000000
00000000
00000000
00000000
00000000
00001003
00000000
00000000
00000000
00000000
00000000
00000000
00000000
00000000
00000000
00000000
00000000
00000000
00000001
00000000
00000000
,
00000100
00000000
00000000
00000000
00000000
00000000
00000000
00000000
00000100
00000000
00000000
00000000
00000000
00000001
00000000
00000000
00001000
00000000
00000000
00000000
00000000
00000000
00000000
00000000
00001000
00000000
00000000
00000000
00000000
00000100
00000000
00000000
,
00010000
00000000
00000000
00000000
00000000
00000000
00000000
00000000
00012000
00000000
00000000
00000000
00000000
00000000
00000000
00000000
00013000
00000000
00000000
00000000
00000000
00000000
00000000
00000000
00000000
00000000
00000000
00000000
00000000
00100000
00000000
00000000
,
00010000
00000000
00000000
00000000
00000000
00000000
00000000
00000000
00010000
00000000
00000000
00000000
00000000
00010000
00000000
00000000
01000000
00000000
00000000
00000000
00000000
00000000
00000000
00000000
01000000
00000000
00000000
00000000
00000000
00010000
00000000
00000000
,
10000000
00000000
00000000
00000000
00000000
00000000
00000000
00000000
10020000
00000000
00000000
00000000
00000000
00000000
00000000
00000000
10030000
00000000
00000000
00000000
00000000
00000000
00000000
00000000
00000000
00000000
00000000
00000000
00000000
10000000
00000000
00000000
,
00100000
00000000
00000000
00000000
00000000
00000000
00000000
00000000
00100000
00000000
00000000
00000000
00000000
01000000
00000000
00000000
00001000
00000000
00000000
00000000
00000000
00000000
00000000
00000000
00001000
00000000
00000000
00000000
00000000
00010000
00000000
00000000
,
00000100
00000000
00000000
00000000
00000000
00000000
00000000
00000000
00002100
00000000
00000000
00000000
00000000
00000000
00000000
00000000
00003100
00000000
00000000
00000000
00000000
00000000
00000000
00000000
00000000
00000000
00000000
00000000
00000000
00000001
00000000
00000000
,
00000010
00000000
00000000
00000000
00000000
00000000
00000000
00000000
00000010
00000000
00000000
00000000
00000000
00000001
00000000
00000000
00000100
00000000
00000000
00000000
00000000
00000000
00000000
00000000
00000100
00000000
00000000
00000000
00000000
00000010
00000000
00000000
,
00001000
00000000
00000000
00000000
00000000
00000000
00000000
00000000
00001000
00000000
00000000
00000000
00000000
00001000
00000000
00000000
00000100
00000000
00000000
00000000
00000000
00000000
00000000
00000000
00000100
00000000
00000000
00000000
00000000
00010000
00000000
00000000
,
00001000
00000000
00000000
00000000
00000000
00000000
00000000
00000000
00001000
00000000
00000000
00000000
00000000
00001000
00000000
00000000
00100000
00000000
00000000
00000000
00000000
00000000
00000000
00000000
00100000
00000000
00000000
00000000
00000000
00010000
00000000
00000000
,
01000000
00000000
00000000
00000000
00000000
00000000
00000000
00000000
01000000
00000000
00000000
00000000
00000000
01000000
00000000
00000000
00100000
00000000
00000000
00000000
00000000
00000000
00000000
00000000
00100000
00000000
00000000
00000000
00000000
10000000
00000000
00000000
,
00010000
00000000
00000000
00000000
00000000
00000000
00000000
00000000
00010000
00000000
00000000
00000000
00000000
00010000
00000000
00000000
10000000
00000000
00000000
00000000
00000000
00000000
00000000
00000000
10000000
00000000
00000000
00000000
00000000
00100000
00000000
00000000
,
01000000
00000000
00000000
00000000
00000000
00000000
00000000
00000000
01000000
00000000
00000000
00000000
00000000
01000000
00000000
00000000
00001000
00000000
00000000
00000000
00000000
00000000
00000000
00000000
00001000
00000000
00000000
00000000
00000000
00010000
00000000
00000000
,
00000100
00000000
00000000
00000000
00000000
00000000
00000000
00000000
00001000
00000000
00000000
00000000
00000000
00001000
00000000
00000000
00000001
00000000
00000000
00000000
00000000
00000000
00000000
00000000
00000001
00000000
00000000
00000000
00000000
00000010
00000000
00000000
,
00000100
00000000
00000000
00000000
00000000
00000000
00000000
00000000
00000100
00000000
00000000
00000000
00000000
00000100
00000000
00000000
00001000
00000000
00000000
00000000
00000000
00000000
00000000
00000000
00001000
00000000
00000000
00000000
00000000
00001000
00000000
00000000
,
00000010
00000000
00000000
00000000
00000000
00000000
00000000
00000000
00000010
00000000
00000000
00000000
00000000
00000010
00000000
00000000
00010000
00000000
00000000
00000000
00000000
00000000
00000000
00000000
00010000
00000000
00000000
00000000
00000000
00000000
00000000
00000000
,
00002000
00000000
00000000
00000000
00000000
00000000
00000000
00000000
00003000
00000000
00000000
00000000
00000000
00010000
00000000
00000000
00000000
00000000
00000000
00000000
00200000
00000000
00000000
00000000
00000000
00000000
00000000
00000000
00000000
00000000
00000000
00000000
,
02300000
00000000
00000000
00000000
00000000
00000000
00000000
00000000
03000000
00000000
00000000
00000000
00000000
10000000
00000000
00000000
00000000
00000000
00000000
00000000
00000000
10000000
00000000
00000000
00000000
00000000
00000000
00000000
00000000
00000000
00000000
00000000
,
00200000
00000000
00000000
00000000
00000000
00000000
00000000
00000000
00300000
00000000
00000000
00000000
00000000
00010000
00000000
00000000
00000000
00000000
00000000
00000000
00000000
00010000
00000000
00000000
00000000
00000000
00000000
00000000
00000000
00000000
00000000
00000000
,
00002000
00000000
00000000
00000000
00000000
00000000
00000000
00000000
00003000
00000000
00000000
00000000
00000000
00010000
00000000
00000000
00000000
00000000
00000000
00000000
00000000
00010000
00000000
00000000
00000000
00000000
00000000
00000000
00000000
00010000
00000000
00000000
,
00010000
00000000
00000000
00000000
00000000
00000000
00000000
00000000
00000100
00000000
00000000
00000000
00000000
00000000
00000000
00000000
00001000
00000000
00000000
00000000
00000000
00000000
00000000
00000000
00001000
00000000
00000000
00000000
00000000
00000001
00000000
00000000
,
00000100
00000000
00000000
00000000
00000000
00000000
00000000
00000000
00000010
00000000
00000000
00000000
00000000
00001000
00000000
00000000
00000100
00000000
00000000
00000000
00000000
00000000
00000000
00000000
00000100
00000000
00000000
00000000
00000000
00001000
00000000
00000000
,
00000001
00000000
00000000
00000000
00000000
00000000
00000000
00000000
00000100
00000000
00000000
00000000
00000000
00000000
00000000
00000000
00000010
00000000
00000000
00000000
00000000
00000000
00000000
00000000
00000010
00000000
00000000
00000000
00000000
00010000
00000000
00000000
,
00000100
00000000
00000000
00000000
00000000
00000000
00000000
00000000
00010000
00000000
00000000
00000000
00000000
00001000
00000000
00000000
00100000
00000000
00000000
00000000
00000000
00000000
00000000
00000000
00100000
00000000
00000000
00000000
00000000
00010000
00000000
00000000
,
10000000
00000000
00000000
00000000
00000000
00000000
00000000
00000000
01000000
00000000
00000000
00000000
00000000
00000000
00000000
00000000
10000000
00000000
00000000
00000000
00000000
00000000
00000000
00000000
10000000
00000000
00000000
00000000
00000000
00010000
00000000
00000000
,
01000000
00000000
00000000
00000000
00000000
00000000
00000000
00000000
00100000
00000000
00000000
00000000
00000000
10000000
00000000
00000000
01000000
00000000
00000000
00000000
00000000
00000000
00000000
00000000
01000000
00000000
00000000
00000000
00000000
00100000
00000000
00000000
,
00001000
00000000
00000000
00000000
00000000
00000000
00000000
00000000
00010000
00000000
00000000
00000000
00000000
00000000
00000000
00000000
00000010
00000000
00000000
00000000
00000000
00000000
00000000
00000000
00000010
00000000
00000000
00000000
00000000
00001000
00000000
00000000
,
00000100
00000000
00000000
00000000
00000000
00000000
00000000
00000000
00000010
00000000
00000000
00000000
00000000
00000001
00000000
00000000
00000100
00000000
00000000
00000000
00000000
00000000
00000000
00000000
00000100
00000000
00000000
00000000
00000000
00000000
00000000
00000000
,
00002002
00000000
00003003
00000000
00001000
00000001
00001000
00000000
,
00000100
00000000
00010000
00000000
00010000
00001000
01000000
00000000
,
00100000
10100000
10010000
00010000
,
01000000
01010000
00110000
00100000
,
10000000
00000000
01000000
00100000
01000000
00000000
10000000
00000000
,
00010000
00000000
10000000
01000000
00010000
00000000
00001000
00000000
,
00000100
00000000
00000001
00000010
00000100
00000000
00001000
00000000
,
00000010
00000000
00000100
00000001
00000000
00000100
00001000
00000000
,
00010000
00000000
01000000
10000000
00100000
00000000
10000000
00000000
,
01000000
00000000
00010000
00001000
00010000
00000000
00000010
00000000
,
00000100
00000000
00000100
00000001
00001000
00000000
00000010
00000000
,
00000100
00000010
00001000
00000100
00000001
00000100
00001000
00000010
,
00000100
00000000
00000001
00000010
00001000
00000000
00010000
00000000
,
00100000
00000000
01000000
00010000
00100000
00000000
10000000
00000000
,
00100000
00000000
00010000
10000000
01000000
00000000
01000000
00000000
,
00010000
00000000
00001000
00010000
00000000
00000010
00001000
00000000
,
00000100
00000000
00000001
00000010
00000000
00000100
00001000
00000000
,
00000110
00001001
00000100
00001000
,
00000001
00000000
00000100
00000000
00000010
00001000
00000100
00000000
,
00010000
00000000
00001000
00000000
00100000
00010000
01000000
00010000
,
10000000
00000000
00100000
00000000
00000000
10000000
00010000
10000000
,
01000000
00010000
00001000
00000100
,
00000001
00000000
00000010
00000000
00000000
00000100
00001000
00000010
,
00000100
00000000
00001000
00000000
00010000
00001000
00100000
00000000
,
01000000
00000000
10000000
00000000
00000000
01000000
00100000
00000000
,
00010000
00000000
10000000
00000000
00000000
00100000
00010000
00000000
,
00001000
00010000
00001000
00000000
00000010
00001000
00000010
00000000
,
00000002
00000000
00000000
00000003
,
00000100
00000000
00001000
00000000
00000100
00000000
00000001
00000010
,
00001000
00000000
00000010
00000000
00000000
00001000
00010000
00000000
,
00100000
00000000
10000000
00000000
00100000
00000000
00010000
00100000
,
10000000
00000000
01000000
00000000
00000000
00010000
01000000
10000000
,
00100000
00000000
00100000
00000000
00000000
01000000
00001000
00000000
,
00010000
00000000
00010000
00000000
00000000
00000100
00001000
00000000
,
00000010
00000001
00000010
00001000
,
00000100
00000000
00010000
00000000
,
00002000
00000000
00000000
00000000
,
00003000
00000000
00000000
00000000
,
00010000
00000000
00010000
00000000
,
01000000
00000000
00100000
00000000
01000000
10000000
00100000
00000000
,
10000000
00000000
00010000
00000000
00000000
01000000
00010000
10000000
,
01000000
00010000
00001000
00000010
,
00000001
00000000
00000010
00000000
00000000
00000100
00001000
00000010
,
00000001
00000000
00000010
00000000
00001000
00000100
00010000
00000000
,
00001000
00000000
00100000
00000000
00000000
01000000
10000000
00000000
,
00100000
00000000
10000000
00000000
00000000
01000000
00010000
00000000
,
00001000
00010000
00000100
00000000
00001000
00000100
00000001
00000000
,
00000100
00000000
00000000
00001000
00000000
00000000
00000010
00000000
,
00000100
00000001
00000000
00000010
00000000
00000000
00000100
00000000
,
00001000
00000000
00000010
00000000
00000100
00001000
00010000
00000000
,
01000000
10000000
00010000
01000000
,
00100000
10000000
02000000
00000000
,
03010000
00000000
00001000
00000000
00000100
00000001
00000010
00000000
,
00000100
00000000
00000100
00000000
00000000
00000100
00001000
00000000
,
00000010
00000001
00000010
00001000
,
00000100
00000000
00000100
00010000
00000000
00010000
00001000
00000000
,
00100000
00000000
01000000
00000000
10000000
00100000
00010000
00000000
,
00100000
00000000
10000000
00000000
01000000
00010000
00001000
00000000
,
00001000
00000010
00000001
00000000
00000100
00000000
00001000
00000000
,
00000100
00000001
00000010
00000100
00001000
00000010
00000100
00000001
,
00001000
00000000
00000010
00000000
00000100
00001000
00010000
00000000
,
00100000
00000000
10000000
00000000
01000000
10000000
00100000
00000000
,
10000000
01000000
00010000
00000000
01000000
00010000
00001000
00000000
,
00010000
00001000
00000010
00000000
00000002
00000000
00000000
00000000
,
00000103
00000000
00000010
00000000
00000100
00001000
00000100
00000000
,
00000100
00000001
00000010
00000000
00000010
00001000
00010000
00000000
,
00001000
00010000
01000000
10000000
,
00200000
00000000
00000000
02300000
00000000
00000000
03002000
00000000
,
00013000
00000000
00000000
00000000
;

//---------------dance-double - ----------------
#NOTES:
     dance-double:
     :
     Hard:
     8:
     :
00000000
00000000
00000000
00000000
,
00000000
00000000
00000000
00000000
,
00000000
00000000
00000000
00000000
,
00000000
00000000
00000000
00000000
,
00000000
00000000
00000000
00000000
,
00000010
00000000
00000000
00001000
00000100
00000000
00000010
00000000
,
00000001
00000000
00000000
00000100
00001000
00000000
00010000
00000000
,
01000000
00000000
00000000
10000000
00100000
00000000
01000000
00000000
,
00010000
00000000
00000000
10000000
01000000
00000000
00100000
01000000
,
00010000
00000000
00000000
00001000
00000010
00000000
00000100
00000000
,
00000010
00000000
00000000
00000001
00000010
00000000
00001000
00000000
,
00010000
00000000
00000000
01000000
10000000
00000000
00100000
00000000
,
00020000
00000000
00000000
00000000
00000000
00000000
00031000
00000000
00000000
00000010
00000000
00000000
00000001
00000000
00000000
00000000
,
00000101
00000000
00000100
00001000
00010000
00000000
00100000
00000000
,
01000000
00000000
10000000
01000000
00010000
00000000
00020000
00000000
,
00130000
00000000
01000000
00010000
00001000
00000000
00000010
00000000
,
00000001
00000000
00000100
00001000
00000100
00000001
00000010
00000000
,
00000001
00000000
00000100
00001000
00010000
00000000
00001000
00000000
,
00020000
00000000
01030000
10000000
00010000
00100000
01000000
00000000
,
10000000
00000000
00100000
10000000
01000000
00000000
00010000
00000000
,
00011000
00000000
00000100
00010000
00000000
00000010
00000100
00000000
,
00000020
00000000
00000000
00001030
00000100
00000000
00000010
00000001
,
00002000
00000000
00000000
00003100
00000010
00000000
00000001
00000010
,
00002000
00000000
00000000
00013000
00001000
00000000
00010000
00100000
,
20000000
00000000
00000000
31000000
00100000
00010000
01000000
10000000
,
02000000
00000000
00000000
03100000
10000000
00000000
00100000
00010000
,
00001000
00000000
00001000
00000100
00000001
00000000
00000100
00000000
,
00000010
00000000
00000100
00001000
00010000
00001000
00010000
00100000
,
10000000
00000000
01000000
00100000
00020000
00000000
10000000
00000000
,
01030000
00010000
01001000
00000000
00000000
00001000
00000000
00001000
,
00010000
00000000
00001000
00000010
00000001
00001000
00000010
00000000
,
00000100
00000001
00001010
00000000
00000000
00000100
00000000
00000100
,
00001000
00000000
00010000
00001000
00010000
01000000
10000000
00100000
,
01000000
00001000
00101000
00000000
00000000
00010200
00000000
00001300
,
00000010
00000001
00000010
00000000
00000100
00001000
00010000
00000000
,
00100000
10000000
01010000
00000000
00000000
10000000
00000000
01000000
,
00010000
00001000
00010000
01000000
,
10100000
00000000
00100000
00010000
00001000
00000000
00000100
00000000
,
00000010
00000000
00000001
00000010
00001000
00000000
00002000
00000000
,
00003100
00000000
00000010
00001000
00010000
00000000
01000000
00000000
,
10000000
00000000
00100000
00010000
00100000
10000000
01000000
00000000
,
10000000
00000000
00100000
00010000
00001000
00000000
00010000
00000000
,
00002000
00000000
00003010
00000001
00001000
00000100
00000010
00000000
,
00000001
00000000
00000100
00000001
00000010
00000000
00001000
00000000
,
00011000
00000000
00010000
00100000
00000000
00100000
10000000
00000000
,
02000000
00000000
00000000
03010000
01000000
00000000
01000000
10000000
,
00020000
00000000
00000000
00130000
01000000
00000000
10000000
01000000
,
00020000
00000000
00000000
00031000
00010000
00000000
00001000
00000100
,
00000002
00000000
00000000
00000013
00000100
00001000
00000010
00000001
,
00000020
00000000
00000000
00000130
00000001
00000000
00000100
00001000
,
00010000
00000000
00010000
00100000
10000000
00000000
00100000
00000000
,
01000000
00000000
00100000
00010000
00001000
00010000
00001000
00000100
,
00000001
00000000
00000010
00000100
00002000
00000000
00000000
00000000
,
00003020
00000000
00000130
00001000
00010000
00000000
01000000
10000000
,
00010000
00000000
00100000
10000000
00100000
00000000
01000000
00010000
,
00001000
00000000
00001000
00000100
00000001
00000000
00000100
00000001
,
00000010
00000000
00000010
00001000
00010000
00000000
00001000
00010000
,
00100000
01000000
10000000
01010000
,
00201000
00000000
02300000
00000000
,
03010000
00001000
00000000
00010000
00000000
00000100
00000000
00001000
,
00000000
00000010
00000000
00000100
00000000
00000010
00001000
00000000
,
00000010
00010000
00001010
00000000
00000000
00000101
00000000
00000001
,
00000010
00000100
00001000
00000001
00000100
00001000
00010000
00000000
,
00001000
01000000
01010000
00000000
00000000
11000000
00000000
01000000
,
10000000
01000000
00010000
01000000
10000000
00100000
00010000
00000000
,
00001000
00000010
00001010
00000000
00000000
00000001
00000000
00000100
,
00001000
00010000
00011000
00000000
00000000
00100000
00000000
01000000
,
10000000
01010000
00001000
00010100
,
00001010
00000101
00000011
00001001
,
00001000
00100000
00010000
10000000
00100000
00000000
01000000
00000000
,
00010000
00100000
01000000
00010000
,
01000000
11000000
00010000
10100000
,
01000000
00010000
00100000
00001000
00010000
00000000
00001000
00000000
,
00010000
00000100
00001000
00000001
00000100
00000000
00000010
00000000
,
00001000
00000100
00000010
00001000
,
00000010
00000011
00001000
00000101
,
00000010
00001000
00000100
00010000
00001000
00000000
00000000
00000000
,
00010000
00000000
00000000
01000000
10000000
00010000
00100000
01000000
,
00010000
00000000
00000000
01000000
10000000
00000000
00100000
00010000
,
00001000
00010000
00000000
00001000
00000100
00000010
00001000
00000100
,
00000010
00000001
00000100
00001000
,
00010000
00000000
00000000
00100000
10000000
00010000
01000000
00100000
,
00010000
00000000
00000000
00100000
10000000
00000000
01000000
00010000
,
00001000
00010000
00000000
00001000
00000010
00000100
00001000
00000010
,
00000101
00000110
00001100
00000000
,
00010000
00000000
00000000
00100000
20000000
00000000
32000000
00000000
,
03020000
00000000
00032000
00000000
,
00003010
00000000
00000000
00000001
00000200
00000000
00002300
00000000
,
00023000
00000000
02030000
00000000
,
13000000
00000000
11000000
00000000
,
00010000
00000000
01010000
00000000
,
10000000
01000000
00100000
00000000
,
00101000
00000000
00010100
00000000
,
00010000
00010000
00001000
00010000
00000100
00000100
00001000
00000001
,
00001000
00000000
00000001
00000000
00000100
00000010
00000100
00001000
,
00000100
00001000
00001000
00010000
,
00010000
00001000
00010000
00000000
00001000
00000000
00000000
00000000
,
00001000
00001000
00010000
00001000
00100000
00100000
00010000
10000000
,
00010000
00000000
10000000
00000000
00100000
01000000
00100000
00010000
,
00100000
00010000
00010000
00001000
,
00001000
00010000
00001000
00000000
00010000
00000000
00000000
00000000
,
00001000
00001000
00000100
00000010
00001000
00001000
00000001
00000010
,
00000100
00000000
00001000
00000000
00000100
00010000
00001000
00100000
,
00010000
01000000
00010000
10000000
,
00100000
00010000
00001000
00000000
00010000
00000000
00000000
00000000
,
00002000
00023000
00030200
00020300
,
00032000
00203000
00302000
00023000
,
00031000
00000100
00000001
00000010
,
00002000
00020000
00033000
00011000
,
00100000
00000000
00000000
10000000
02000000
00000000
03020000
00000000
,
00230000
00000000
00301000
00000000
,
00000010
00000000
00000000
00001000
00000200
00000000
00000302
00000000
,
00000023
00000000
00010030
00000000
,
00010100
00000000
00101000
00000000
,
00110000
00000000
00001100
00000000
,
00010000
00001000
00010000
02000000
,
10000000
23000000
00010000
30010000
,
10000000
00000000
10000000
01000000
00010000
00000000
00000000
00000000
,
00010000
00001000
00000100
00000001
00000020
00000000
00000000
00000000
,
00000031
00000100
00001000
00010000
,
01000000
00000000
10000000
01000000
00200000
00000000
00300000
00000000
,
01000000
00000000
00000000
00100000
00010000
00000000
00100000
00000000
00001000
00000000
00000000
00000000
00000000
00000000
00000000
00000000
,
00010000
00001000
00010000
00001000
00010000
00000000
00000100
00000000
00002000
00000000
00000000
00000000
00000000
00000000
00000000
00000000
,
00003001
00000100
00001000
00010000
,
01000000
10000000
00010000
01000000
00100000
00000000
01100000
00000000
,
00001000
00000000
00000000
00000000
00000000
00000000
00000000
00000000
00001001
00000000
00000000
00000000
00000000
00000000
00000000
00000000
00001001
00000000
00000000
00000000
00000000
00000000
00000000
00000000
00000000
00000000
00000000
00000000
00000000
00000001
00000000
00000000
,
00001000
00000000
00000000
00000000
00000000
00000000
00000000
00000000
00001000
00000000
00000000
00000000
00000000
00000100
00000000
00000000
00010000
00000000
00000000
00000000
00001000
00000000
00000000
00000000
01000000
00000000
00000000
00000000
00000000
00010000
00000000
00000000
,
10000000
00000000
00000000
00000000
00000000
00000000
00000000
00000000
10010000
00000000
00000000
00000000
00000000
00000000
00000000
00000000
10010000
00000000
00000000
00000000
00000000
00000000
00000000
00000000
00000000
00000000
00000000
00000000
00000000
00010000
00000000
00000000
,
01000000
00000000
00000000
00000000
00000000
00000000
00000000
00000000
01000000
00000000
00000000
00000000
00000000
00010000
00000000
00000000
10000000
00000000
00000000
00000000
00010000
00000000
00000000
00000000
10000000
00000000
00000000
00000000
00000000
00010000
00000000
00000000
,
01000000
00000000
00000000
00000000
00000000
00000000
00000000
00000000
01010000
00000000
00000000
00000000
00000000
00000000
00000000
00000000
01010000
00000000
00000000
00000000
00000000
00000000
00000000
00000000
00000000
00000000
00000000
00000000
00000000
00100000
00000000
00000000
,
00001000
00000000
00000000
00000000
00000000
00000000
00000000
00000000
00001000
00000000
00000000
00000000
00000000
00010000
00000000
00000000
00000010
00000000
00000000
00000000
00000100
00000000
00000000
00000000
00000010
00000000
00000000
00000000
00000000
00001000
00000000
00000000
,
00000001
00000000
00000000
00000000
00000000
00000000
00000000
00000000
00001001
00000000
00000000
00000000
00000000
00000000
00000000
00000000
00001001
00000000
00000000
00000000
00000000
00000000
00000000
00000000
00000000
00000000
00000000
00000000
00000000
00001000
00000000
00000000
,
00000100
00000000
00000000
00000000
00000000
00000000
00000000
00000000
00000100
00000000
00000000
00000000
00000000
00010000
00000000
00000000
00001000
00000000
00000000
00000000
00010000
00000000
00000000
00000000
00001000
00000000
00000000
00000000
00000000
00000000
00000000
00000000
,
02000000
00000000
00000000
00000000
03010000
00000000
00000000
00000000
00000000
00000000
00000000
00000000
00000000
10000000
00000000
00000000
00010000
00000000
00000000
00000000
00000000
00000000
00000000
00000000
00010000
00000000
00000000
00000000
00000000
00100000
00000000
00000000
,
00020000
00000000
00000000
00000000
10030000
00000000
00000000
00000000
00000000
00000000
00000000
00000000
00000000
00010000
00000000
00000000
01000000
00000000
00000000
00000000
00000000
00000000
00000000
00000000
01000000
00000000
00000000
00000000
00000000
00001000
00000000
00000000
,
00020000
00000000
00000000
00000000
00030100
00000000
00000000
00000000
00000000
00000000
00000000
00000000
00000000
00001000
00000000
00000000
00000010
00000000
00000000
00000000
00000000
00000000
00000000
00000000
00000010
00000000
00000000
00000000
00000000
00001000
00000000
00000000
,
00000020
00000000
00000000
00000000
00000130
00000000
00000000
00000000
00000000
00000000
00000000
00000000
00000000
00000010
00000000
00000000
00001000
00000000
00000000
00000000
00000000
00000000
00000000
00000000
00001000
00000000
00000000
00000000
00000000
00000100
00000000
00000000
,
00020000
00000000
00000000
00000000
00031000
00000000
00000000
00000000
00000000
00000000
00000000
00000000
00000000
01000000
00000000
00000000
00010000
00000000
00000000
00000000
00000000
00000000
00000000
00000000
00010000
00000000
00000000
00000000
00000000
00100000
00000000
00000000
,
00020000
00000000
00000000
00000000
10030000
00000000
00000000
00000000
00000000
00000000
00000000
00000000
00000000
00010000
00000000
00000000
01000000
00000000
00000000
00000000
00000000
00000000
00000000
00000000
01000000
00000000
00000000
00000000
00000000
00100000
00000000
00000000
,
02000000
00000000
00000000
00000000
03010000
00000000
00000000
00000000
00000000
00000000
00000000
00000000
00000000
01000000
00000000
00000000
00001000
00000000
00000000
00000000
00000000
00000000
00000000
00000000
00001000
00000000
00000000
00000000
00000000
00010000
00000000
00000000
,
00000020
00000000
00000000
00000000
00000130
00000000
00000000
00000000
00000000
00000000
00000000
00000000
00000000
00000010
00000000
00000000
00001000
00000000
00000000
00000000
00000000
00000000
00000000
00000000
00001000
00000000
00000000
00000000
00000000
00000000
00000000
00000000
,
00000001
00000000
00000000
00000000
00000000
00001000
00000000
00000000
00000000
00000000
00000000
00000000
00000000
00001000
00000000
00000000
00000000
00000000
00000000
00000000
00000000
00001000
00000000
00000000
00000000
00000000
00000000
00000000
00000000
00000000
00000000
00000000
,
00001000
00000000
00000000
00000000
00000000
00000001
00000000
00000000
00000000
00000000
00000000
00000000
00000000
00000001
00000000
00000000
00000000
00000000
00000000
00000000
00000000
00000001
00000000
00000000
00000000
00000000
00000000
00000000
00000000
00001000
00000000
00000000
,
00000100
00000000
00000000
00000000
00000000
00001000
00000000
00000000
00000000
00000000
00000000
00000000
00000000
00001000
00000000
00000000
00000000
00000000
00000000
00000000
00000000
00001000
00000000
00000000
00000000
00000000
00000000
00000000
00000000
00000000
00000000
00000000
,
00020000
00000000
00000000
00000000
00000000
00000000
00000000
00000000
00030000
00000000
00000000
00000000
00000000
00001000
00000000
00000000
00000000
00000000
00000000
00000000
00000000
00001000
00000000
00000000
00000000
00000000
00000000
00000000
00000000
00001000
00000000
00000000
,
01000000
00000000
00000000
00000000
00010000
00000000
00000000
00000000
01000000
00000000
00000000
00000000
00000000
00010000
00000000
00000000
00100000
00000000
00000000
00000000
00000000
00000000
00000000
00000000
00100000
00000000
00000000
00000000
00000000
00010000
00000000
00000000
,
01000000
00000000
00000000
00000000
00100000
00000000
00000000
00000000
10000000
00000000
00000000
00000000
00000000
00010000
00000000
00000000
01000000
00000000
00000000
00000000
00000000
00000000
00000000
00000000
01000000
00000000
00000000
00000000
00000000
00100000
00000000
00000000
,
10000000
00000000
00000000
00000000
00010000
00000000
00000000
00000000
01000000
00000000
00000000
00000000
00000000
00001000
00000000
00000000
00100000
00000000
00000000
00000000
00000000
00000000
00000000
00000000
00100000
00000000
00000000
00000000
00000000
00001000
00000000
00000000
,
00010000
00000000
00000000
00000000
00000100
00000000
00000000
00000000
00001000
00000000
00000000
00000000
00000000
00000001
00000000
00000000
00000100
00000000
00000000
00000000
00000000
00000000
00000000
00000000
00000100
00000000
00000000
00000000
00000000
00000010
00000000
00000000
,
00001000
00000000
00000000
00000000
00000010
00000000
00000000
00000000
00000100
00000000
00000000
00000000
00000000
00000001
00000000
00000000
00000010
00000000
00000000
00000000
00000000
00000000
00000000
00000000
00000010
00000000
00000000
00000000
00000000
00000001
00000000
00000000
,
00001000
00000000
00000000
00000000
00000001
00000000
00000000
00000000
00000010
00000000
00000000
00000000
00000000
00000100
00000000
00000000
00001000
00000000
00000000
00000000
00000000
00000000
00000000
00000000
00001000
00000000
00000000
00000000
00000000
00000100
00000000
00000000
,
00010000
00000000
00000000
00000000
00001000
00000000
00000000
00000000
00100000
00000000
00000000
00000000
00000000
00010000
00000000
00000000
01000000
00000000
00000000
00000000
00000000
00000000
00000000
00000000
01000000
00000000
00000000
00000000
00000000
00010000
00000000
00000000
,
01000000
00000000
00000000
00000000
00100000
00000000
00000000
00000000
10000000
00000000
00000000
00000000
00000000
01000000
00000000
00000000
20000000
00000000
00000000
00000000
00000000
00000000
00000000
00000000
30000000
00000000
00000000
00000000
00000000
00000000
00000000
00000000
,
00020000
00000000
00000000
00000000
20030000
00000000
00000000
00000000
30000000
00000000
00000000
00000000
00000000
01000000
00000000
00000000
00000000
00000000
00000000
00000000
20000000
00000000
00000000
00000000
30000000
00000000
00000000
00000000
00000000
00000000
00000000
00000000
,
02000000
00000000
00000000
00000000
03200000
00000000
00000000
00000000
00300000
00000000
00000000
00000000
00000000
00010000
00000000
00000000
00000000
00000000
00000000
00000000
02000000
00000000
00000000
00000000
03000000
00000000
00000000
00000000
00001000
00000000
00000000
00000000
,
00020000
00000000
00000000
00000000
00030200
00000000
00000000
00000000
00000300
00000000
00000000
00000000
00000000
00001000
00000000
00000000
00000000
00000000
00000000
00000000
00000001
00000000
00000000
00000000
00000000
00000000
00000000
00000000
00000000
00000000
00000000
00000000
,
00000200
00000000
00000000
00000000
00000320
00000000
00000000
00000000
00000030
00000000
00000000
00000000
00000000
00001000
00000000
00000000
00000000
00000000
00000000
00000000
00000200
00000000
00000000
00000000
00000300
00000000
00000000
00000000
00000000
00000000
00000000
00000000
,
00000010
00000000
00000100
00001000
00000000
00000010
00000100
00000000
,
00000001
00000000
00000100
00001000
00000000
00010000
00100000
00000000
,
01000000
00000000
00010000
10000000
00000000
01000000
00010000
01000000
,
10000000
00000000
00100000
00000000
10000000
00100000
00010000
00000000
,
00001000
00000000
00000010
00000001
00000000
00000100
00001000
00000000
,
00000100
00000000
00000001
00000010
00000000
00000100
00001000
00000000
,
00000010
00000100
00000001
00000000
00000001
00000100
00001000
00000000
,
00010000
00000000
01000000
00000000
10000000
00010000
00100000
01000000
,
10000000
00000000
00100000
01000000
00000000
00010000
00100000
00001000
,
00010000
00000000
00001000
00000100
00000001
00000000
00000010
00000000
,
00000100
00000000
00010000
00001000
01000000
00010000
01000000
10000000
,
01000000
00000000
00100000
10000000
00100000
00010000
00001000
00000000
,
00000010
00000000
00000001
00000100
00000000
00000010
00000100
00000000
,
00001000
00000100
00000001
00000010
00001000
00010000
00100000
00000000
,
20000000
00000000
00000000
00000000
,
30100000
00000000
10000000
00000000
01000000
00000000
00000000
00100000
00000000
00000000
00010000
00000000
00000000
00000000
10000000
00000000
,
01000000
00010000
00001000
00100000
00000000
01000000
00000000
00000000
,
00010000
00001000
00010000
00001000
00000000
00000100
00000000
00000000
,
00000001
00000010
00001000
00000010
00000000
00000001
00000000
00000000
,
00000100
00000010
00001000
00000001
00000100
00001000
00010000
00000000
,
00100000
01000000
00001000
00010000
00000000
01000000
00000000
00000000
,
10000000
00100000
01000000
10000000
00000000
01000000
00000000
00000000
,
00100000
10000000
01000000
00010000
00000000
00001000
00000000
00000000
,
00000010
00000001
00000100
00000020
00000000
00000000
00000130
00000001
,
00000100
00000010
00001000
00000001
00000000
00000100
00001000
00000000
,
00010000
01000000
00100000
00001000
00000000
00010000
01000000
00000000
,
10000000
00100000
01000000
10000000
00000000
01000000
00000000
00000000
,
00100000
10000000
01000000
00010000
00000000
00001000
00000000
00000000
,
00000010
00000001
00000100
00000010
00000100
00001000
00000100
00000001
,
00000000
00000100
00001000
00010000
01000000
00000000
00100000
00000000
,
00010000
01000000
10000000
01000000
,
00010000
00000000
10000000
00000000
,
00200000
00000000
00000000
00000000
,
00320000
00000000
00000000
00000000
,
00032000
00000000
00000000
00000000
,
00003010
00000000
00000001
00000000
00000100
00000000
00000000
00000001
00000000
00000000
00000100
00000000
00000000
00000000
00000001
00000000
,
00001000
00000000
00000010
00000100
00000001
00000000
00000001
00000100
,
00001000
00000000
00010000
00100000
10000000
01000000
00100000
00000000
,
00010000
00000000
10000000
01000000
00010000
00000000
00001000
00100000
,
00001000
00000000
00010000
00001000
00000100
00000001
00000010
00000000
,
00000100
00001000
00000010
00000100
00000000
00000001
00000010
00000000
,
00000001
00001000
00000010
00000100
00000000
00000100
00001000
00000000
,
00010000
01000000
10000000
00100000
00000000
10000000
00100000
10000000
,
01000000
00000000
00100000
00010000
10000000
01000000
00100000
00000000
,
10010000
00000000
10000000
01000000
00010000
00000000
00001000
00000010
,
00000001
00000000
00001001
00000000
00000100
00000010
00001000
00000000
,
00000202
00000000
00000000
00000000
,
00000000
00000000
00000000
00000303
,
00000010
00000100
00000001
00000010
00001000
00010000
00001000
00000010
,
00000100
00001000
00000001
00000100
00001000
00000000
00010000
01000000
,
10000000
01000000
00010000
01000000
10000000
00000000
00100000
00010000
,
00001000
00000000
01000000
00100000
00000000
00010000
00001000
00000010
,
00000001
00000000
00000100
00000000
00000010
00001000
00000000
00001000
,
00000001
00000100
00001000
00010000
00000000
00000000
00100000
10000000
,
00000000
01000000
10000000
00000000
00010000
00100000
00000000
01000000
,
20000000
00000000
00000000
30000000
,
01000000
00100000
00001000
00000000
00010000
00000010
00000000
00001000
,
00000100
00000001
00000000
00000100
00001000
00000000
00000001
00000000
,
00000010
00001000
00000000
00010000
00000000
00100000
10000000
01000000
,
00000000
01000000
00000000
10000000
00100000
01000000
00010000
00000000
,
00100000
00000000
00001000
00010000
00001000
00000100
00000001
00000000
,
00000010
00001000
00000010
00000001
00000100
00000000
00000010
00000000
,
00000100
00001000
00010000
00000000
00100000
00000000
10000000
00000000
,
02000000
00000000
03020000
00000000
,
00031000
00000000
00000000
00000000
;
