#TITLE:Power 3 (Faster Harder Mix);
#ARTIST:DJ Diode;
#BANNER:Power 3 (Faster Harder Mix).png;
#BACKGROUND:Power 3 (Faster Harder Mix)-bg.png;
#CDTITLE:./CDTITLES/DanceDanceRevolution UNIVERSE2.png;
#MUSIC:Power 3 (Faster Harder Mix).ogg;
#SAMPLESTART:245.6;
#SAMPLELENGTH:15;
#DISPLAYBPM:130:175;
#BPMS:0=129.964,112=131.387,116=129.964,120=134.831,124=140.078,128=144.289,136=145.002,356=146.341,360=164.009,488=174.545,504=175;

//---------------dance-single - ----------------
#NOTES:
     dance-single:
     :
     Beginner:
     1:
     :
0000
0000
0000
0000
,
0000
0000
0000
0000
,
0000
0000
0000
0000
,
0000
0000
0000
0000
,
0000
0000
0000
0000
,
0010
0000
0000
0000
,
0010
0000
0100
0000
,
0010
0000
0000
0000
,
0010
0000
0100
0000
,
1000
0000
0001
0000
,
1000
0000
0001
0000
,
1000
0000
0100
0000
,
0000
0000
0000
0000
,
0010
0000
0000
0000
,
0010
0000
0100
0000
,
0010
0000
0000
0000
,
0010
0000
0100
0000
,
0001
0000
1000
0000
,
0001
0000
1000
0000
,
0001
0000
0100
0000
,
0010
0000
0100
0000
,
0001
0000
0000
0000
,
1000
0000
0001
0000
,
0010
0000
0001
0000
,
0000
1000
0000
0001
,
0000
0100
0000
0000
,
1000
0000
0001
0000
,
0010
0000
0001
0000
,
0000
1000
0000
0001
,
0000
0000
0010
0000
,
1000
0000
0010
0000
,
0001
0000
0010
0000
,
1000
0000
0100
0000
,
1001
0000
1001
0000
,
1000
0000
0110
0000
,
0001
0000
1001
0000
,
0010
0000
1001
0000
,
0001
0000
0110
0000
,
0001
0000
1001
0000
,
1000
0000
0110
0000
,
0010
0000
1001
0000
,
1000
0000
0110
0000
,
0010
0000
0100
0000
,
1000
0000
0010
0000
,
0001
0000
1000
0000
,
0010
0000
0100
0000
,
1000
0000
0100
0000
,
0010
0000
0001
0000
,
0010
0000
1000
0000
,
0010
0000
0001
0000
,
0001
0000
0100
0000
,
0100
0000
0010
0000
,
1000
0000
0100
0000
,
0010
0000
1001
0000
,
1000
0000
0010
0000
,
0010
0000
0100
0000
,
0001
0000
0010
0000
,
0100
0000
1001
0000
,
1000
0000
0001
0000
,
1000
0000
0001
0000
,
0010
0000
0001
0000
,
0010
0000
0001
0000
,
1000
0000
0010
0000
,
0001
0000
0010
0000
,
0100
0000
0100
0000
,
1000
0000
1000
0000
,
0010
0000
0010
0000
,
0100
0000
0100
0000
,
1000
0000
1000
0000
,
0001
0000
0001
0000
,
1001
0000
0001
0000
,
0010
0000
0100
0000
,
1000
0000
0001
0000
,
1001
0000
1000
0000
,
1000
0000
0010
0000
,
0010
0000
0100
0000
,
0001
0000
0010
0000
,
0100
0000
1001
0000
,
0001
0000
0100
0000
,
0100
0000
0010
0000
,
1000
0000
0100
0000
,
0010
0000
1001
0000
,
1000
0000
0110
0000
,
0001
0000
1001
0000
,
0010
0000
1001
0000
,
0001
0000
0110
0000
,
0001
0000
1001
0000
,
1000
0000
0110
0000
,
0010
0000
1001
0000
,
1000
0000
0110
0000
,
1000
0000
0000
0000
,
0000
0010
0000
0001
,
0000
0000
0000
0000
,
0000
0000
0001
0000
,
0100
0000
0000
0000
,
0000
0000
0100
0000
,
0100
0000
0000
0000
,
0000
0001
0000
0100
,
0000
0000
0000
0000
,
0000
1000
0000
0100
,
0000
0000
0000
0000
,
0000
0000
0010
0000
,
0010
0000
0000
0000
,
0000
0000
0001
0000
,
0100
0000
0000
0000
,
0000
0001
0000
0100
,
0000
0000
0000
0000
,
0000
0100
0000
0100
,
0000
0000
0000
0000
,
0000
0000
1000
0000
,
0100
0000
0000
0000
,
0000
0000
0010
0000
,
0001
0000
0000
0000
,
0000
0100
0000
1000
,
0000
0000
0000
0000
,
0000
0001
0000
0010
,
0000
0000
0000
0000
,
0000
0000
1000
0000
,
0100
0000
0000
0000
,
0000
0000
1000
0000
,
1000
0000
0000
0000
,
0000
1000
0000
0010
,
0000
0000
0000
0001
,
0000
1000
0000
0000
,
0001
0000
0000
1000
,
0000
0001
0000
0000
,
0001
0000
0000
0000
,
1000
0000
0000
0000
,
1001
0000
0110
0000
,
0010
0000
0001
0000
,
0010
0000
0100
0000
,
0001
0000
0000
0000
,
0010
0000
0001
0000
,
1000
0000
0010
0000
,
0010
0000
0100
0000
,
0001
0000
0010
0000
,
1000
0000
0001
0000
,
0110
0000
1001
0000
,
0100
0000
0010
0000
,
1000
0000
0010
0000
,
0100
0000
0001
0000
,
0010
0000
0001
0000
,
0010
0000
0001
0000
,
1000
0000
0100
0000
,
0010
0000
0001
0000
,
0100
0000
0000
0000
,
0010
0000
1000
0000
,
0010
0000
0010
0000
,
0100
0000
0010
0000
,
1000
0000
0010
0000
,
1000
0000
1000
0000
,
0001
0000
0001
0000
,
0100
0000
0100
0000
,
0010
0000
0010
0000
,
1000
0000
0001
0000
,
0100
0000
0010
0000
,
0100
0000
0001
0000
,
1000
0000
1000
0000
,
0100
0000
0010
0000
,
0001
0000
1000
0000
,
0100
0000
0100
0000
,
1000
0000
1000
0000
,
0001
0000
1000
0000
,
0010
0000
0100
0000
,
0010
0000
1000
0000
,
0001
0000
0001
0000
,
0010
0000
0100
0000
,
1000
0000
0001
0000
,
0010
0000
0010
0000
,
0001
0000
0001
0000
,
0100
0000
0010
0000
,
1000
0000
0000
0000
,
0100
0000
1000
0000
,
0001
0000
0100
0000
,
0100
0000
0010
0000
,
1000
0000
0100
0000
,
0001
0000
1000
0000
,
0110
0000
1001
0000
,
0001
0000
0010
0000
,
0100
0000
0000
0000
,
1000
0000
0001
0000
,
0010
0000
0000
0000
,
0001
0000
1000
0000
,
0100
0000
0000
0000
,
0010
0000
0001
0000
,
1000
0000
0000
0000
,
0001
0000
1000
0000
,
0010
0000
0100
0000
,
0010
0000
1000
0000
,
0001
0000
0001
0000
,
0010
0000
0000
0000
,
1000
0000
0000
0000
,
0010
0000
0100
0000
,
0001
0000
0001
0000
,
0110
0000
0000
0000
;

//---------------dance-single - ----------------
#NOTES:
     dance-single:
     :
     Easy:
     3:
     :
0000
0000
0000
0000
,
0000
0000
0000
0000
,
0000
0000
0000
0000
,
0000
0000
0000
0000
,
0000
0000
0000
0000
,
0010
0000
0000
0000
,
0010
0001
0100
0000
,
0010
0000
0000
0000
,
0010
1000
0100
0000
,
1000
0000
0001
0000
,
1000
0000
0001
0000
,
1000
0001
0100
0000
,
0000
0000
0000
0000
,
0010
0000
0000
0000
,
0010
1000
0100
0000
,
0010
0000
0000
0000
,
0010
0001
0100
0000
,
0001
0000
1000
0000
,
0001
0000
1000
0000
,
0001
1000
0100
0000
,
0010
0001
0100
1000
,
0001
0100
0000
0000
,
1000
0100
0001
0000
,
0010
0000
0001
0000
,
0000
1000
0000
0001
,
0001
0100
0000
0000
,
1000
0100
0001
0000
,
0010
0000
0001
0000
,
0000
1000
0000
0001
,
1000
0000
0010
0000
,
1000
0000
0010
0010
,
0001
0000
0010
0100
,
1000
0000
0100
0010
,
1001
0000
1001
0000
,
1000
0010
0101
0101
,
0001
0000
0000
0000
0000
0000
0000
0000
0000
0000
0000
0000
0000
0000
0000
0000
0010
0000
0000
0000
0000
0000
0000
0000
0000
0000
0000
0000
0000
0000
0000
0000
2200
0000
0000
0000
0000
0000
0000
0000
0000
0000
0000
0000
0000
0000
0000
3300
0000
0000
0000
0000
0000
0000
0000
0000
0000
0000
0000
0000
0000
0000
0000
0000
,
0010
0100
1001
1001
,
0001
0000
0000
0000
0000
0000
0000
0000
0000
0000
0000
0000
0000
0000
0000
0000
1000
0000
0000
0000
0000
0000
0000
0000
0000
0000
0000
0000
0000
0000
0000
0000
0220
0000
0000
0000
0000
0000
0000
0000
0000
0000
0000
0000
0000
0000
0000
0330
0000
0000
0000
0000
0000
0000
0000
0000
0000
0000
0000
0000
0000
0000
0000
0000
,
0001
0010
1100
1100
,
1000
0000
0000
0000
0000
0000
0000
0000
0000
0000
0000
0000
0000
0000
0000
0000
0010
0000
0000
0000
0000
0000
0000
0000
0000
0000
0000
0000
0000
0000
0000
0000
0202
0000
0000
0000
0000
0000
0000
0000
0000
0000
0000
0000
0000
0000
0000
0303
0000
0000
0000
0000
0000
0000
0000
0000
0000
0000
0000
0000
0000
0000
0000
0000
,
0010
0100
1001
1001
,
1000
0000
0000
0000
0000
0000
0000
0000
0000
0000
0000
0000
0000
0000
0000
0000
0001
0000
0000
0000
0000
0000
0000
0000
0000
0000
0000
0000
0000
0000
0000
0000
0220
0000
0000
0000
0000
0000
0000
0000
0000
0000
0000
0000
0000
0000
0000
0330
0000
0000
0000
0000
0000
0000
0000
0000
0000
0000
0000
0000
0000
0000
0000
0000
,
0020
0000
0000
0000
0000
0000
0000
0000
0000
0000
0000
0000
0000
0000
0000
0000
0000
0000
0000
0000
0000
0000
0000
0000
0000
0000
0000
0000
0000
0000
0000
0030
0200
0000
0000
0000
0000
0000
0000
0000
0000
0000
0000
0000
0000
0000
0000
0000
0000
0000
0000
0000
0000
0000
0000
0000
0000
0000
0000
0000
0000
0000
0000
0300
,
2000
0000
0000
0000
0000
0000
0000
0000
0000
0000
0000
0000
0000
0000
0000
0000
0000
0000
0000
0000
0000
0000
0000
0000
0000
0000
0000
0000
0000
0000
0000
3000
0010
0000
0000
0000
0000
0000
0000
0000
0000
0000
0000
0000
0000
0000
0000
0000
0100
0000
0000
0000
0000
0000
0000
0000
0000
0000
0000
0000
0000
0000
0000
0000
,
0002
0000
0000
0000
0000
0000
0000
0000
0000
0000
0000
0000
0000
0000
0000
0000
0000
0000
0000
0000
0000
0000
0000
0000
0000
0000
0000
0000
0000
0000
0000
0003
2000
0000
0000
0000
0000
0000
0000
0000
0000
0000
0000
0000
0000
0000
0000
0000
0000
0000
0000
0000
0000
0000
0000
0000
0000
0000
0000
0000
0000
0000
0000
3000
,
0020
0000
0000
0000
0000
0000
0000
0000
0000
0000
0000
0000
0000
0000
0000
0000
0000
0000
0000
0000
0000
0000
0000
0000
0000
0000
0000
0000
0000
0000
0000
0030
0100
0000
0000
0000
0000
0000
0000
0000
0000
0000
0000
0000
0000
0000
0000
0000
0001
0000
0000
0000
0000
0000
0000
0000
0000
0000
0000
0000
0000
0000
0000
0000
,
2000
0000
0000
0000
0000
0000
0000
0000
0000
0000
0000
0000
0000
0000
0000
0000
0000
0000
0000
0000
0000
0000
0000
0000
0000
0000
0000
0000
0000
0000
0000
3000
0200
0000
0000
0000
0000
0000
0000
0000
0000
0000
0000
0000
0000
0000
0000
0000
0000
0000
0000
0000
0000
0000
0000
0000
0000
0000
0000
0000
0000
0000
0000
0300
,
0020
0000
0000
0000
0000
0000
0000
0000
0000
0000
0000
0000
0000
0000
0000
0000
0000
0000
0000
0000
0000
0000
0000
0000
0000
0000
0000
0000
0000
0000
0000
0030
0001
0000
0000
0000
0000
0000
0000
0000
0000
0000
0000
0000
0000
0000
0000
0000
0100
0000
0000
0000
0000
0000
0000
0000
0000
0000
0000
0000
0000
0000
0000
0000
,
0020
0000
0000
0000
0000
0000
0000
0000
0000
0000
0000
0000
0000
0000
0000
0000
0000
0000
0000
0000
0000
0000
0000
0000
0000
0000
0000
0000
0000
0000
0000
0030
2000
0000
0000
0000
0000
0000
0000
0000
0000
0000
0000
0000
0000
0000
0000
0000
0000
0000
0000
0000
0000
0000
0000
0000
0000
0000
0000
0000
0000
0000
0000
3000
,
0010
0100
0001
1000
,
0002
0000
0000
0000
0000
0000
0000
0000
0000
0000
0000
0000
0000
0000
0000
0000
0100
0000
0000
0000
0000
0000
0000
0000
0000
0000
0000
0000
0000
0000
0000
0000
0100
0000
0000
0000
0000
0000
0000
0000
0000
0000
0000
0000
0000
0000
0000
0003
0100
0000
0000
0000
0000
0000
0000
0000
0000
0000
0000
0000
0000
0000
0000
0000
,
0200
0000
0000
0000
0000
0000
0000
0000
0000
0000
0000
0000
0000
0000
0000
0000
0010
0000
0000
0000
0000
0000
0000
0000
0000
0000
0000
0000
0000
0000
0000
0000
0010
0000
0000
0000
0000
0000
0000
0000
0000
0000
0000
0000
0000
0000
0000
0300
0010
0000
0000
0000
0000
0000
0000
0000
0000
0000
0000
0000
0000
0000
0000
0000
,
2000
0000
0000
0000
0000
0000
0000
0000
0000
0000
0000
0000
0000
0000
0000
0000
0100
0000
0000
0000
0000
0000
0000
0000
0000
0000
0000
0000
0000
0000
0000
0000
0100
0000
0000
0000
0000
0000
0000
0000
0000
0000
0000
0000
0000
0000
0000
3000
0100
0000
0000
0000
0000
0000
0000
0000
0000
0000
0000
0000
0000
0000
0000
0000
,
0010
0100
1001
0000
,
2000
0000
0000
0000
0000
0000
0000
0000
0000
0000
0000
0000
0000
0000
0000
0000
0010
0000
0000
0000
0000
0000
0000
0000
0000
0000
0000
0000
0000
0000
0000
0000
0010
0000
0000
0000
0000
0000
0000
0000
0000
0000
0000
0000
0000
0000
0000
3000
0010
0000
0000
0000
0000
0000
0000
0000
0000
0000
0000
0000
0000
0000
0000
0000
,
0020
0000
0000
0000
0000
0000
0000
0000
0000
0000
0000
0000
0000
0000
0000
0000
0100
0000
0000
0000
0000
0000
0000
0000
0000
0000
0000
0000
0000
0000
0000
0000
0100
0000
0000
0000
0000
0000
0000
0000
0000
0000
0000
0000
0000
0000
0000
0030
0100
0000
0000
0000
0000
0000
0000
0000
0000
0000
0000
0000
0000
0000
0000
0000
,
0002
0000
0000
0000
0000
0000
0000
0000
0000
0000
0000
0000
0000
0000
0000
0000
0010
0000
0000
0000
0000
0000
0000
0000
0000
0000
0000
0000
0000
0000
0000
0000
0010
0000
0000
0000
0000
0000
0000
0000
0000
0000
0000
0000
0000
0000
0000
0003
0010
0000
0000
0000
0000
0000
0000
0000
0000
0000
0000
0000
0000
0000
0000
0000
,
0100
0010
1001
0000
,
2000
0000
0000
0000
0000
0000
0000
0000
0000
0000
0000
0000
0000
0000
0000
3000
0100
0000
0000
0000
0000
0000
0000
0000
0000
0000
0000
0000
0000
0000
0000
0000
0002
0000
0000
0000
0000
0000
0000
0000
0000
0000
0000
0000
0000
0000
0000
0003
0100
0000
0000
0000
0000
0000
0000
0000
0000
0000
0000
0000
0000
0000
0000
0000
,
2000
0000
0000
0000
0000
0000
0000
0000
0000
0000
0000
0000
0000
0000
0000
3000
0100
0000
0000
0000
0000
0000
0000
0000
0000
0000
0000
0000
0000
0000
0000
0000
0002
0000
0000
0000
0000
0000
0000
0000
0000
0000
0000
0000
0000
0000
0000
0003
0100
0000
0000
0000
0000
0000
0000
0000
0000
0000
0000
0000
0000
0000
0000
0000
,
0020
0000
0000
0000
0000
0000
0000
0000
0000
0000
0000
0000
0000
0000
0000
0030
0100
0000
0000
0000
0000
0000
0000
0000
0000
0000
0000
0000
0000
0000
0000
0000
0002
0000
0000
0000
0000
0000
0000
0000
0000
0000
0000
0000
0000
0000
0000
0003
0100
0000
0000
0000
0000
0000
0000
0000
0000
0000
0000
0000
0000
0000
0000
0000
,
0020
0000
0000
0000
0000
0000
0000
0000
0000
0000
0000
0000
0000
0000
0000
0030
0100
0000
0000
0000
0000
0000
0000
0000
0000
0000
0000
0000
0000
0000
0000
0000
0002
0000
0000
0000
0000
0000
0000
0000
0000
0000
0000
0000
0000
0000
0000
0003
0100
0000
0000
0000
0000
0000
0000
0000
0000
0000
0000
0000
0000
0000
0000
0000
,
1000
0100
0010
0011
,
0001
0100
0010
1010
,
0100
0010
0100
0110
,
2000
0000
0000
0000
0000
0000
0000
0000
0000
0000
0000
0000
0000
0000
0000
3000
0002
0000
0000
0000
0000
0000
0000
0000
0000
0000
0000
0000
0000
0000
0000
0003
2000
0000
0000
0000
0000
0000
0000
0000
0000
0000
0000
0000
0000
0000
0000
3000
0002
0000
0000
0000
0000
0000
0000
0000
0000
0000
0000
0000
0000
0000
0000
0003
,
0010
0010
0010
0010
,
0100
0100
0100
0110
,
1000
1000
1000
1000
,
0001
0001
0001
0001
,
1001
0000
0000
0000
0000
0000
0000
0000
0000
0000
0000
0000
0000
0000
0000
0000
2000
0000
0000
0000
0000
0000
0000
0000
0000
0000
0000
0000
0000
0000
0000
0000
0001
0000
0000
0000
0000
0000
0000
0000
0000
0000
0000
0000
0000
0000
0000
3000
0002
0000
0000
0000
0000
0000
0000
0000
0000
0000
0000
0000
0000
0000
0000
0000
,
0010
0000
0000
0000
0000
0000
0000
0000
0000
0000
0000
0000
0000
0000
0000
0003
0020
0000
0000
0000
0000
0000
0000
0000
0000
0000
0000
0000
0000
0000
0000
0000
0100
0000
0000
0000
0000
0000
0000
0000
0000
0000
0000
0000
0000
0000
0000
0030
0200
0000
0000
0000
0000
0000
0000
0000
0000
0000
0000
0000
0000
0000
0000
0000
,
1000
0000
0000
0000
0000
0000
0000
0000
0000
0000
0000
0000
0000
0000
0000
0300
2000
0000
0000
0000
0000
0000
0000
0000
0000
0000
0000
0000
0000
0000
0000
0000
0001
0000
0000
0000
0000
0000
0000
0000
0000
0000
0000
0000
0000
0000
0000
3000
0001
0000
0000
0000
0000
0000
0000
0000
0000
0000
0000
0000
0000
0000
0000
0000
,
1001
0001
1000
0010
,
2000
0000
0000
0000
0000
0000
0000
0000
0000
0000
0000
0000
0000
0000
0000
0000
0010
0000
0000
0000
0000
0000
0000
0000
0000
0000
0000
0000
0000
0000
0000
0000
0010
0000
0000
0000
0000
0000
0000
0000
0000
0000
0000
0000
0000
0000
0000
3000
0010
0000
0000
0000
0000
0000
0000
0000
0000
0000
0000
0000
0000
0000
0000
0000
,
0020
0000
0000
0000
0000
0000
0000
0000
0000
0000
0000
0000
0000
0000
0000
0000
0100
0000
0000
0000
0000
0000
0000
0000
0000
0000
0000
0000
0000
0000
0000
0000
0100
0000
0000
0000
0000
0000
0000
0000
0000
0000
0000
0000
0000
0000
0000
0030
0100
0000
0000
0000
0000
0000
0000
0000
0000
0000
0000
0000
0000
0000
0000
0000
,
0002
0000
0000
0000
0000
0000
0000
0000
0000
0000
0000
0000
0000
0000
0000
0000
0010
0000
0000
0000
0000
0000
0000
0000
0000
0000
0000
0000
0000
0000
0000
0000
0010
0000
0000
0000
0000
0000
0000
0000
0000
0000
0000
0000
0000
0000
0000
0003
0010
0000
0000
0000
0000
0000
0000
0000
0000
0000
0000
0000
0000
0000
0000
0000
,
0100
0010
1001
0000
,
0002
0000
0000
0000
0000
0000
0000
0000
0000
0000
0000
0000
0000
0000
0000
0000
0100
0000
0000
0000
0000
0000
0000
0000
0000
0000
0000
0000
0000
0000
0000
0000
0100
0000
0000
0000
0000
0000
0000
0000
0000
0000
0000
0000
0000
0000
0000
0003
0100
0000
0000
0000
0000
0000
0000
0000
0000
0000
0000
0000
0000
0000
0000
0000
,
0200
0000
0000
0000
0000
0000
0000
0000
0000
0000
0000
0000
0000
0000
0000
0000
0010
0000
0000
0000
0000
0000
0000
0000
0000
0000
0000
0000
0000
0000
0000
0000
0010
0000
0000
0000
0000
0000
0000
0000
0000
0000
0000
0000
0000
0000
0000
0300
0010
0000
0000
0000
0000
0000
0000
0000
0000
0000
0000
0000
0000
0000
0000
0000
,
2000
0000
0000
0000
0000
0000
0000
0000
0000
0000
0000
0000
0000
0000
0000
0000
0100
0000
0000
0000
0000
0000
0000
0000
0000
0000
0000
0000
0000
0000
0000
0000
0100
0000
0000
0000
0000
0000
0000
0000
0000
0000
0000
0000
0000
0000
0000
3000
0100
0000
0000
0000
0000
0000
0000
0000
0000
0000
0000
0000
0000
0000
0000
0000
,
0010
0100
1001
0000
,
1000
0010
0101
0101
,
0001
0000
0000
0000
0000
0000
0000
0000
0000
0000
0000
0000
0000
0000
0000
0000
0010
0000
0000
0000
0000
0000
0000
0000
0000
0000
0000
0000
0000
0000
0000
0000
2200
0000
0000
0000
0000
0000
0000
0000
0000
0000
0000
0000
0000
0000
0000
3300
0000
0000
0000
0000
0000
0000
0000
0000
0000
0000
0000
0000
0000
0000
0000
0000
,
0010
0100
1001
1001
,
0001
0000
0000
0000
0000
0000
0000
0000
0000
0000
0000
0000
0000
0000
0000
0000
1000
0000
0000
0000
0000
0000
0000
0000
0000
0000
0000
0000
0000
0000
0000
0000
0220
0000
0000
0000
0000
0000
0000
0000
0000
0000
0000
0000
0000
0000
0000
0330
0000
0000
0000
0000
0000
0000
0000
0000
0000
0000
0000
0000
0000
0000
0000
0000
,
0001
0010
1100
1100
,
1000
0000
0000
0000
0000
0000
0000
0000
0000
0000
0000
0000
0000
0000
0000
0000
0010
0000
0000
0000
0000
0000
0000
0000
0000
0000
0000
0000
0000
0000
0000
0000
0202
0000
0000
0000
0000
0000
0000
0000
0000
0000
0000
0000
0000
0000
0000
0303
0000
0000
0000
0000
0000
0000
0000
0000
0000
0000
0000
0000
0000
0000
0000
0000
,
0010
0100
1001
1001
,
1000
0000
0000
0000
0000
0000
0000
0000
0000
0000
0000
0000
0000
0000
0000
0000
0001
0000
0000
0000
0000
0000
0000
0000
0000
0000
0000
0000
0000
0000
0000
0000
0220
0000
0000
0000
0000
0000
0000
0000
0000
0000
0000
0000
0000
0000
0000
0330
0000
0000
0000
0000
0000
0000
0000
0000
0000
0000
0000
0000
0000
0000
0000
0000
,
2000
0000
0000
3001
0000
0000
0000
0000
,
0000
0010
1000
0001
,
0020
0000
0000
0031
0000
0000
0000
0000
,
0000
0000
0001
1000
,
0200
0000
0000
0310
0000
0000
0000
0000
,
0000
0000
0100
1000
,
0200
0000
0000
1300
0000
0000
0000
0000
,
0000
0001
1000
0100
,
0020
0000
0000
0031
0000
0000
0000
0000
,
0000
1000
0001
0100
,
0020
0000
0000
1030
0000
0000
0000
0000
,
0000
0000
0010
1000
,
0020
0000
0000
0130
0000
0000
0000
0000
,
0000
0000
0001
1000
,
0200
0000
0000
0310
0000
0000
0000
0000
,
0000
0002
0023
0230
,
2300
0000
0000
3100
0000
0000
0000
0000
,
0000
0100
1000
0100
,
0020
0000
0000
0031
0000
0000
0000
0000
,
0000
0000
1000
0010
,
0200
0000
0000
0301
0000
0000
0000
0000
,
0000
0000
0010
1000
,
0002
0000
0000
0103
0000
0000
0000
0000
,
0000
0100
0010
1000
,
0002
0000
0000
0023
0000
0000
0000
0000
,
0030
0002
0203
0320
,
2030
0000
0000
3200
0000
0000
0000
0000
,
0300
0000
2000
3020
,
0230
0000
0000
0302
0000
0000
0000
0000
,
0003
0000
2000
3200
,
2300
0000
0000
3020
0000
0000
0000
0000
,
0030
0000
0000
0000
0000
0000
0000
0000
0000
0000
0000
0000
0000
0000
0000
0000
2000
0000
0000
0000
0000
0000
0000
0000
0000
0000
0000
0000
0000
0000
0000
0000
3200
0000
0000
0000
0000
0000
0000
0000
0000
0000
0000
0000
0000
0000
0000
0000
0320
0000
0000
0000
0000
0000
0000
0000
0000
0000
0000
0000
0000
0000
0000
0030
,
2000
0000
0000
3001
,
0001
1000
0001
0000
,
0002
0000
0000
1003
,
1000
0001
1000
0000
,
0002
0000
0000
0003
,
2000
0000
0000
3000
,
1001
0000
0110
0000
,
0010
0100
0001
1000
,
0010
0000
0100
0000
,
0001
0000
0000
0000
,
0010
0000
0001
0000
,
1000
0000
0010
0010
,
0010
0000
0100
0000
,
0001
1000
0010
0000
,
1000
0000
0001
0000
,
0110
0000
1001
0000
,
0100
0000
0010
0000
,
1000
0010
0010
0000
,
0100
0000
0001
0000
,
0010
0000
0001
0000
,
0010
0100
0001
0000
,
1000
0100
0100
0000
,
0010
0000
0001
0000
,
0200
0000
0000
0300
,
0010
0000
1000
0000
,
0010
0001
0010
0000
,
0100
0000
0010
0000
,
1000
0000
0010
0000
,
1000
0100
1000
0000
,
0001
0010
0001
0000
,
0100
0001
0100
0000
,
0010
0010
0010
0000
,
1000
0000
0001
0000
,
0100
0000
0010
0000
,
0100
0000
0001
0000
,
1000
0010
1000
0000
,
0100
0000
0010
0000
,
0001
0000
1000
0000
,
0100
0010
0100
0000
,
1000
1000
1000
0000
,
0001
0000
1000
0000
,
0010
0000
0100
0000
,
0010
0000
1000
0000
,
0001
0100
0001
0000
,
0010
0000
0100
0000
,
1000
0000
0001
0000
,
0010
0100
0010
0000
,
0001
0001
0001
0000
,
0100
0000
0010
0000
,
1000
0000
0000
0000
,
0100
0000
1000
0000
,
0001
0000
0100
0100
,
0100
0000
0010
0000
,
1000
0001
0100
0000
,
0001
0000
1000
0000
,
0110
0000
1001
0000
,
0001
0000
0010
0000
,
0200
0000
0000
0300
,
1000
0000
0001
0000
,
0020
0000
0000
0030
,
0001
0000
1000
0000
,
0200
0000
0000
0300
,
0010
0000
0001
0000
,
2000
0000
0000
3000
,
0001
0000
1000
0000
,
0010
0000
0100
0000
,
0010
0000
1000
0000
,
0001
0100
0001
0000
,
0020
0000
0000
0030
,
2000
0000
0000
3000
,
0010
0000
0100
0000
,
0001
1000
0001
0000
,
0110
0000
0000
0000
;

//---------------dance-single - ----------------
#NOTES:
     dance-single:
     :
     Medium:
     6:
     :
0000
0000
0000
0000
,
0000
0000
0000
0000
,
0000
0000
0000
0000
,
0000
0000
0000
0000
,
0000
0000
0000
0000
,
0101
0000
0001
0000
1000
0000
1000
0001
,
1000
0110
0001
0001
,
1000
0000
1000
0000
0001
0000
0001
1000
,
0001
0110
1000
1000
,
0010
0100
0010
0000
0001
0000
0100
0000
,
0001
0100
0001
0000
0100
0000
1000
0000
,
0010
1001
1000
0100
,
1000
0001
0100
0001
,
0001
0010
0100
1000
,
1000
1000
0100
0010
,
1000
1000
0010
0000
0100
0000
0001
0000
,
0101
0001
0100
0010
,
1000
0100
1000
0000
1000
0000
0101
0000
,
0001
0100
0001
0000
0001
0000
0100
0000
,
0010
0100
0010
0100
0010
0000
0010
0000
,
1001
1000
0110
0010
,
1000
0101
0010
0000
,
0001
0100
0001
0000
1000
0100
1000
0000
,
0100
0001
0100
0010
,
1000
0011
1001
0101
,
0010
0101
1000
0100
,
0010
0001
0001
1100
,
1000
1000
0001
0001
,
1000
0000
1000
0001
1000
0100
1000
0001
,
1000
0000
0001
0000
0010
0100
0010
0000
,
1000
0000
0001
0000
0100
0010
0100
0000
,
0001
0000
1000
0000
0010
0100
0010
0000
,
0001
0000
1000
0000
0100
0010
0100
0000
,
1000
0100
0010
0001
,
1000
0000
0001
0000
0100
0010
0100
0000
,
0010
0000
0000
0000
0000
0000
0000
0000
0100
0000
0000
0000
0000
0000
0000
0000
0010
0000
0000
0000
0000
0000
0000
0000
1000
0000
0000
0000
0000
0000
0000
0000
0001
0000
0000
0000
0000
0000
0000
0000
0200
0000
0000
0000
0000
0000
0000
0000
0000
0000
0000
0000
0000
0000
0000
0000
0000
0000
0000
0000
0000
0000
0000
0300
,
0010
0000
0100
0000
0001
1000
0001
0000
,
1000
0001
1000
0000
0100
1000
0010
1000
,
0010
0000
0001
0000
1000
0100
1000
0000
,
0010
0000
0000
0000
0000
0000
0000
0000
0001
0000
0000
0000
0000
0000
0000
0000
0010
0000
0000
0000
0000
0000
0000
0000
0000
0000
0000
0000
0000
0000
0000
0000
1000
0000
0000
0000
0000
0000
0000
0000
0002
0000
0000
0000
0000
0000
0000
0000
0000
0000
0000
0000
0000
0000
0000
0000
0000
0000
0000
0000
0000
0000
0000
0003
,
0010
0000
0100
0000
1000
0010
1000
0000
,
0100
0001
0100
0000
1000
0001
1000
0001
,
0010
0100
0000
0000
0100
1000
0000
0000
,
1000
0001
0000
0000
0001
0100
0010
0000
,
0010
1000
0000
0000
1000
0001
0000
0000
,
0001
0000
0100
0000
0000
0000
0000
0000
0010
0000
0000
1000
0000
0000
0001
0000
,
1000
0100
0000
0000
0010
0001
0000
0000
,
0100
0010
0000
0000
0010
1000
0100
0000
,
0010
0001
0000
0000
0100
0010
0000
0000
,
1000
0000
0100
0000
0010
0000
0000
0001
0000
0000
1000
0000
0000
0000
0000
0000
,
0010
0100
0001
1000
0000
0100
0000
1000
,
0000
0100
0000
1000
0000
0100
0010
0001
,
1000
0010
0100
0001
0000
0100
0000
0001
,
0000
0100
0010
0000
1001
0000
0000
0000
,
1000
0001
0100
0010
0000
1000
0000
0010
,
0000
0001
0000
0010
0000
1000
0100
0010
,
0001
1000
0010
1000
0000
0100
0000
0001
,
0000
0000
0000
0000
0000
0000
0000
0000
0100
0000
0000
0000
0000
0000
0000
0000
1000
0000
0000
0000
0000
0000
0000
0000
0000
0000
0000
0000
0000
0000
0000
0000
2002
0000
0000
0000
0000
0000
0000
0000
0000
0000
0000
0000
0000
0000
0000
3003
0000
0000
0000
0000
0000
0000
0000
0000
0000
0000
0000
0000
0000
0000
0000
0000
,
0100
0001
0000
1000
0000
0001
0000
0010
,
0100
1000
0000
0001
0000
1000
0000
0010
,
1000
0100
0000
0010
0000
1000
0000
0010
,
0001
0100
0000
0010
0000
0001
0000
0010
,
1000
0001
0100
0000
0010
0000
1010
0000
,
0001
1000
0100
0000
0010
0000
0011
0000
,
0001
0100
0010
0000
1000
0000
1010
0010
,
0200
0000
0000
0000
0000
0000
0000
0000
0000
0000
0000
0000
0000
0000
0000
0300
0002
0000
0000
0000
0000
0000
0000
0000
0000
0000
0000
0000
0000
0000
0000
0003
2000
0000
0000
0000
0000
0000
0000
0000
0000
0000
0000
0000
0000
0000
0000
3000
0200
0000
0000
0000
0000
0000
0000
0000
0000
0000
0000
0000
0000
0000
0000
0300
,
0010
0001
0010
0001
0010
0001
0100
0000
,
0100
0010
0100
0010
0100
0010
1000
0000
,
1000
0100
1000
0100
1000
0100
0010
0000
,
0010
0001
0010
0001
0010
0001
1000
0000
,
1001
1000
0001
0001
,
0010
0010
0100
0100
,
1100
0000
0110
0000
0011
0000
0001
1000
,
0000
0100
1000
0010
0100
0001
0010
0000
,
0010
0100
1000
0001
0000
0100
0000
0001
,
0000
0100
0000
0001
0000
0100
0010
1000
,
0001
0010
0100
1000
0000
0100
0000
1000
,
0000
0100
0010
0000
1001
0000
0000
0000
,
0001
1000
0100
0010
0000
0001
0000
0010
,
0000
1000
0000
0010
0000
0001
0100
0010
,
1000
0001
0010
0001
0000
0100
0000
1000
,
0000
0000
0000
0000
0000
0000
0000
0000
0100
0000
0000
0000
0000
0000
0000
0000
0001
0000
0000
0000
0000
0000
0000
0000
0000
0000
0000
0000
0000
0000
0000
0000
2002
0000
0000
0000
0000
0000
0000
0000
0000
0000
0000
0000
0000
0000
0000
3003
0000
0000
0000
0000
0000
0000
0000
0000
0000
0000
0000
0000
0000
0000
0000
0000
,
0001
0000
1000
0000
0100
0010
0100
0000
,
0010
0000
0000
0000
0000
0000
0000
0000
0100
0000
0000
0000
0000
0000
0000
0000
0010
0000
0000
0000
0000
0000
0000
0000
0001
0000
0000
0000
0000
0000
0000
0000
1000
0000
0000
0000
0000
0000
0000
0000
0200
0000
0000
0000
0000
0000
0000
0000
0000
0000
0000
0000
0000
0000
0000
0000
0000
0000
0000
0000
0000
0000
0000
0300
,
0010
0000
0100
0000
1000
0001
1000
0000
,
0001
1000
0001
0000
0100
0001
0010
0001
,
0010
0000
1000
0000
0001
0100
0001
0000
,
0010
0000
0000
0000
0000
0000
0000
0000
1000
0000
0000
0000
0000
0000
0000
0000
0010
0000
0000
0000
0000
0000
0000
0000
0000
0000
0000
0000
0000
0000
0000
0000
0001
0000
0000
0000
0000
0000
0000
0000
2000
0000
0000
0000
0000
0000
0000
0000
0000
0000
0000
0000
0000
0000
0000
0000
0000
0000
0000
0000
0000
0000
0000
3000
,
0010
0000
0100
0000
0001
0010
0001
0000
,
0100
1000
0100
0000
0001
1000
0001
1000
,
2000
0000
3001
1000
0000
0000
0000
0000
,
0000
0010
2000
3001
,
0020
0000
0031
0100
0000
0000
0000
0000
,
0000
0000
0001
1000
,
0200
0000
0310
0001
0000
0000
0000
0000
,
0000
0000
0100
0001
,
0200
0000
0301
0010
0000
0000
0000
0000
,
0000
0001
1000
0100
,
0020
0000
0031
1000
0000
0000
0000
0000
,
0000
0001
1000
0100
,
0020
0000
0031
0100
0000
0000
0000
0000
,
0000
0000
0010
1000
,
0020
0000
1030
0100
0000
0000
0000
0000
,
0000
0000
1000
0001
,
0200
0000
0301
0010
0000
0000
0000
0000
,
0000
0002
0023
0230
,
2300
0000
3001
0100
0000
0000
0000
0000
,
0000
0000
0100
1000
0001
1000
0100
0000
,
0020
0000
0031
1000
0000
0000
0000
0000
,
0000
0000
0000
0000
1000
0001
0010
0000
,
0200
0000
1300
0001
0000
0000
0000
0000
,
0000
0000
0000
0000
0010
0001
1000
0000
,
0002
0000
1003
0100
0000
0000
0000
0000
,
0000
0000
0100
1000
0010
0100
0001
0000
,
2000
0000
3100
0020
0000
0000
0000
0000
,
0030
0000
0002
1003
0020
1030
0200
1300
,
0002
0000
0103
0020
0000
0000
0000
0000
,
0030
0000
0000
0000
2000
3001
0200
0000
,
0320
0000
0130
0002
0000
0000
0000
0000
,
0003
0000
0000
0000
2000
3001
0200
0301
,
2000
0000
3001
0020
0000
0000
0000
0000
,
0030
0000
0001
0100
0010
1000
0010
0100
,
1010
0100
0001
0010
,
0011
1000
0001
0100
,
1100
0010
0001
0100
,
0101
1000
0001
0010
,
0101
0010
1000
0100
,
1100
0001
1000
0010
,
0202
0000
0000
0303
2020
0000
0000
3030
,
1100
0110
1001
0011
,
0001
0000
1000
0000
0010
0100
0001
0000
,
0010
0000
0100
0000
1000
0010
0100
0000
,
0001
0000
1000
0000
0001
0100
1000
0000
,
0100
0000
0001
0000
1000
0010
0001
0010
,
1000
0000
0001
0000
0100
0010
1000
0000
,
0100
0000
0010
0000
0001
0100
0010
0000
,
1000
0000
0001
0000
1000
0010
0001
0000
,
0010
0000
1000
0000
0001
0100
1000
0100
,
0001
0000
0010
0100
0000
1000
0000
0010
,
0000
0100
0000
0001
0000
0010
0100
1000
,
0010
1000
0001
0000
0100
0001
1000
0000
,
0010
1010
0110
0101
,
1000
0000
0100
0010
0000
0001
0000
0100
,
0000
0010
0000
1000
0000
0100
0010
0001
,
0100
0001
1000
0000
0010
1000
0001
0000
,
2020
0000
0000
3030
,
0100
0000
1000
0000
0001
0010
0001
0000
,
1000
0000
0010
0000
0100
0001
0100
0000
,
0010
1000
0010
0000
0100
0010
0100
0000
,
0101
0000
0011
0000
0100
1000
0010
0000
,
0010
0000
0001
0000
1000
0100
1000
0000
,
0001
0000
0100
0000
0010
1000
0010
0000
,
0100
0001
0100
0000
0010
0100
0010
0000
,
1010
0000
1100
0000
0010
0001
0001
0000
,
0100
0000
0010
0000
1000
0001
1000
0000
,
0100
0000
0010
0000
0001
0010
0001
0000
,
0010
0000
0100
0000
0001
1000
0001
0000
,
0010
0000
0100
1000
0100
1000
0010
0000
,
0100
0000
0001
0000
0010
0001
0010
0000
,
0100
0000
1000
0000
0001
0100
0001
0000
,
0010
0000
0100
0000
1000
0010
1000
0000
,
0001
0100
0001
0100
0001
0000
1001
0000
,
0010
0000
0100
0000
0001
1000
0001
0000
,
0010
0000
0100
0000
1000
0100
1000
0000
,
0100
0000
0010
0000
1000
0001
1000
0000
,
0100
0000
0010
0001
0010
0001
0100
0000
,
0010
0000
1000
0000
0100
1000
0100
0000
,
0010
0000
0001
0000
1000
0010
1000
0000
,
0100
0000
0010
0000
0001
0100
0001
0000
,
1010
0101
0011
1100
,
1000
0000
0001
0000
0100
0010
1000
0000
,
0100
0000
0010
0000
0001
0100
0010
0000
,
1000
0000
0001
0000
1000
0010
0001
0000
,
0010
0000
1000
0000
0001
0100
1000
0100
,
0001
0000
1000
0000
0010
0100
0001
0000
,
0010
0000
0100
0000
1000
0010
0100
0000
,
0001
0000
1000
0000
0001
0100
1000
0000
,
0100
0000
0001
0000
1000
0010
0001
0010
,
0200
0001
1000
0010
,
0320
0001
0100
1000
,
2030
0100
0010
0001
,
3001
0000
0010
0000
0100
1000
0100
0010
,
0001
0011
0100
0110
,
1000
0000
1010
0000
0010
0100
0010
0000
,
0100
0101
0010
0011
,
0100
0000
1100
0000
0010
1000
0010
1000
,
0010
0000
0100
0000
0001
1000
0001
0000
,
0010
0000
0100
0000
1000
0100
1000
0000
,
0100
0000
0010
0000
1000
0001
1000
0000
,
0100
0000
0010
0001
0010
0001
0100
0000
,
0010
1100
0010
0101
,
0010
1001
0100
1001
,
0100
0010
0001
1000
,
0001
0010
0100
1000
0010
0000
0100
0000
,
1100
0000
0000
0000
;

//---------------dance-single - ----------------
#NOTES:
     dance-single:
     :
     Hard:
     8:
     :
0000
0000
0000
0000
,
0000
0000
0000
0000
,
0000
0000
0000
0000
,
0000
0000
0000
0000
,
0000
0000
0000
0000
,
1000
0000
0000
0001
0000
0000
0001
0000
0100
0000
0000
0001
0000
0000
1000
0000
,
1000
0000
0000
0001
0000
0000
0100
0000
0001
0000
0000
0100
0000
0000
0001
0000
,
1000
0000
0000
0001
0000
0000
0100
0000
0001
0000
0000
0100
0000
0000
1000
0000
,
1000
0000
0000
0001
0000
0000
0001
0000
0010
0000
1000
0000
0100
0000
0001
0000
,
1000
0000
0000
0001
0000
0000
0001
0000
0100
0000
0000
0001
0000
0000
1000
0000
,
1000
0000
0000
0001
0000
0000
0100
0000
0001
0000
0000
0100
0000
0000
0001
0000
,
1000
0000
0000
0001
0000
0000
0100
0000
0001
0000
0000
0100
0000
0000
1000
0000
,
1000
0000
0000
0001
0000
0000
0001
0000
0010
0000
1000
0000
0100
0000
0001
0000
,
1000
0001
0110
0000
0100
0001
1000
0000
,
1000
0001
1000
0000
0100
1000
0001
0000
,
1100
1100
0010
0100
0001
1000
0001
0000
,
0011
1000
0001
0000
0100
0001
0010
0000
,
1000
0100
1000
0001
1000
0010
0101
0000
,
0001
0100
0001
1000
0001
0010
1100
0000
,
0001
0000
1000
0010
0000
0100
0001
0000
1000
0000
0010
0000
0001
0000
0000
0000
,
1001
1000
0110
0010
,
1000
0001
0000
1000
0000
0001
0000
0110
,
0000
0100
0000
1000
0000
0001
0000
1100
,
0000
0010
0000
0001
0000
1000
0000
0101
,
0000
0010
0000
0001
0000
0100
0010
1000
,
0010
0100
0001
1000
0100
0010
0100
1000
,
0001
0100
0010
0100
0001
0010
0100
1000
,
0001
1000
0001
0010
0100
1000
0001
0100
,
0001
0000
0000
0000
0000
0000
0010
1000
0001
0000
0010
0100
1000
0000
0001
0000
,
0001
0000
1000
0000
0001
0000
0100
0010
0000
0010
0100
0000
0001
0000
0000
0000
,
0001
0000
1000
0000
0001
0000
0010
0100
0000
0100
0010
0000
0001
0000
0000
0000
,
1000
0000
0001
0000
1000
0000
0010
0100
0000
0100
0010
0000
1000
0000
0000
0000
,
0010
1000
0100
0000
0100
0001
0010
0000
,
0100
0000
0010
0000
1000
0001
1000
0001
,
1000
0000
0001
0000
1000
0000
0010
0100
0000
0100
0010
0000
1000
0000
0000
0000
,
0010
0000
0000
0000
0000
0000
0000
0000
0100
0000
0000
0000
0000
0000
0000
0000
0001
0000
0000
0000
0000
0000
0000
0000
0100
0000
0000
0000
0010
0000
0000
0000
0000
0000
0000
0000
0000
0000
0000
0000
2000
0000
0000
0000
0000
0000
0000
0000
0000
0000
0000
0000
0000
0000
0000
3000
0000
0000
0000
0000
0000
0000
0000
0000
,
0001
0000
1000
0000
0001
0000
0010
0100
0000
0100
0010
0000
0001
0000
0000
0000
,
0010
0000
0100
0000
1000
0000
0100
0010
0000
0000
0001
1000
0000
0001
1000
0000
,
0010
0000
0100
0000
0001
0000
1000
0100
0000
0100
1000
0000
0010
0000
0000
0000
,
0100
0000
0000
0000
0000
0000
0000
0000
0010
0000
0000
0000
0000
0000
0000
0000
1000
0000
0000
0000
0000
0000
0000
0000
0001
0000
0000
0000
0010
0000
0000
0000
0000
0000
0000
0000
0000
0000
0000
0000
0200
0000
0000
0000
0000
0000
0000
0000
0000
0000
0000
0000
0000
0000
0000
0300
0000
0000
0000
0000
0000
0000
0000
0000
,
0010
0000
0100
0000
1000
0000
0001
0100
0000
0100
0001
0000
0010
0000
0000
0000
,
0100
0000
0010
0000
0001
0000
1000
0010
0000
0000
0100
0010
0100
0010
0100
0000
,
0002
0000
0000
0000
0000
0000
0000
0000
1000
0000
0000
0000
0000
0000
0000
0000
0000
0000
0000
0000
0000
0000
0000
0000
0000
0000
0000
0000
0000
0000
0000
0003
2000
0000
0000
0000
0000
0000
0000
0000
0010
0000
0000
0000
0000
0000
0000
0000
0000
0000
0000
0000
0000
0000
0000
0000
0000
0000
0000
0000
0000
0000
0000
3000
,
0020
0000
0000
0000
0000
0000
0000
0000
0100
0000
0000
0000
0000
0000
0000
0000
0000
0000
0000
0000
0000
0000
0000
0000
0000
0000
0000
0000
0000
0000
0000
0030
0100
0000
0000
0000
0000
0000
0000
0000
0001
0000
0000
0000
0000
0000
0000
0000
1000
0000
0000
0000
0000
0000
0000
0000
0000
0000
0000
0000
0000
0000
0000
0000
,
2000
0000
0000
0000
0000
0000
0000
0000
0001
0000
0000
0000
0000
0000
0000
0000
0000
0000
0000
0000
0000
0000
0000
0000
0000
0000
0000
0000
0000
0000
0000
3000
0002
0000
0000
0000
0000
0000
0000
0000
0010
0000
0000
0000
0000
0000
0000
0000
0000
0000
0000
0000
0000
0000
0000
0000
0000
0000
0000
0000
0000
0000
0000
0003
,
0020
0000
0000
0000
0000
0000
0000
0000
0100
0000
0000
0000
0000
0000
0000
0000
0000
0000
0000
0000
0000
0000
0000
0000
0000
0000
0000
0000
0000
0000
0000
0030
0100
0000
0000
0000
0000
0000
0000
0000
1000
0000
0000
0000
0100
0000
0000
0000
0000
0000
0000
0000
0100
0000
0000
0000
0010
0000
0000
0000
0000
0000
0000
0000
,
0001
0000
0000
0000
0000
0000
0000
0000
0002
0000
0000
0000
0000
0000
0000
0000
0000
0000
0000
0000
0000
0000
0000
0000
0000
0000
0000
0000
0000
0000
0000
0003
1000
0000
0000
0000
0000
0000
0000
0000
2000
0000
0000
0000
0000
0000
0000
0000
0000
0000
0000
0000
0000
0000
0000
0000
0000
0000
0000
0000
0000
0000
0000
3000
,
0001
0000
0000
0000
0000
0000
0000
0000
0002
0000
0000
0000
0000
0000
0000
0000
0000
0000
0000
0000
0000
0000
0000
0000
0000
0000
0000
0000
0000
0000
0000
0003
0010
0000
0000
0000
0000
0000
0000
0000
0100
0000
0000
0000
0000
0000
0000
0000
1000
0000
0000
0000
0000
0000
0000
0000
0000
0000
0000
0000
0000
0000
0000
0000
,
0010
0000
0000
0000
0000
0000
0000
0000
0020
0000
0000
0000
0000
0000
0000
0000
0000
0000
0000
0000
0000
0000
0000
0000
0000
0000
0000
0000
0000
0000
0000
0030
0100
0000
0000
0000
0000
0000
0000
0000
0200
0000
0000
0000
0000
0000
0000
0000
0000
0000
0000
0000
0000
0000
0000
0000
0000
0000
0000
0000
0000
0000
0000
0300
,
0010
0000
0010
0000
1000
0000
0001
0100
0000
0100
0010
0000
0100
0000
0000
0000
,
0100
0000
0000
0000
0000
0000
0000
0000
0100
0000
0000
0000
0000
0000
0000
0000
0001
0000
0000
0000
0000
0000
0000
0000
2000
0000
0000
0000
0000
0000
0000
0000
0000
0000
0000
0000
0000
0000
0000
3000
0100
0000
0000
0000
0000
0000
0000
0000
0000
0000
0000
0000
0000
0000
0000
0000
0002
0000
0000
0000
0000
0000
0000
0000
,
0000
0000
0000
0000
0000
0000
0000
0003
0100
0000
0000
0000
0000
0000
0000
0000
0000
0000
0000
0000
0000
0000
0000
0000
2000
0000
0000
0000
0000
0000
0000
0000
0000
0000
0000
0000
0000
0000
0000
3000
0100
0000
0000
0000
0000
0000
0000
0000
0010
0000
0000
0000
0000
0000
0000
0000
0001
0000
0000
0000
0000
0000
0000
0000
,
1000
0000
0000
0000
0000
0000
0000
0000
1000
0000
0000
0000
0000
0000
0000
0000
0001
0000
0000
0000
0000
0000
0000
0000
0200
0000
0000
0000
0000
0000
0000
0000
0000
0000
0000
0000
0000
0000
0000
0300
0010
0000
0000
0000
0000
0000
0000
0000
0000
0000
0000
0000
0000
0000
0000
0000
2000
0000
0000
0000
0000
0000
0000
0000
,
0000
0000
0000
0000
0000
0000
0000
3000
0010
0000
0000
0000
0000
0000
0000
0000
0100
0000
0000
0000
0000
0000
0000
0000
0000
0000
0000
0000
0000
0000
0000
0000
1001
0000
0000
0000
0000
0000
0000
0000
0000
0000
0000
0000
0000
0000
0000
0000
0010
0000
0000
0000
0000
0000
0000
0000
0100
0000
0000
0000
0000
0000
0000
0000
,
1000
0001
0100
0010
0000
1001
0000
0100
,
0000
1001
0000
0010
0000
1000
0100
0010
,
1000
0010
0001
1000
0000
0110
0000
0001
,
0000
0000
0000
0000
0000
0000
0000
0000
0110
0000
0000
0000
0000
0000
0000
0000
0010
0000
0000
0000
0000
0000
0000
0000
0000
0000
0000
0000
0000
0000
0000
0000
2002
0000
0000
0000
0000
0000
0000
0000
0000
0000
0000
0000
0000
0000
0000
3003
0000
0000
0000
0000
0000
0000
0000
0000
0000
0000
0000
0000
0000
0000
0000
0000
,
0200
0000
0000
0000
0000
0000
0000
0000
0001
0000
0000
0000
0000
0000
0000
0000
0000
0000
0000
0000
0000
0000
0000
0000
0010
0000
0000
0000
0000
0000
0000
0000
0000
0000
0000
0000
0000
0000
0000
0000
0001
0000
0000
0000
0000
0000
0000
0300
0000
0000
0000
0000
0000
0000
0000
0000
0010
0000
0000
0000
0000
0000
0000
0000
,
2000
0000
0000
0000
0000
0000
0000
0000
0100
0000
0000
0000
0000
0000
0000
0000
0000
0000
0000
0000
0000
0000
0000
0000
0001
0000
0000
0000
0000
0000
0000
0000
0000
0000
0000
0000
0000
0000
0000
0000
0100
0000
0000
0000
0000
0000
0000
3000
0000
0000
0000
0000
0000
0000
0000
0000
0001
0000
0000
0000
0000
0000
0000
0000
,
0020
0000
0000
0000
0000
0000
0000
0000
0100
0000
0000
0000
0000
0000
0000
0000
0000
0000
0000
0000
0000
0000
0000
0000
0001
0000
0000
0000
0000
0000
0000
0000
0000
0000
0000
0000
0000
0000
0000
0030
0100
0000
0000
0000
0000
0000
0000
0000
0000
0000
0000
0000
0000
0000
0000
0000
0010
0000
0000
0000
0000
0000
0000
0000
,
0002
0000
0000
0000
0000
0000
0000
0000
1000
0000
0000
0000
0000
0000
0000
0000
0000
0000
0000
0000
0000
0000
0000
0000
0100
0000
0000
0000
0000
0000
0000
0000
0000
0000
0000
0000
0000
0000
0000
0000
1000
0000
0000
0000
0000
0000
0000
0003
0000
0000
0000
0000
0000
0000
0000
0000
0100
0000
0000
0000
0000
0000
0000
0000
,
0010
1000
0000
0101
0000
1010
0000
0010
,
1000
0100
0000
0011
0000
1100
0000
1000
,
0001
0100
0000
0110
0000
1001
0000
0100
,
0110
1010
1001
0101
,
0001
0100
0010
1000
0001
0010
0100
0001
,
0100
0010
0100
1000
0001
0100
0101
0000
,
1000
0100
0010
0001
1000
0010
0100
0010
,
0001
0010
1000
0001
0010
0100
1100
0000
,
1001
0100
0010
0100
,
0001
1000
0010
0100
,
0101
0000
0110
0000
1010
0000
1001
1001
,
0000
1000
0001
0010
0100
1000
0001
0000
,
0100
0000
0000
0000
0000
0000
0000
0000
0100
0000
0000
0000
0000
0000
0000
0000
1000
0000
0000
0000
0000
0000
0000
0000
1002
0000
0000
0000
0000
0000
0000
0000
0000
0000
0000
0000
0000
0000
0000
0003
0100
0000
0000
0000
0000
0000
0000
0000
0000
0000
0000
0000
0000
0000
0000
0000
2001
0000
0000
0000
0000
0000
0000
0000
,
0000
0000
0000
0000
0000
0000
0000
3000
0100
0000
0000
0000
0000
0000
0000
0000
0000
0000
0000
0000
0000
0000
0000
0000
1002
0000
0000
0000
0000
0000
0000
0000
0000
0000
0000
0000
0000
0000
0000
0003
0100
0000
0000
0000
0000
0000
0000
0000
0010
0000
0000
0000
0000
0000
0000
0000
1000
0000
0000
0000
0000
0000
0000
0000
,
0001
0000
0000
0000
0000
0000
0000
0000
0001
0000
0000
0000
0000
0000
0000
0000
1000
0000
0000
0000
0000
0000
0000
0000
1200
0000
0000
0000
0000
0000
0000
0000
0000
0000
0000
0000
0000
0000
0000
0300
0010
0000
0000
0000
0000
0000
0000
0000
0000
0000
0000
0000
0000
0000
0000
0000
1002
0000
0000
0000
0000
0000
0000
0000
,
0000
0000
0000
0000
0000
0000
0000
0003
0010
0000
0000
0000
0000
0000
0000
0000
0100
0000
0000
0000
0000
0000
0000
0000
0000
0000
0000
0000
0000
0000
0000
0000
0220
0000
0000
0000
0000
0000
0000
0000
0000
0000
0000
0000
0000
0000
0000
0330
0000
0000
0000
0000
0000
0000
0000
0000
0000
0000
0000
0000
0000
0000
0000
0000
,
0010
0001
1000
0100
0000
1001
0000
0110
,
0000
1001
0000
0110
0000
0001
0100
0010
,
0100
0010
1000
0001
0000
0101
0000
1010
,
0000
0000
0000
0000
0000
0000
0000
0000
0101
0000
0000
0000
0000
0000
0000
0000
0100
0000
0000
0000
0000
0000
0000
0000
0000
0000
0000
0000
0000
0000
0000
0000
2002
0000
0000
0000
0000
0000
0000
0000
0000
0000
0000
0000
0000
0000
0000
3003
0000
0000
0000
0000
0000
0000
0000
0000
0000
0000
0000
0000
0000
0000
0000
0000
,
0001
0000
1000
0000
0001
0000
0100
0010
0000
0010
0100
0000
0001
0000
0000
0000
,
0100
0000
0000
0000
0000
0000
0000
0000
0010
0000
0000
0000
0000
0000
0000
0000
1000
0000
0000
0000
0000
0000
0000
0000
0010
0000
0000
0000
0100
0000
0000
0000
0000
0000
0000
0000
0000
0000
0000
0000
0202
0000
0000
0000
0000
0000
0000
0000
0000
0000
0000
0000
0000
0000
0000
0303
0000
0000
0000
0000
0000
0000
0000
0000
,
1000
0000
0001
0000
1000
0000
0100
0010
0000
0010
0100
0000
1000
0000
0000
0000
,
0100
0000
0010
0000
0001
0000
0010
0100
0000
0000
1000
0001
0000
1000
0001
0000
,
0100
0000
0010
0000
1000
0000
0001
0010
0000
0010
0001
0000
0100
0000
0000
0000
,
0010
0000
0000
0000
0000
0000
0000
0000
0100
0000
0000
0000
0000
0000
0000
0000
0001
0000
0000
0000
0000
0000
0000
0000
1000
0000
0000
0000
0100
0000
0000
0000
0000
0000
0000
0000
0000
0000
0000
0000
0022
0000
0000
0000
0000
0000
0000
0000
0000
0000
0000
0000
0000
0000
0000
0033
0000
0000
0000
0000
0000
0000
0000
0000
,
0100
0000
0010
0000
0001
0000
1000
0010
0000
0010
1000
0000
0100
0000
0000
0000
,
0010
0000
0100
0000
1000
0000
0001
0100
0000
0000
0001
1000
0001
1000
0001
0000
,
2002
3003
0100
0002
0000
0000
0003
0000
,
0000
0011
1001
1010
,
2020
3030
0001
2000
0000
0000
3000
0000
,
0000
0000
1001
1010
,
2020
3030
0100
0002
0000
0000
0003
0000
,
0000
0000
0110
0101
,
0202
0303
1000
0020
0000
0000
0030
0000
,
0000
0011
1010
1001
,
2002
3003
0010
0200
0000
0000
0300
0000
,
0000
0101
1001
0011
,
0022
0033
1000
0200
0000
0000
0300
0000
,
0000
0000
0110
1001
,
0220
0330
1000
0002
0000
0000
0003
0000
,
0000
0000
1100
0011
,
0022
0033
1000
0100
0000
0000
0000
0000
,
0000
0002
0023
0230
,
2300
0000
3001
0100
0000
0000
0000
0000
,
0000
0000
0000
0000
0020
0000
0030
2000
0000
0000
3001
0000
0100
0000
0000
0000
,
0220
0330
0001
1000
0000
0000
0000
0000
,
0000
0000
0000
0000
0000
0000
0000
0000
2000
0000
0000
3002
0000
0000
0003
0000
,
0202
0303
1000
0001
0000
0000
0000
0000
,
0000
0000
0000
0000
0000
0000
0000
0000
0020
0000
0000
2030
0000
0000
3000
0000
,
2002
3003
0010
0100
0000
0000
0000
0000
,
0000
0000
0000
0000
0200
0000
0300
2000
0000
0000
3010
0000
0100
0000
0000
0000
,
0202
0303
1000
0020
0000
0000
0000
0000
,
1030
0000
0000
0001
1000
0000
0000
0000
0001
0000
0000
1000
0001
0000
0000
0000
,
2020
3030
0001
0200
0000
0000
0000
0000
,
0310
0000
0000
1000
0010
0000
0000
0000
1000
0000
0000
0010
1000
0000
0000
0000
,
0022
0033
0100
2000
0000
0000
0000
0000
,
3001
0000
0000
0100
0001
0000
0000
0000
0100
0000
0000
0010
0100
0000
0000
0000
,
2020
3030
0001
0200
0000
0000
0000
0000
,
0300
0002
0023
0130
,
2000
0000
0000
3200
0000
0000
0320
0000
,
0032
0000
0000
0003
,
0002
0000
0000
0023
0000
0000
0230
0000
,
2300
0000
0000
3000
,
0011
0000
0100
0000
0010
0000
1000
0010
,
1010
0000
1000
0000
0100
0000
0100
0010
,
0220
0330
2200
3300
,
1001
0000
1010
0000
0101
0100
0010
1000
,
0001
0010
0100
0000
1000
0010
0100
0101
,
0000
1010
0000
0010
1000
0001
0100
0001
,
0010
0000
0011
0000
1100
0100
1000
0010
,
0000
1000
0100
0010
0001
0010
0100
1000
,
1000
0100
0010
0000
0001
0100
0010
1010
,
0000
0101
0000
0100
0001
1000
0010
1000
,
0100
0000
1100
0000
0011
0010
0001
0100
,
0000
0001
0010
0100
1000
0100
0010
0001
,
0001
0100
1000
0000
1000
0100
0001
0000
,
0010
0100
1000
0000
1000
0100
0010
0000
,
0001
1000
0010
0100
0001
0000
0101
0000
,
1000
0001
0011
0000
1010
0000
1001
0000
,
0010
0100
0001
0000
1000
0010
0100
0000
,
0010
1000
0010
0000
0100
0001
0100
0000
,
0001
1000
0100
0010
0001
0000
1100
0000
,
2002
0000
0000
3003
,
0001
1000
0010
0100
0001
0010
1000
0000
,
0010
0001
0100
0010
1000
0010
0001
0000
,
0010
1000
0100
0000
0010
0001
0100
0000
,
0010
1000
1100
0000
0011
0000
0110
0000
,
0100
0010
0001
0100
0010
1000
0010
0000
,
0100
0010
1000
0001
0010
0100
1000
0000
,
0010
0100
0001
1000
0010
0100
0001
1000
,
0001
1000
0001
0000
0100
0000
0010
0000
1000
0000
0000
0000
0011
0000
0000
0000
,
0110
0000
1001
0000
0100
1000
0010
0000
,
1001
0000
0110
0000
0100
0001
0010
0000
,
0011
0000
1100
0000
0100
1000
0010
0000
,
1010
0000
0101
0000
0100
0001
0010
0100
,
1100
0000
0011
0000
0001
1000
0010
0000
,
0110
0000
1001
0000
0100
0010
1000
0000
,
0010
1000
0100
0001
0100
1000
0010
0000
,
1001
0000
0000
0000
0011
0000
0000
0000
1100
0000
0000
0010
1000
0000
1000
0000
,
0001
0010
1000
0010
0001
0100
1000
0100
,
0001
0010
0100
0000
1010
0000
0100
0100
,
0010
1000
0001
0100
0001
0010
0100
1000
,
0010
1000
0100
0000
0110
0000
0010
0010
,
0001
1000
0010
0100
0001
0010
0100
1000
,
0010
0100
0001
0000
0101
0000
0010
0010
,
0100
1000
0001
0000
0100
0010
1000
0000
,
0011
0110
1100
1001
,
1000
0100
0010
0000
0001
0100
0010
1000
,
0000
1010
0000
0101
0000
0100
0010
1000
,
0100
0000
1100
0000
0011
0010
0001
0100
,
0000
0001
0010
0100
1000
0100
0010
0001
,
0001
0010
0100
0000
1000
0010
0100
0001
,
0000
0101
0000
1010
0000
0010
0100
0001
,
0010
0000
0011
0000
1100
0100
1000
0010
,
0011
1100
0110
1001
,
0210
0301
1002
0103
,
0001
0100
1000
0100
0001
0010
1000
0000
,
0012
0103
2010
3100
,
0010
0001
1000
0100
0010
0100
1000
0000
,
0120
1030
2001
3010
,
1000
0010
0001
0010
1000
0100
0001
0000
,
2100
3010
0102
0013
,
0100
1000
0100
0000
0010
0000
0001
0000
0100
0000
0010
0000
1000
0001
1000
0000
,
0110
0000
1001
0000
0010
0001
0100
0000
,
1001
0000
0110
0000
0010
1000
0100
0000
,
1100
0000
0011
0000
0010
0001
0100
0000
,
0101
0000
1010
0000
0010
1000
0100
0010
,
0001
0101
1000
1010
,
0100
1100
0010
0011
,
0000
0001
0000
0100
0000
0010
0000
1000
,
0000
0100
0000
0010
0000
0001
0000
1000
,
2200
0000
0000
0000
,
0000
0000
3300
0000
;

//---------------dance-double - ----------------
#NOTES:
     dance-double:
     :
     Beginner:
     1:
     :
00000000
00000000
00000000
00000000
,
00000000
00000000
00000000
00000000
,
00000000
00000000
00000000
00000000
,
00000000
00000000
00000000
00000000
,
00000000
00000000
00000000
00000000
,
00100000
00000000
00000000
00000000
,
00100000
00000000
00010000
00000000
,
00001000
00000000
00000000
00000000
,
00000010
00000000
00000001
00000000
,
00001000
00000000
00010000
00000000
,
00100000
00000000
01000000
00000000
,
00100000
00000000
01000000
00000000
,
00000000
00000000
00000000
00000000
,
00000100
00000000
00000100
00000000
,
00001000
00000000
00000100
00000000
,
00001000
00000000
00000000
00000000
,
00010000
00000000
00100000
00000000
,
10000000
00000000
01000000
00000000
,
00010000
00000000
00001000
00000000
,
00000100
00000000
00000100
00000000
,
00000010
00000000
00100000
00000000
,
00010000
00000000
00000000
00000000
,
00100000
00000000
00001000
00000000
,
00000010
00000000
00000001
00000000
,
00001000
00000000
00010000
00000000
,
10000000
00000000
00000000
00000000
,
00100000
00000000
01000000
00000000
,
00010000
00000000
00000100
00000000
,
00000010
00000000
00000001
00000000
,
00000100
00000000
00000010
00000000
,
00000010
00000000
00000100
00000000
,
00010000
00000000
01000000
00000000
,
10000000
00000000
01000000
00000000
,
01000000
00000000
10000000
00000000
,
00010000
00000000
10010000
00000000
,
00010000
00000000
10010000
00000000
,
00001000
00000000
00011000
00000000
,
00001000
00000000
00000110
00000000
,
00000001
00000000
00001001
00000000
,
00001000
00000000
00001001
00000000
,
00010000
00000000
00011000
00000000
,
00010000
00000000
01100000
00000000
,
00100000
00000000
01000000
00000000
,
00010000
00000000
00100000
00000000
,
00010000
00000000
00001000
00000000
,
00000100
00000000
00000001
00000000
,
00000010
00000000
00000100
00000000
,
00001000
00000000
00010000
00000000
,
00100000
00000000
01000000
00000000
,
00100000
00000000
10000000
00000000
,
00010000
00000000
01000000
00000000
,
00001000
00000000
00010000
00000000
,
00000100
00000000
00001000
00000000
,
00000001
00000000
00000110
00000000
,
00001000
00000000
00000010
00000000
,
00010000
00000000
00001000
00000000
,
00100000
00000000
00010000
00000000
,
10000000
00000000
10010000
00000000
,
10000000
00000000
00010000
00000000
,
00001000
00000000
00010000
00000000
,
00001000
00000000
00000001
00000000
,
00001000
00000000
00010000
00000000
,
00100000
00000000
10000000
00000000
,
00100000
00000000
00100000
00000000
,
00100000
00000000
00001000
00000000
,
00010000
00000000
00010000
00000000
,
00010000
00000000
00010000
00000000
,
00001000
00000000
00001000
00000000
,
00000001
00000000
00000001
00000000
,
00001000
00000000
00001000
00000000
,
00011000
00000000
00100000
00000000
,
01000000
00000000
10000000
00000000
,
00010000
00000000
10000000
00000000
,
10010000
00000000
00001000
00000000
,
00001000
00000000
00000010
00000000
,
00010000
00000000
00001000
00000000
,
00100000
00000000
00010000
00000000
,
10000000
00000000
10010000
00000000
,
00010000
00000000
01000000
00000000
,
00001000
00000000
00010000
00000000
,
00000100
00000000
00001000
00000000
,
00000001
00000000
00000110
00000000
,
00001000
00000000
00001001
00000000
,
00001000
00000000
00001001
00000000
,
00010000
00000000
00011000
00000000
,
00010000
00000000
01100000
00000000
,
10000000
00000000
01100000
00000000
,
00010000
00000000
10010000
00000000
,
00001000
00000000
00011000
00000000
,
00100000
00000000
01000000
00000000
,
00010000
00000000
00000000
00000000
,
00000000
00000010
00000000
00000001
,
00000000
00000000
00000000
00000000
,
00000000
00000000
00001000
00000000
,
00000100
00000000
00000000
00000000
,
00000000
00000000
00010000
00000000
,
01000000
00000000
00000000
00000000
,
00000000
10000000
00000000
01000000
,
00000000
00000000
00000000
00000000
,
00000000
00010000
00000000
01000000
,
00000000
00000000
00000000
00000000
,
00000000
00000000
00010000
00000000
,
00000010
00000000
00000000
00000000
,
00000000
00000000
00001000
00000000
,
00000100
00000000
00000000
00000000
,
00000000
00001000
00000000
00010000
,
00000000
00000000
00000000
00000000
,
00000000
00001000
00000000
01000000
,
00000000
00000000
00000000
00000000
,
00000000
00000000
00100000
00000000
,
00010000
00000000
00000000
00000000
,
00000000
00000000
00100000
00000000
,
10000000
00000000
00000000
00000000
,
00000000
01000000
00000000
00010000
,
00000000
00000000
00000000
00000000
,
00000000
10000000
00000000
00100000
,
00000000
00000000
00000000
00000000
,
00000000
00000000
00000010
00000000
,
00000100
00000000
00000000
00000000
,
00000000
00000000
00000001
00000000
,
00000100
00000000
00000000
00000000
,
00000000
00001000
00000000
01000000
,
00000000
00000000
00100000
00000000
,
01100000
00000000
10000000
00000000
,
10010000
00000000
10010000
00000000
,
10010000
00000000
00010000
00000000
,
00000010
00000000
00000000
00000000
,
00000100
00000000
00000000
00000000
,
00001000
00000000
00010000
00000000
,
01000000
00000000
00100000
00000000
,
00010000
00000000
10000000
00000000
,
01000000
00000000
00010000
00000000
,
00001000
00000000
00000010
00000000
,
00001000
00000000
00000001
00000000
,
00000100
00000000
00001000
00000000
,
00000010
00000000
00001000
00000000
,
00010000
00000000
00100000
00000000
,
10000000
00000000
01000000
00000000
,
00001000
00000000
00010000
00000000
,
00000010
00000000
00000001
00000000
,
00000100
00000000
00001000
00000000
,
00010000
00000000
10000000
00000000
,
00100000
00000000
10000000
00000000
,
01000000
00000000
00010000
00000000
,
00001000
00000000
00000010
00000000
,
00000001
00000000
00000000
00000000
,
00000100
00000000
00010000
00000000
,
00100000
00000000
01000000
00000000
,
00010000
00000000
00000100
00000000
,
00000001
00000000
00000110
00000000
,
00001000
00000000
00000100
00000000
,
00001000
00000000
01000000
00000000
,
10000000
00000000
01000000
00000000
,
00010000
00000000
00010000
00000000
,
10000000
00000000
10010000
00000000
,
00100000
00000000
01000000
00000000
,
00010000
00000000
00011000
00000000
,
00000100
00000000
00000010
00000000
,
00000100
00000000
00001000
00000000
,
00000010
00000000
00000010
00000000
,
00000100
00000000
00000001
00000000
,
00001000
00000000
00001001
00000000
,
00000010
00000000
00000100
00000000
,
00001000
00000000
00100000
00000000
,
10000000
00000000
01000000
00000000
,
00100000
00000000
10000000
00000000
,
01000000
00000000
00010000
00000000
,
00001000
00000000
00000010
00000000
,
00000100
00000000
00000001
00000000
,
00000010
00000000
00000110
00000000
,
00001000
00000000
00000001
00000000
,
00000010
00000000
00001000
00000000
,
00010000
00000000
01000000
00000000
,
00010000
00000000
10000000
00000000
,
00100000
00000000
00010000
00000000
,
01000000
00000000
00010000
00000000
,
00001000
00000000
00000100
00000000
,
00000001
00000000
00000010
00000000
,
00000001
00000000
00001000
00000000
,
00000100
00000000
00000010
00000000
,
00010000
00000000
00100000
00000000
,
01000000
00000000
00000000
00000000
,
10000000
00000000
00010000
00000000
,
00100000
00000000
10000000
00000000
,
01000000
00000000
00100000
00000000
,
00001000
00000000
00000010
00000000
,
00000001
00000000
00001001
00000000
,
00000100
00000000
00000010
00000000
,
00001000
00000000
00011000
00000000
,
00100000
00000000
01000000
00000000
,
00100000
00000000
00010000
00000000
,
10000000
00000000
01000000
00000000
,
00010000
00000000
00001000
00000000
,
00100000
00000000
00001000
00000000
,
00011000
00000000
00000000
00000000
;

//---------------dance-double - ----------------
#NOTES:
     dance-double:
     :
     Easy:
     4:
     :
00000000
00000000
00000000
00000000
,
00000000
00000000
00000000
00000000
,
00000000
00000000
00000000
00000000
,
00000000
00000000
00000000
00000000
,
00000000
00000000
00000000
00000000
,
00100000
00000000
00000000
00000000
,
00100000
10000000
00010000
00000000
,
00001000
00000000
00000000
00000000
,
00000010
00000100
00000001
00000001
,
00001000
00000000
00010000
00000000
,
00100000
00000000
01000000
00000000
,
00100000
00010000
01000000
00000000
,
00000000
00000000
00000000
00000000
,
00000100
00001000
00000100
00000001
,
00001000
00000001
00000100
00001000
,
00001000
00000000
00000000
00000000
,
00010000
01000000
00100000
10000000
,
10000000
00000000
01000000
00000000
,
00010000
00000000
00001000
00000000
,
00000100
00000010
00000100
00000000
,
00000010
00001000
00100000
01000000
,
00010000
10000000
00000000
00000000
,
00100000
00010000
00001000
00000000
,
00000010
00000000
00000001
00000000
,
00001000
00000000
00010000
00000000
,
10000000
00010000
00000000
00000000
,
00100000
10000000
01000000
00000000
,
00010000
00000000
00000100
00000000
,
00000010
00000010
00000001
00000000
,
00000100
00000000
00000010
00000000
,
00000010
00000000
00000100
00001000
,
00010000
00100000
01000000
10000000
,
10000000
00010000
01000000
00010000
,
01000000
00100000
10000000
10010000
,
00010000
00100000
11000000
11000000
,
00010000
00100000
00220000
00330000
,
00001000
00010000
00011000
00011000
,
00001000
00000100
00000220
00000330
,
00000001
00000100
00001010
00001010
,
00001000
00000100
00002200
00003300
,
00010000
00001000
00011000
00011000
,
00010000
00100000
02200000
03300000
,
00200000
00000000
02300000
00000000
,
03020000
00000000
00130000
01000000
,
00020000
00000000
00032000
00000000
,
00003200
00000000
00000301
00001000
,
00000020
00000000
00000230
00000000
,
00002300
00000000
00013000
01000000
,
00200000
00000000
02300000
00000000
,
03100000
01000000
10000000
00010000
,
00020000
01000000
01000000
01030000
,
00002000
00010000
00010000
00013000
,
00000200
00001000
00001000
00001300
,
00000001
00000100
00000101
00000000
,
00002000
00000010
00000010
00003010
,
00020000
00001000
00001000
00031000
,
00200000
00010000
00010000
00310000
,
10000000
00100000
10100000
00000000
,
20000000
31000000
00020000
01030000
,
00002000
00013000
00020000
00031000
,
00002000
00003100
00000002
00000103
,
00002000
00013000
00020000
00031000
,
00200000
00310000
20000000
31000000
,
00200000
10300000
00200000
01300000
,
00200000
00310000
00002000
00013000
,
00020000
00032000
00023000
00032000
,
00013000
00010000
00010000
00010000
,
00001000
00001000
00001000
00000110
,
00000001
00000001
00000001
00000001
,
00001000
00001000
00001000
00001000
,
00011000
00020000
00100000
00230000
,
01000000
02300000
10000000
23000000
,
00010000
30020000
10000000
10030000
,
10010000
00010000
00001000
00000010
,
00002000
00000010
00000010
00003010
,
00020000
00001000
00001000
00031000
,
00200000
00010000
00010000
00310000
,
10000000
00100000
10100000
00000000
,
00020000
01000000
01000000
01030000
,
00002000
00010000
00010000
00013000
,
00000200
00001000
00001000
00001300
,
00000001
00000100
00000101
00000000
,
00001000
00000100
00000011
00000011
,
00001000
00000100
00002200
00003300
,
00010000
00001000
00011000
00011000
,
00010000
00100000
02200000
03300000
,
10000000
00100000
01010000
01010000
,
00010000
00100000
00220000
00330000
,
00001000
00010000
00011000
00011000
,
00100000
00010000
01000000
00100000
,
00020000
00000000
00000000
00031000
00000000
00000000
00000000
00000000
,
00000000
00000010
00001000
00000001
,
00000020
00000000
00000000
00000031
00000000
00000000
00000000
00000000
,
00000000
00000000
00001000
00000001
,
00000200
00000000
00000000
00000310
00000000
00000000
00000000
00000000
,
00000000
00000000
00010000
00001000
,
02000000
00000000
00000000
03010000
00000000
00000000
00000000
00000000
,
00000000
10000000
00010000
01000000
,
00200000
00000000
00000000
10300000
00000000
00000000
00000000
00000000
,
00000000
00010000
10000000
01000000
,
00200000
00000000
00000000
00301000
00000000
00000000
00000000
00000000
,
00000000
00000000
00010000
00000100
,
00000020
00000000
00000000
00000130
00000000
00000000
00000000
00000000
,
00000000
00000000
00001000
00000001
,
00000200
00000000
00000000
00000310
00000000
00000000
00000000
00000000
,
00000000
00002000
00003200
00020300
,
00032000
00000000
00000000
00013000
00000000
00000000
00000000
00000000
,
00000000
00001000
00100000
01000000
,
00200000
00000000
00000000
00310000
00000000
00000000
00000000
00000000
,
00000000
00000000
00100000
00001000
,
00020000
00000000
00000000
00031000
00000000
00000000
00000000
00000000
,
00000000
00000000
00100000
00010000
,
20000000
00000000
00000000
31000000
00000000
00000000
00000000
00000000
,
00000000
01000000
00100000
00010000
,
20000000
00000000
00000000
30200000
00000000
00000000
00000000
00000000
,
00300000
20000000
32000000
03200000
,
00302000
00000000
00000000
00023000
00000000
00000000
00000000
00000000
,
00030000
00000000
00000020
00002030
,
00003200
00000000
00000000
00002300
00000000
00000000
00000000
00000000
,
00003000
00000000
00000002
00000023
,
00000230
00000000
00000000
00020300
00000000
00000000
00000000
00000000
,
00030000
00002000
00203000
01300000
,
10010000
00000000
00100000
00010000
,
01100000
00000000
10000000
01000000
,
11000000
00000000
10100000
00000000
,
00110000
00000000
00010000
01000000
,
00000020
00000000
00000000
00000030
,
00000200
00000000
00000000
00000300
,
00002000
00000000
00000000
00003000
00020000
00000000
00000000
00030000
,
01000000
10000000
00100000
01000000
,
00010000
10000000
10000000
00000000
,
01000000
00000000
00010000
00000000
,
00001000
00000100
00000010
00000000
,
00001000
00000100
00000001
00000000
,
00000100
00000100
00001000
00000000
,
00000010
00000100
00001000
00000000
,
00010000
00000000
00100000
00000000
,
10000000
10000000
01000000
00000000
,
00001000
00000000
00010000
00000000
,
00000010
00000100
00000001
00000000
,
00000100
00000000
00001000
00000000
,
00010000
01000000
10000000
10000000
,
00100000
00000000
10000000
00000000
,
01000000
00000000
00010000
00000000
,
00001000
00001000
00000010
00000000
,
00000002
00000010
00000000
00000003
,
00000100
00001000
00010000
00000000
,
00100000
10000000
01000000
00000000
,
00010000
00001000
00000100
00000000
,
00000001
00000000
00000110
00000000
,
00001000
00000010
00000100
00000000
,
00001000
00010000
01000000
00000000
,
10000000
00100000
01000000
00000000
,
00010000
00010000
00010000
00000000
,
10000000
00000000
10010000
00000000
,
00100000
10000000
01000000
00000000
,
00010000
00000000
00011000
00000000
,
00000100
00000001
00000010
00000000
,
00000100
00000000
00001000
00000000
,
00000010
00000010
00000010
00000000
,
00000100
00000000
00000001
00000000
,
00001000
00000001
00001001
00000000
,
00000010
00000000
00000100
00000000
,
00001000
00010000
00100000
00000000
,
10000000
00000000
01000000
00000000
,
00100000
00010000
10000000
00000000
,
01000000
00000000
00010000
00000000
,
00001000
00000100
00000010
00000000
,
00000100
00000000
00000001
00000000
,
00000010
00000100
00000110
00000000
,
00001000
00000001
00000001
00000000
,
00000010
00000000
00001000
00000000
,
00010000
00100000
01000000
00000000
,
00010000
00100000
10000000
00000000
,
00100000
00100000
00010000
00000000
,
01000000
00100000
00010000
00000000
,
00001000
00000000
00000100
00000000
,
00000001
00000001
00000010
00000000
,
00000001
00000100
00001000
00000000
,
00000100
00000000
00000010
00000000
,
00010000
00001000
00100000
00000000
,
02000000
00000000
00000000
03000000
,
10000000
00100000
00010000
00000000
,
00100000
00000000
10000000
00000000
,
01000000
00000000
00100000
00000000
,
00001000
00010000
00000010
00000000
,
00000001
00000000
00001001
00000000
,
00000100
00000001
00000010
00000000
,
00001000
00000000
00011000
00000000
,
00100000
10000000
01000000
00000000
,
00100000
00010000
00010000
00000000
,
10000000
10000000
01000000
00000000
,
00010000
00000000
00001000
00000000
,
00100000
00000000
00001000
00000000
,
00011000
00000000
00000000
00000000
;

//---------------dance-double - ----------------
#NOTES:
     dance-double:
     :
     Medium:
     6:
     :
00000000
00000000
00000000
00000000
,
00000000
00000000
00000000
00000000
,
00000000
00000000
00000000
00000000
,
00000000
00000000
00000000
00000000
,
00000000
00000000
00000000
00000000
,
00001010
00000000
00000100
00000000
00001000
00000000
01000000
00100000
,
10000000
01100000
00010000
00010000
,
10000000
00000000
10000000
00000000
01000000
00000000
00100000
00001000
,
00010000
00011000
00000010
00000010
,
00000010
00001000
00000100
00000000
00001000
00000000
00010000
00000000
,
01000000
00100000
10000000
00000000
00010000
00000000
00000010
00000000
,
00000100
00000110
00001000
00010000
,
00100000
01000000
00010000
10000000
,
01000000
00010000
00001000
00000010
,
00000010
00000010
00000100
00000001
,
00001000
00001000
00000010
00000000
00001000
00000000
00100000
00000000
,
01100000
10000000
00010000
01000000
,
00001000
01000000
00001000
00000000
00000010
00000000
00000110
00000000
,
00001000
00000001
00000100
00000000
00010000
00000000
01000000
00000000
,
00010000
10000000
00010000
01000000
00001000
00000000
00010000
00000000
,
00000110
00000001
00001100
00000010
,
00010000
01100000
10000000
00000000
,
00010000
01000000
00010000
00000000
00000100
00001000
00000100
00000000
,
00000010
00000001
00001000
00100000
,
01000000
00110000
10010000
01010000
,
00100000
00011000
00000010
00000100
,
00000001
00001000
00000010
01010000
,
10000000
10000000
00100000
00100000
,
01000000
00000000
01000000
00100000
00010000
00000000
00001000
00000000
,
00010000
00000000
00010000
00000000
00001000
00000000
00000000
00001000
,
00010000
00000000
00001000
00000000
00001000
00000000
00000000
00001000
,
00010000
00000000
00100000
00000000
01000000
00000000
10000000
01000000
,
01000000
00000000
00010000
00000000
01000000
00000000
00100000
10000000
,
01000000
00100000
00010000
10010000
,
10000000
00000000
01000000
00000000
00100000
00010000
00100000
00000000
,
00001000
00010000
00001000
00000000
00000010
00002000
00000000
00003000
,
00000100
00000000
00000010
00000000
00000001
00000100
00000001
00000000
,
00001000
00000010
00001000
00000000
00010000
00001000
00100000
00010000
,
10000000
00000000
01000000
00000000
00100000
00010000
00100000
00000000
,
00001000
00010000
00001000
00000000
00000010
00002000
00000000
00003000
,
00000100
00000000
00000010
00000000
00000001
00000100
00000001
00000000
,
00001000
00000010
00001000
00000000
00010000
00001000
00100000
00010000
,
00100000
01000000
00000000
00000000
01000000
10000000
00000000
00000000
,
10000000
00010000
00000000
00000000
00010000
01000000
00100000
00000000
,
00100000
00010000
00000000
00000000
00010000
00001000
00000000
00000000
,
00001000
00000000
00000010
00000000
00000000
00000000
00000000
00000000
00000010
00000000
00000000
00000001
00000000
00000000
00001000
00000000
,
00000010
00000100
00000000
00000000
00000100
00001000
00000000
00000000
,
00001000
00010000
00000000
00000000
00100000
01000000
10000000
00000000
,
00100000
01000000
00000000
00000000
00010000
10000000
00000000
00000000
,
10000000
00000000
01000000
00000000
00100000
00000000
00000000
00010000
00000000
00000000
10000000
00000000
00000000
00000000
00000000
00000000
,
00010000
01000000
00100000
00010000
00000000
00001000
00000000
00010000
,
00000000
00001000
00000000
00010000
00000000
00001000
00000010
00000000
,
00000001
00000100
00000010
00001000
00000000
00010000
00000000
00001000
,
00000000
00010000
00001000
00000000
00011000
00000000
00000000
00000000
,
00010000
01000000
10000000
00100000
00000000
00010000
00000000
00001000
,
00000000
00000010
00000000
00000001
00000000
00000010
00000001
00000000
,
00001000
00000100
00000001
00000010
00000000
00001000
00000000
00010000
,
00000000
00100000
10000000
00000000
20020000
00000000
30030000
00000000
,
10000000
00010000
00000000
01000000
00000000
00001000
00000000
00010000
,
00001000
00000100
00000000
00000001
00000000
00001000
00000000
00000100
,
00000010
00001000
00000000
00010000
00000000
00100000
00000000
01000000
,
00100000
00010000
00000000
00001000
00000000
00000100
00000000
00001000
,
00010000
00001000
00100000
00000000
00010000
00000000
11000000
00000000
,
00100000
00010000
00100000
00000000
00001000
00000000
00011000
00000000
,
00000010
00001000
00000010
00000000
00000001
00000100
00000001
00000100
,
00000002
00000203
00002300
00023000
,
00031000
00010000
00001000
00010000
00001000
00010000
00100000
00000000
,
01000000
00100000
01000000
00100000
01000000
00100000
10000000
00000000
,
10000000
00010000
10000000
00010000
10000000
00010000
00100000
00000000
,
00100000
00001000
00100000
00001000
00100000
00001000
00010000
00000000
,
00011000
00001000
00010000
00001000
,
00000010
00000001
00000100
00001000
,
00001100
00000101
00000011
00001010
,
00011000
00010000
00001000
00000100
00000010
00001000
00000001
00000000
,
00001000
00000010
00000100
00001000
00000000
00010000
00000000
00001000
,
00000000
00010000
00000000
00001000
00000000
00100000
00010000
00000000
,
00010000
00100000
01000000
00010000
00000000
00001000
00000000
00010000
,
00000000
00001000
00010000
00000000
00022000
00000000
00033000
00000000
,
00001000
00000010
00000001
00000100
00000000
00001000
00000000
00010000
,
00000000
01000000
00000000
10000000
00000000
00100000
00010000
00000000
,
00010000
00100000
10000000
01000000
00000000
00010000
00000000
00001000
,
00000000
00000100
00000001
00000000
00002002
00000000
00003003
00000000
,
00000001
00000000
00000010
00000000
00000100
00001000
00000100
00000000
,
00010000
00001000
00010000
00000000
01000000
00020000
00000000
00030000
,
00100000
00000000
01000000
00000000
10000000
00100000
10000000
00000000
,
00010000
01000000
00010000
00000000
00001000
00010000
00000100
00001000
,
00000001
00000000
00000010
00000000
00000100
00001000
00000100
00000000
,
00010000
00001000
00010000
00000000
01000000
00020000
00000000
00030000
,
00100000
00000000
01000000
00000000
10000000
00100000
10000000
00000000
,
00010000
01000000
00010000
00000000
00001000
00010000
00001000
00010000
,
00020000
00000000
00031000
00000001
00000000
00000000
00000000
00000000
,
00000000
00000100
00000002
00001003
,
00000200
00000000
00001300
00000010
00000000
00000000
00000000
00000000
,
00000000
00000000
00010000
00001000
,
00200000
00000000
01300000
10000000
00000000
00000000
00000000
00000000
,
00000000
00000000
00100000
10000000
,
00200000
00000000
10300000
01000000
00000000
00000000
00000000
00000000
,
00000000
00100000
00001000
00010000
,
00000200
00000000
00001300
00000001
00000000
00000000
00000000
00000000
,
00000000
00001000
00000001
00000010
,
00000200
00000000
00001300
00000010
00000000
00000000
00000000
00000000
,
00000000
00000000
00010000
00001000
,
02000000
00000000
03010000
00100000
00000000
00000000
00000000
00000000
,
00000000
00000000
00010000
10000000
,
00200000
00000000
10300000
01000000
00000000
00000000
00000000
00000000
,
00000000
00200000
00302000
00023000
,
00030200
00000000
00001300
00000010
00000000
00000000
00000000
00000000
,
00000000
00000000
00000100
00000001
00001000
00000001
00000010
00000000
,
00000200
00000000
00001300
00000001
00000000
00000000
00000000
00000000
,
00000000
00000000
00000000
00000000
00001000
00000100
00010000
00000000
,
00002000
00000000
00013000
00001000
00000000
00000000
00000000
00000000
,
00000000
00000000
00000000
00000000
01000000
00010000
10000000
00000000
,
00020000
00000000
00130000
01000000
00000000
00000000
00000000
00000000
,
00000000
00000000
00100000
00010000
01000000
00100000
10000000
00000000
,
00020000
00000000
00130000
02000000
00000000
00000000
00000000
00000000
,
03000000
00000000
00200000
00301000
00020000
00031000
02000000
03001000
,
00020000
00000000
00031000
00020000
00000000
00000000
00000000
00000000
,
00030000
00000000
00000000
00000000
00000020
00000130
00000002
00000000
,
00000023
00000000
00000130
00002000
00000000
00000000
00000000
00000000
,
00003000
00000000
00000000
00000000
00000002
00001003
00000020
00001030
,
00000002
00000000
00001003
00000200
00000000
00000000
00000000
00000000
,
00000300
00000000
00001000
00000010
00000100
00000001
00000100
00000010
,
00002002
00000000
00000000
00003003
,
00000010
00001000
00000100
00001000
,
00000010
00000001
00000100
00000001
,
00000010
00000100
00001000
00000010
,
00000100
00000000
00000010
00000000
00000001
00000000
00000100
00001000
,
00010000
00000000
01000000
00000000
10000000
00000000
00100000
00010000
,
00022000
00000000
00000000
00033000
00002020
00000000
00000000
00003030
,
00000002
00000203
00002300
00023000
,
01030000
10000000
00100000
00000000
00100000
01000000
00010000
00100000
,
00001000
00000000
00010000
00000000
00001000
00000000
00000010
00000001
,
00001000
00000000
00001000
00000000
00000001
00000100
00001000
00000000
,
00010000
00000000
00100000
00000000
10000000
01000000
00010000
00000000
,
00001000
00000000
00100000
00000000
01000000
10000000
00100000
00000000
,
01000000
00000000
00010000
00000000
00100000
00000000
01000000
00010000
,
00001000
00000000
00000100
00000000
00000001
00000010
00000100
00000000
,
00001010
00000000
00011000
00000000
01010000
00000000
01000000
00010000
,
00100000
00000000
11000000
00000000
00100000
10000000
01000000
00000000
,
00100000
00000000
01100000
00000000
01000000
00010000
00001000
00000000
,
00010000
00001000
00000100
00000000
00000100
00000001
00000010
00000000
,
00000100
00000110
00001010
00011000
,
00100000
00000000
01000000
00000000
00010000
00100000
10000000
00000000
,
10000000
00000000
00100000
00000000
00010000
01000000
10000000
00000000
,
01000000
00000000
00100000
00000000
10000000
01000000
00010000
00000000
,
00022000
00000000
00000000
00033000
,
00010000
00000000
00100000
00000000
10000000
01000000
00100000
00010000
,
10000000
00000000
01000000
00000000
00010000
00001000
00000010
00000001
,
00000100
00000000
00000010
00000000
00000100
00000001
00000010
00000100
,
00001000
00000011
00000101
00001001
,
00000001
00000000
00000010
00000000
00001000
00010000
00100000
10000000
,
01000000
00000000
00100000
00000000
00010000
10000000
01000000
00010000
,
00001000
00000000
00010000
00000000
00000010
00001000
00000100
00001000
,
00000001
00001100
00001010
00001001
,
00000001
00000000
00000010
00000000
00000100
00001000
00000010
00000100
,
00000001
00000000
00000100
00000000
00001000
00010000
00001000
00010000
,
01000000
00000000
10000000
00000000
00010000
00100000
00010000
00100000
,
01000000
11000000
00100000
00110000
,
00001000
00000000
00010000
00000000
00001000
00000010
00001000
00000010
,
00000001
00000000
00001000
00000000
00000010
00000100
00000010
00000100
,
00000001
00000100
00001000
00000000
00000100
00001000
00010000
00000000
,
00001000
00010000
00100000
10000000
01000000
00000000
10010000
00000000
,
10000000
00000000
01000000
00000000
00100000
00010000
01000000
00100000
,
10000000
00000000
00100000
00000000
00010000
00001000
00010000
00001000
,
00000010
00000000
00000001
00000000
00001000
00000100
00001000
00000100
,
00000010
00000011
00000100
00001100
,
00010000
00000000
00001000
00000000
00010000
01000000
00010000
01000000
,
10000000
00000000
00010000
00000000
01000000
00100000
01000000
00100000
,
10000000
00100000
00010000
00000000
00100000
00010000
00001000
00000000
,
00010000
00001000
00000100
00000001
00000010
00000000
00001001
00000000
,
00000010
00000001
00000100
00000000
00000100
00000010
00001000
00000100
,
00010000
00000000
00001000
00000000
00010000
00000000
01000000
10000000
,
00010000
00000000
00010000
00000000
10000000
00100000
00010000
00000000
,
00001000
00000000
00000100
00000000
00000001
00000010
00001000
00000000
,
00010000
00000000
00000100
00000000
00000010
00000001
00000100
00000000
,
00000010
00000000
00001000
00000000
00000100
00000000
00000010
00001000
,
00010000
00000000
00100000
00000000
10000000
01000000
00100000
00000000
,
01010000
00000000
00011000
00000000
00001010
00000000
00000010
00001000
,
00000002
00000000
00000103
00000000
00000010
00000010
00001000
00000000
,
00000200
00000000
00010300
00000000
00001000
00001000
01000000
00000000
,
00010000
00000000
01000000
00000000
10000000
10000000
01000000
00010000
,
00100000
00000000
00100000
00000000
01000000
00010000
00001000
00000000
,
00000010
00000000
00000101
00000000
00000001
00000100
00001000
00000000
,
00000010
00000000
00001100
00000000
00001000
00000100
00000010
00000000
,
00000001
00000100
00001000
00000000
00000100
00001000
00010000
00000000
,
00100000
01000000
00010000
10000000
01000000
00000000
00110000
00000000
,
10000000
00000000
01000000
00000000
00100000
00010000
01000000
00100000
,
10000000
00000000
00100000
00000000
00010000
00001000
00010000
00001000
,
00000010
00000000
00000001
00000000
00001000
00000100
00001000
00000100
,
00000020
00000032
00000203
00002300
,
00013000
00110000
01000000
11000000
,
00100000
01100000
00010000
00011000
,
00000010
00000100
00000001
00000010
,
00000001
00000100
00001000
00010000
,
00022000
00000000
00000000
00000000
,
00033000
00000000
00000000
00000000
;

//---------------dance-double - ----------------
#NOTES:
     dance-double:
     :
     Hard:
     8:
     :
00000000
00000000
00000000
00000000
,
00000000
00000000
00000000
00000000
,
00000000
00000000
00000000
00000000
,
00000000
00000000
00000000
00000000
,
00000000
00000000
00000000
00000000
,
00010000
00000000
00000000
10000000
00000000
00000000
10000000
00000000
00010000
00000000
00000000
00000010
00000000
00000000
00000001
00000000
,
00001000
00000000
00000000
00000100
00000000
00000000
00000010
00000000
00010000
00000000
00000000
00010000
00000000
00000000
00100000
00000000
,
01000000
00000000
00000000
00010000
00000000
00000000
00010000
00000000
01000000
00000000
00000000
00100000
00000000
00000000
10000000
00000000
,
00010000
00000000
00000000
00100000
00000000
00000000
00100000
00000000
10000000
00000000
01000000
00000000
00010000
00000000
00001000
00000000
,
00000010
00000000
00000000
00000100
00000000
00000000
00000100
00000000
00000001
00000000
00000000
00001000
00000000
00000000
00001000
00000000
,
00010000
00000000
00000000
00100000
00000000
00000000
01000000
00000000
00010000
00000000
00000000
00100000
00000000
00000000
10000000
00000000
,
00010000
00000000
00000000
00010000
00000000
00000000
01000000
00000000
00001000
00000000
00000000
00000010
00000000
00000000
00000010
00000000
,
00000001
00000000
00000000
00001000
00000000
00000000
00001000
00000000
00000010
00000000
00001000
00000000
00000100
00000000
00010000
00000000
,
00100000
01000000
00010000
00000000
10000000
00010000
10000000
00000000
,
00100000
01000000
00001000
00000000
00010000
00000010
00001000
00000000
,
00001010
00000110
00000001
00001000
00000010
00000100
00000010
00000000
,
00001010
00000001
00000100
00000000
00000010
00000100
00000010
00000000
,
00001000
00100000
01000000
00100000
00010000
10000000
11000000
00000000
,
10000000
00010000
10000000
01000000
00100000
10000000
11000000
00000000
,
00100000
00000000
00010000
01000000
00000000
00000000
00010000
00000000
00000100
00000000
00000010
00000000
00000100
00000000
00000000
00000000
,
00000101
00000010
00001001
00000100
,
00000010
00010000
00000000
00100000
00000000
10000000
00000000
01100000
,
00000000
01000000
00000000
10000000
00000000
00010000
00000000
11000000
,
00000000
00100000
00000000
00001000
00000000
00000010
00000000
00000101
,
00000000
00000010
00000000
00001000
00000000
00000100
00000010
00001000
,
00100000
10000000
00010000
10000000
01000000
00100000
01000000
10000000
,
00010000
01000000
00100000
01000000
00010000
01000000
00001000
00010000
,
00000010
00001000
00000001
00000010
00000100
00001000
00000001
00000100
,
00000001
00000000
00000000
00000000
00000000
00000000
00000010
00001000
00000001
00000000
00000010
00000100
00001000
00000000
00000001
00000000
,
00000010
00000100
00000000
00000001
00000100
00000010
00001000
00000100
,
00001000
00010000
01000000
00010000
00001000
00010000
00100000
01000000
,
10000000
00100000
00010000
01000000
10000000
00100000
00010000
01000000
,
10000000
00010000
01000000
00010000
01000000
00000000
01000000
00000000
,
00010000
10000000
00100000
10000000
00100000
00000000
10010000
00000000
,
01100000
00010000
01000000
00100000
10000000
01000000
00010000
00000000
,
00100000
00010000
01000000
00001000
00010000
00002000
00000000
00003000
,
00010000
00001000
00000100
00000010
00001000
00000001
00000010
00000000
,
00000100
00000000
00001000
00000000
00000010
00000000
00000100
00000000
00001000
00000000
00010000
00100000
00000000
00100000
10000000
00000000
,
01000000
00100000
00010000
10000000
00100000
01000000
00100000
00000000
,
00100000
00010000
00001000
00000100
00000010
00002000
00000000
00003000
,
00000001
00000100
00000010
00000100
00000001
00000010
00000100
00000000
,
00000010
00000000
00001000
00000000
00010000
00000000
01000000
00000000
00000000
00000000
01000000
00100000
01000000
00100000
01000000
00000000
,
20000000
00010000
00000000
30000000
00020000
00100000
00000000
00030000
,
00200000
00001000
00000000
00300000
00001000
00010000
00000010
00000000
,
00002000
00000010
00000000
00003000
00000020
00000100
00000000
00000030
,
00000200
00000000
00001000
00000000
00000000
00000000
00000300
00000000
00010000
00000000
00100000
10000000
00000000
10000000
01000000
00000000
,
00100000
00200000
00000000
00000000
01300000
02000000
00000000
00000000
,
03010000
00020000
00000000
00000000
00031000
00000010
00000001
00000000
,
00000100
00000200
00000000
00000000
00000310
00000020
00000000
00000000
,
00001030
00000000
00010000
00000000
01000000
00000000
00100000
10000000
00000000
00100000
01000000
00000000
10000000
00000000
00000000
00000000
,
01000000
01000000
00100000
00020000
00000000
01030000
00000000
00002000
,
00000000
00013000
00000000
00000200
00000000
00001300
00001000
00000001
,
00000100
00000100
00000010
00002000
00000000
00003100
00000000
00020000
,
00000000
00031000
00100000
00000000
20020000
00000000
30030000
00000000
,
10000000
00010000
01000000
00100000
00000000
01010000
00000000
00001000
,
00000000
00011000
00000000
00000100
00000000
00000001
00000100
00000001
,
00001000
00000100
00000010
00000001
00000000
00000110
00000000
00001000
,
00000000
00001100
00001000
00000000
00022000
00000000
00033000
00000000
,
02000000
00010000
00000000
00100000
00000000
03010000
00000000
00100000
,
00020000
00001000
00000000
00000100
00000000
00031000
00000000
00000100
,
00002000
00000001
00000000
00000100
00000000
00003001
00000000
00000010
,
00000200
00001000
00000000
00010000
00000000
00001300
00000000
00010000
,
00001000
00100000
00000000
00101000
00000000
00010100
00000000
00001000
,
00010000
00000010
00000000
00010010
00000000
01001000
00000000
00100000
,
00010000
01000000
00000000
00110000
00000000
01010000
00000000
00010000
,
10010000
01010000
00110000
00011000
,
00010000
00001000
00000100
00000010
00001000
00000001
00001000
00000100
,
00010000
00001000
00100000
00010000
01000000
00100000
10100000
00000000
,
10000000
01000000
00100000
00010000
01000000
00010000
00100000
01000000
,
00010000
00001000
00000100
00000010
00000001
00001000
00001100
00000000
,
00001001
00001000
00000100
00010000
,
00001000
01000000
00010000
00100000
,
00110000
00101000
00011000
00010100
,
00001100
00001000
00000010
00000100
00001000
00010000
00100000
00000000
,
00010000
00001000
00100000
00020000
00000000
01030000
00000000
00200000
,
00000000
01300000
00000000
20000000
00000000
31000000
00010000
01000000
,
00001000
00010000
00000010
00002000
00000000
00003100
00000000
00000020
,
00000000
00000130
00000001
00000000
00000220
00000000
00000330
00000000
,
00000010
00000100
00001000
00000010
00000000
00001010
00000000
00010010
,
00000000
00011000
00000000
00101000
00000000
00100000
00010000
00100000
,
01000000
10000000
00100000
01000000
00000000
01010000
00000000
01001000
,
00000000
00011000
00011000
00000000
00022000
00000000
00033000
00000000
,
00001000
00010000
01000000
00100000
00010000
01000000
00100000
00000000
,
01000000
10000000
01000000
00010000
00100000
00002000
00000000
00003000
,
00010000
00001000
00000100
00000010
00001000
00000001
00000010
00000000
,
00000100
00000000
00001000
00000000
00000010
00000000
00000001
00000000
00000010
00000000
00000100
00001000
00000000
00001000
00010000
00000000
,
00100000
10000000
00010000
10000000
00100000
01000000
00100000
00000000
,
00100000
00010000
00001000
00000100
00000010
00002000
00000000
00003000
,
00000001
00000100
00000010
00000100
00000001
00000010
00000100
00000000
,
00000010
00000000
00001000
00000000
00010000
00000000
01000000
00000000
00000000
00000000
01000000
00100000
01000000
10000000
00010000
00000000
,
00011000
00000000
00100000
00020000
00000000
00000000
00030000
00000000
,
00000000
11000000
10010000
01010000
,
02020000
03030000
00100000
00020000
00000000
00000000
00030000
00000000
,
00000000
00000000
00011000
00001100
,
00000202
00000303
00000010
00002000
00000000
00000000
00003000
00000000
,
00000000
00000000
00011000
00110000
,
20200000
30300000
00010000
02000000
00000000
00000000
03000000
00000000
,
00000000
00011000
00001100
00001001
,
00002002
00003003
00001000
00000020
00000000
00000000
00000030
00000000
,
00000000
00011000
01010000
11000000
,
22000000
33000000
00010000
00200000
00000000
00000000
00300000
00000000
,
00000000
00000000
00011000
00001010
,
00000220
00000330
00000010
00002000
00000000
00000000
00003000
00000000
,
00000000
00000000
00011000
00110000
,
22000000
33000000
00010000
00100000
00000000
00000000
00000000
00000000
,
00000000
00000000
00000000
00000000
00000000
00000000
00000000
00000000
00000000
00000000
00000000
00000000
00000000
00000000
00000000
00000000
00002000
00000000
00000000
00000000
00000000
00000000
00000000
00000000
00000000
00000000
00000000
00000000
00000000
00000000
00000000
00000000
00023000
00000000
00000000
00000000
00000000
00000000
00000000
00000000
00000000
00000000
00000000
00000000
00000000
00000000
00000000
00030000
00000020
00000000
00000000
00000000
00000000
00000000
00000000
00000000
00000000
00000000
00000000
00000000
00000000
00000000
00000000
00000000
,
00002030
00000000
00003001
00000010
00000000
00000000
00000000
00000000
,
00000000
00000000
00000000
00000000
00000200
00000000
00000000
00020000
00000300
00000000
00031000
00000000
00100000
00000000
00000000
00000000
,
02200000
03300000
10000000
00010000
00000000
00000000
00000000
00000000
,
00000000
00000000
00000000
00000000
00000000
00000000
00000000
00000000
00000000
00000000
00000000
00000000
00000000
00000000
00000000
00000000
00000000
00000000
00000000
00000000
00000000
00000000
00000000
00000000
00000000
00000000
00000000
00000000
00000000
00000000
00000000
00000000
00200000
00000000
00000000
00000000
00000000
00000000
00000000
00000000
00300000
00000000
00000000
00000000
00002000
00000000
00000000
00000000
00000000
00000000
00000000
00000000
00000000
00000000
00000000
00003000
00000000
00000000
00000000
00000000
00000000
00000000
00000000
00000000
,
00022000
00033000
00010000
00001000
00000000
00000000
00000000
00000000
,
00000000
00000000
00000000
00000000
00000000
00000000
00000000
00000000
02000000
00000000
00000000
03020000
00000000
00000000
00030000
00000000
,
20020000
30030000
01000000
00100000
00000000
00000000
00000000
00000000
,
00000000
00000000
00000000
00000000
02000000
00000000
03000000
00002000
00000000
00000000
00013000
00000000
00000010
00000000
00000000
00000000
,
00002020
00003030
00001000
00000200
00000000
00000000
00000000
00000000
,
00001300
00000000
00000000
00000001
00001000
00000000
00000000
00000000
00000001
00000000
00000000
00001000
00000001
00000000
00000000
00000000
,
00000202
00000303
00001000
00000020
00000000
00000000
00000000
00000000
,
00000130
00000000
00000000
00000001
00000100
00000000
00000000
00000000
00000001
00000000
00000000
00000100
00000001
00000000
00000000
00000000
,
00002200
00003300
00010000
00002000
00000000
00000000
00000000
00000000
,
01003000
00000000
00000000
00100000
01000000
00000000
00000000
00000000
00100000
00000000
00000000
01000000
00100000
00000000
00000000
00000000
,
02020000
03030000
10000000
00200000
00000000
00000000
00000000
00000000
,
00300000
20000000
32000000
03100000
,
00000000
00000000
00000000
00000000
,
00000000
00000000
00000000
00000000
,
00000000
00000000
00000000
00000000
,
00000000
00000000
00000000
00000000
,
00000011
00000000
00000100
00000000
00001000
00000000
00000010
00000100
,
00000110
00000000
00000100
00000000
00001000
00000000
00010000
00001000
,
00202000
00000000
00000000
00303000
02020000
00000000
00000000
03030000
,
00010000
00000000
00000000
00000000
01000000
00000000
00000000
00000000
10000000
00000000
00000000
01000000
00010000
00000000
00100000
00000000
,
10000000
00100000
00010000
00100000
01000000
00010000
00001000
00010000
,
01000000
10000000
00100000
01000000
00010000
00100000
01000000
00000000
,
10000000
01000000
00010000
01000000
10000000
00100000
00010000
00001000
,
00010000
00011000
00001100
00000110
,
00000001
00000010
00000100
00001000
00000010
00000100
00001000
00000100
,
00000001
00000010
00001000
00010000
00001000
00000010
00000001
00000000
,
00000010
00000100
00001000
00000001
00000100
00001000
00000100
00001000
,
00010000
00011000
01010000
11000000
,
00100000
10000000
01000000
00000000
01000000
00100000
00010000
00000000
,
10000000
01000000
00010000
00000000
00010000
01000000
10000000
00000000
,
00100000
10000000
01000000
00010000
00001000
00010000
00000010
00000000
,
00001000
00001100
00000110
00001001
,
00000001
00000100
00000010
00000000
00001000
00000100
00000001
00000000
,
00000100
00001000
00000010
00000000
00000100
00001000
00010000
00000000
,
00001000
00010000
00100000
00000000
10000000
01000000
00100000
00000000
,
22000000
00000000
00000000
33000000
,
01000000
10000000
01000000
00100000
00001000
00010000
00001000
00000000
,
00010000
00001000
00100000
01000000
10000000
00010000
00100000
00000000
,
01000000
00010000
00001000
00000000
00010000
00001000
00000010
00000000
,
00000001
00000010
00000100
00001000
00000001
00000000
00000110
00000000
,
00000100
00000001
00000100
00001000
00000100
00000001
00000100
00000000
,
00001000
00010000
00001000
00010000
00100000
10000000
01000000
00000000
,
00100000
00010000
10000000
00000000
01000000
10000000
00010000
00000000
,
01100000
00000000
00101000
00000000
00010100
00000000
00000100
00001000
,
00000010
00000100
00000001
00000010
00000100
00001000
00000100
00000001
,
00000100
00000000
00001100
00000000
00011000
00000000
00010000
00100000
,
10000000
01000000
00100000
00010000
10000000
00100000
01000000
00000000
,
00010000
00110000
00011000
00001010
,
00000001
00000010
00000100
00001000
00000010
00000100
00000001
00000100
,
00001000
00000000
00011000
00000000
00101000
00000000
00100000
01000000
,
10000000
00100000
00010000
00100000
10000000
01000000
00100000
00000000
,
00110000
00000000
00000000
00000000
00011000
00000000
00000000
00000000
00001010
00000000
00000000
00000100
00000010
00000000
00000100
00000000
,
00000001
00000100
00001000
00000100
00000001
00000010
00000100
00001000
,
00000010
00000000
00001100
00000000
00011000
00000000
00010000
01000000
,
10000000
00100000
10000000
01000000
00100000
00010000
10000000
00000000
,
01000000
00000000
00110000
00000000
00011000
00000000
00001000
00000010
,
00000001
00000100
00001000
00000100
00000001
00000100
00000001
00000010
,
00001000
00000000
00011000
00000000
00101000
00000000
01000000
10000000
,
00100000
00010000
00100000
10000000
01000000
00010000
01000000
00000000
,
00110000
00000000
00011000
00000000
00001010
00000000
00001000
00000100
,
00000001
00000100
00001000
00000100
00000010
00001000
00010000
00100000
,
10000000
01000000
00010000
01000000
10000000
01000000
00010000
00000000
,
01000000
10000000
00100000
00010000
00100000
01000000
00100000
00010000
,
00001000
00011000
00001100
00000110
,
00001000
00000100
00000010
00000001
00000100
00000010
00000001
00000010
,
00001000
00000100
00010000
00001000
00010000
01000000
10000000
00000000
,
01000000
00100000
00010000
10000000
00100000
00010000
00100000
00010000
,
00002000
00023000
00030020
00000032
,
00000013
00000000
00000101
00000000
00000001
00000100
00001000
00000000
,
00010000
00000000
00011000
00000000
00010000
01000000
10000000
00000000
,
00100000
00000000
11000000
00000000
10000000
01000000
00010000
00000000
,
01000000
00000000
11000000
00000000
10000000
00100000
00010000
00000000
,
00001000
00000000
00011000
00000000
00010000
00001000
00000010
00000000
,
00000100
00000000
00000011
00000000
00000001
00000100
00001000
00000000
,
00001000
00010000
01000000
00000000
01000000
10000000
00100000
00000000
,
10000000
01000000
00100000
00001000
00010000
00000010
00002000
00000000
,
00003001
00000100
00001000
00000100
00000001
00000010
00001000
00000000
,
00010000
00100000
10000000
01000000
00010000
01000000
10000000
00000000
,
01000000
00010000
00001000
00000000
00100000
01000000
10000000
00000000
,
00100000
00010000
00001000
00010000
00001000
00000100
00000001
00000000
,
00000000
00000010
00000100
00001000
00000000
00000100
00000001
00000100
,
00000000
00001000
00000010
00000100
00000000
00001000
00010000
00100000
,
00000000
01000000
00000000
00010000
00000000
10000000
00000000
01000000
,
00000000
00100000
00000000
00001000
00000000
00010000
00000000
00000010
,
00002020
00000000
00000000
00000000
,
00003030
00000000
00000000
00000000
;
