#TITLE:Power 1 (Funky House Mix);
#ARTIST:DJ Diode;
#BANNER:Power 1 (Funky House Mix).png;
#BACKGROUND:Power 1 (Funky House Mix)-bg.png;
#CDTITLE:./CDTITLES/DanceDanceRevolution UNIVERSE2.png;
#MUSIC:Power 1 (Funky House Mix).ogg;
#SAMPLESTART:75.327;
#SAMPLELENGTH:15;
#DISPLAYBPM:130;
#BPMS:0=130.003,148=129.964,164=130.006,287=130.058,292=130,448=129.964,452=130.005,588=130.12,600=131.387,604=130.435;

//---------------dance-single - ----------------
#NOTES:
     dance-single:
     :
     Beginner:
     1:
     :
0000
0000
0000
0000
,
0000
0000
0000
0000
,
0000
0000
0000
0000
,
1000
0000
0000
0000
,
0001
0000
0010
0000
,
1000
0000
1000
0000
,
0001
0000
0001
0000
,
1000
0000
1000
0000
,
0001
0000
0001
0000
,
0100
0000
0100
0000
,
0010
0000
0010
0000
,
0100
0000
0100
0000
,
0010
0000
0010
0000
,
1001
0000
1000
0000
,
1001
0000
0001
0000
,
1001
0000
0100
0000
,
1001
0000
0010
0000
,
1000
0000
0001
0000
,
0001
0000
1000
0000
,
1000
0000
0001
0000
,
0001
0000
1000
0000
,
0010
0000
0010
0000
,
0010
0000
0010
0000
,
1000
0000
1000
0000
,
0001
0000
0001
0000
,
0100
0000
0100
0000
,
0100
0000
0100
0000
,
1000
0000
1000
0000
,
0001
0000
0001
0000
,
1001
0000
0010
0000
,
1000
0000
0010
0000
,
1001
0000
0010
0000
,
0001
0000
0010
0000
,
1000
0000
0001
0000
,
0001
0000
1000
0000
,
1000
0000
0100
0000
,
0001
0000
0010
0000
,
1000
0000
0010
0000
,
0001
0000
0010
0000
,
1000
0000
0010
0000
,
0001
0000
0010
0000
,
0001
0000
1000
0000
,
0001
0000
1000
0000
,
0001
0000
0010
0000
,
0001
0000
0100
0000
,
1001
0000
0100
0000
,
1000
0000
0100
0000
,
0001
0000
1000
0000
,
0010
0000
0010
0000
,
0110
0000
1000
0000
,
0010
0000
0001
0000
,
1000
0000
0001
0000
,
0001
0000
1000
0000
,
1001
0000
0010
0000
,
0001
0000
0010
0000
,
0110
0000
0110
0000
,
0001
0000
1000
0000
,
0010
0000
0100
0000
,
1000
0000
0001
0000
,
0000
0100
0000
0001
,
0000
1000
0000
1001
,
0000
1001
0000
1001
,
0000
0110
0000
1001
,
0000
0100
0000
0010
,
0000
1000
0000
0000
,
0110
0000
1000
0000
,
1001
0000
0010
0000
,
0001
0000
1000
0000
,
0001
0000
0001
0000
,
1001
0000
0100
0000
,
0110
0000
0001
0000
,
1000
0000
0001
0000
,
1000
0000
0001
0000
,
1001
0000
0010
0000
,
1000
0000
0001
0000
,
0100
0000
0010
0000
,
1000
0000
0000
0000
,
0100
0000
0010
0000
,
0001
0000
0000
0000
,
0100
0000
0010
0000
,
1000
0000
1000
0000
,
0001
0000
0000
0000
,
1000
0000
0000
0000
,
0100
0000
0010
0000
,
1001
0000
0000
0000
,
0010
0000
0000
0000
,
0100
0000
0000
0000
,
1000
0000
0001
0000
,
1001
0000
0000
0000
,
0100
0000
0010
0000
,
0001
0000
0000
0000
,
0100
0000
0001
0000
,
0010
0000
0000
0000
,
0001
0000
0100
0000
,
1000
0000
0000
0000
,
0100
0000
0001
0000
,
1000
0000
0010
0000
,
0001
0000
1000
0000
,
1001
0000
0000
0000
,
0100
0000
1000
0000
,
0100
0000
0010
0000
,
0001
0000
1000
0000
,
1001
0000
0000
0000
,
0100
0000
1000
0000
,
0010
0000
0100
0000
,
0010
0000
0000
0000
,
1000
0000
0000
0000
,
0001
0000
0000
0000
,
1000
0000
0100
0000
,
0010
0000
0000
0000
,
0001
0000
0000
0000
,
1000
0000
0000
0000
,
0110
0000
0000
0000
,
0110
0000
1001
0000
,
0001
0000
1000
0000
,
0010
0000
0010
0000
,
0010
0000
0001
0000
,
1001
0000
0110
0000
,
1000
0000
0010
0000
,
0100
0000
1000
0000
,
0010
0000
1000
0000
,
0110
0000
0110
0000
,
0100
0000
0001
0000
,
1000
0000
0010
0000
,
0010
0000
0100
0000
,
0110
0000
0110
0000
,
0100
0000
1000
0000
,
0001
0000
0010
0000
,
0010
0000
0100
0000
,
0100
0000
0110
0000
,
0001
0000
0100
0000
,
1000
0000
0010
0000
,
0001
0000
0100
0000
,
0010
0000
0110
0000
,
0110
0000
0110
0000
,
0100
0000
0100
0000
,
0100
0000
0001
0000
,
0110
0000
0100
0000
,
1000
0000
0001
0000
,
1001
0000
0010
0000
,
0010
0000
0001
0000
,
1001
0000
0001
0000
,
0001
0000
0100
0000
,
1001
0000
0110
0000
,
0010
0000
0100
0000
,
0110
0000
1001
0000
,
1000
0000
0001
0000
,
1001
0000
0110
0000
,
0100
0000
0010
0000
,
0001
0000
1000
0000
,
0010
0000
0100
0000
,
1001
0000
0000
0000
;

//---------------dance-single - ----------------
#NOTES:
     dance-single:
     :
     Easy:
     3:
     :
0000
0000
0000
0000
,
0000
0000
0000
0000
,
0000
0000
0000
0000
,
1000
0000
0000
0000
,
0001
0000
0010
0100
,
1000
0000
1000
0000
,
0001
0000
0001
0000
,
1000
0000
1000
0000
,
0001
0000
0001
0000
,
0100
0010
0100
0000
,
0010
0100
0010
0000
,
0100
0010
0100
0000
,
0010
0100
0010
0010
,
1001
0000
1000
0000
,
1001
0000
0001
0000
,
1001
0000
0100
0000
,
1001
0000
0010
0000
,
1000
1000
0001
0000
,
0001
0001
1000
0000
,
1000
1000
0001
0000
,
0001
0001
1000
0000
,
0010
0100
0010
0001
,
0010
0100
0010
0000
,
1000
0001
1000
0100
,
0001
1000
0001
0000
,
0100
0010
0100
1000
,
0100
0010
0100
0000
,
1000
0001
1000
0000
,
0001
1000
0001
0100
,
1001
0100
0010
0000
,
1000
0100
0010
0000
,
1001
0100
0010
0000
,
0001
0100
0010
0000
,
1000
1000
0001
0000
,
0001
0001
1000
0000
,
1000
1000
0100
0000
,
0001
0001
0010
0000
,
1000
1000
0010
0100
,
0001
0001
0010
0100
,
1000
1000
0010
0100
,
0001
0001
0010
0100
,
0001
0010
1000
0010
,
0001
0100
1000
0100
,
0001
1000
0010
0100
,
0001
1000
0100
0010
,
1001
0010
0100
0010
,
1000
0010
0100
0010
,
0001
0100
1000
0100
,
0010
0001
0010
1000
,
0110
0001
1000
0100
,
0010
1000
0001
0100
,
1000
0010
0001
1000
,
0001
0010
1000
0001
,
1001
0100
0010
0001
,
0001
0100
0010
1000
,
0110
0001
0110
1000
,
0002
0000
0000
0000
0000
0000
0000
0000
0000
0000
0000
0000
0000
0000
0000
0000
0010
0000
0000
0000
0000
0000
0000
0000
0000
0000
0000
0000
0000
0000
0000
0000
1000
0000
0000
0000
0000
0000
0000
0000
0000
0000
0000
0000
0000
0000
0000
0003
0100
0000
0000
0000
0000
0000
0000
0000
0000
0000
0000
0000
0000
0000
0000
0000
,
0010
1000
0100
0001
,
1000
0010
0001
0100
,
0000
0100
0000
0001
,
0000
1000
0000
1001
,
0010
1001
0100
1001
,
0110
0110
1001
1001
,
0001
0100
1000
0010
,
0001
0000
0000
0000
0000
0000
0000
0000
0000
0000
0000
0000
0000
0000
0000
0000
1000
0000
0000
0000
0000
0000
0000
0000
0000
0000
0000
0000
0000
0000
0000
0000
2002
0000
0000
0000
0000
0000
0000
0000
0000
0000
0000
0000
0000
0000
0000
3003
0000
0000
0000
0000
0000
0000
0000
0000
0000
0000
0000
0000
0000
0000
0000
0000
,
0110
0001
1000
1001
,
1001
0100
0010
0110
,
0001
0100
1000
0100
,
0001
0010
0001
0100
,
1001
0010
0100
0110
,
0110
1000
0001
1001
,
1000
0010
0001
0010
,
2000
0000
0000
0000
0000
0000
0000
0000
0000
0000
0000
0000
0000
0000
0000
0000
0100
0000
0000
0000
0000
0000
0000
0000
0000
0000
0000
0000
0000
0000
0000
0000
0001
0000
0000
0000
0000
0000
0000
0000
0000
0000
0000
0000
0000
0000
0000
3000
0010
0000
0000
0000
0000
0000
0000
0000
0000
0000
0000
0000
0000
0000
0000
0000
,
1001
0000
0010
0000
,
1000
0000
0001
0000
,
0100
0000
0010
0000
,
1000
0000
0000
0000
,
0100
0000
0010
0000
,
0001
0000
0000
0000
,
0100
0000
0010
0000
,
1000
1000
1000
0000
,
0001
0000
0000
0000
,
1000
0000
0000
0000
,
0100
0000
0010
0000
,
2002
0000
0000
0000
0000
0000
0000
0000
0000
0000
0000
0000
0000
0000
0000
0000
0000
0000
0000
0000
0000
0000
0000
0000
0000
0000
0000
0000
0000
0000
0000
3003
0000
0000
0000
0000
0000
0000
0000
0000
0000
0000
0000
0000
0000
0000
0000
0000
0000
0000
0000
0000
0000
0000
0000
0000
0000
0000
0000
0000
0000
0000
0000
0000
,
0010
0000
0000
0000
,
0100
0000
0000
0000
,
1000
0000
0001
0000
,
2002
0000
0000
0000
0000
0000
0000
0000
0000
0000
0000
0000
0000
0000
0000
0000
0000
0000
0000
0000
0000
0000
0000
0000
0000
0000
0000
0000
0000
0000
0000
3003
0000
0000
0000
0000
0000
0000
0000
0000
0000
0000
0000
0000
0000
0000
0000
0000
0000
0000
0000
0000
0000
0000
0000
0000
0000
0000
0000
0000
0000
0000
0000
0000
,
0100
0000
0010
0000
,
0001
0000
0000
0000
,
0100
0000
0001
0000
,
0020
0000
0000
0000
0000
0000
0000
0000
0000
0000
0000
0000
0000
0000
0000
0000
0000
0000
0000
0000
0000
0000
0000
0000
0000
0000
0000
0000
0000
0000
0000
0000
0000
0000
0000
0000
0000
0000
0000
0000
0000
0000
0000
0000
0000
0000
0000
0030
0000
0000
0000
0000
0000
0000
0000
0000
0000
0000
0000
0000
0000
0000
0000
0000
,
0001
0000
0100
0000
,
1000
0000
0000
0000
,
0100
0000
0001
0000
,
1000
0100
0010
0000
,
0001
0000
1000
0000
,
2002
0000
0000
0000
0000
0000
0000
0000
0000
0000
0000
0000
0000
0000
0000
0000
0000
0000
0000
0000
0000
0000
0000
0000
0000
0000
0000
0000
0000
0000
0000
0000
0000
0000
0000
0000
0000
0000
0000
0000
0000
0000
0000
0000
0000
0000
0000
3003
0000
0000
0000
0000
0000
0000
0000
0000
0000
0000
0000
0000
0000
0000
0000
0000
,
0100
0000
1000
0000
,
0100
0000
0010
0000
,
0001
0000
1000
0000
,
2002
0000
0000
0000
0000
0000
0000
0000
0000
0000
0000
0000
0000
0000
0000
0000
0000
0000
0000
0000
0000
0000
0000
0000
0000
0000
0000
0000
0000
0000
0000
0000
0000
0000
0000
0000
0000
0000
0000
0000
0000
0000
0000
0000
0000
0000
0000
3003
0000
0000
0000
0000
0000
0000
0000
0000
0000
0000
0000
0000
0000
0000
0000
0000
,
0100
0000
1000
0000
,
0010
0000
0100
0000
,
0020
0000
0000
0000
0000
0000
0000
0000
0000
0000
0000
0000
0000
0000
0000
0000
0000
0000
0000
0000
0000
0000
0000
0000
0000
0000
0000
0000
0000
0000
0000
0000
0000
0000
0000
0000
0000
0000
0000
0000
0000
0000
0000
0000
0000
0000
0000
0030
0000
0000
0000
0000
0000
0000
0000
0000
0000
0000
0000
0000
0000
0000
0000
0000
,
2000
0000
0000
0000
0000
0000
0000
0000
0000
0000
0000
0000
0000
0000
0000
0000
0000
0000
0000
0000
0000
0000
0000
0000
0000
0000
0000
0000
0000
0000
0000
0000
0000
0000
0000
0000
0000
0000
0000
0000
0000
0000
0000
0000
0000
0000
0000
3000
0000
0000
0000
0000
0000
0000
0000
0000
0000
0000
0000
0000
0000
0000
0000
0000
,
0002
0000
0000
0000
0000
0000
0000
0000
0000
0000
0000
0000
0000
0000
0000
0000
0000
0000
0000
0000
0000
0000
0000
0000
0000
0000
0000
0000
0000
0000
0000
0000
0000
0000
0000
0000
0000
0000
0000
0000
0000
0000
0000
0000
0000
0000
0000
0003
0000
0000
0000
0000
0000
0000
0000
0000
0000
0000
0000
0000
0000
0000
0000
0000
,
1000
0000
0100
0000
,
0020
0000
0000
0000
0000
0000
0000
0000
0000
0000
0000
0000
0000
0000
0000
0000
0000
0000
0000
0000
0000
0000
0000
0000
0000
0000
0000
0000
0000
0000
0000
0000
0000
0000
0000
0000
0000
0000
0000
0000
0000
0000
0000
0000
0000
0000
0000
0030
0000
0000
0000
0000
0000
0000
0000
0000
0000
0000
0000
0000
0000
0000
0000
0000
,
0002
0000
0000
0000
0000
0000
0000
0000
0000
0000
0000
0000
0000
0000
0000
0000
0000
0000
0000
0000
0000
0000
0000
0000
0000
0000
0000
0000
0000
0000
0000
0000
0000
0000
0000
0000
0000
0000
0000
0000
0000
0000
0000
0000
0000
0000
0000
0003
0000
0000
0000
0000
0000
0000
0000
0000
0000
0000
0000
0000
0000
0000
0000
0000
,
2000
0000
0000
0000
0000
0000
0000
0000
0000
0000
0000
0000
0000
0000
0000
0000
0000
0000
0000
0000
0000
0000
0000
0000
0000
0000
0000
0000
0000
0000
0000
0000
0000
0000
0000
0000
0000
0000
0000
0000
0000
0000
0000
0000
0000
0000
0000
3000
0000
0000
0000
0000
0000
0000
0000
0000
0000
0000
0000
0000
0000
0000
0000
0000
,
0110
0000
0000
0000
,
0110
1000
1001
0110
,
0001
0100
1000
0100
,
0010
1000
0010
0001
,
0010
1000
0001
0100
,
1001
0010
0110
1001
,
1000
0100
0010
0001
,
0100
0010
1000
0100
,
0010
0001
1000
0010
,
0110
0001
0110
1000
,
0100
0010
0001
0100
,
1000
0100
0010
0001
,
0010
1000
0100
0001
,
0110
1000
0110
0001
,
0100
0010
1000
0100
,
0001
0100
0010
1000
,
0010
0001
0100
1000
,
0100
0010
0110
1001
,
0002
0000
0000
0000
0000
0000
0000
0000
0000
0000
0000
0000
0000
0000
0000
0000
0010
0000
0000
0000
0000
0000
0000
0000
0000
0000
0000
0000
0000
0000
0000
0000
0100
0000
0000
0000
0000
0000
0000
0000
0000
0000
0000
0000
0000
0000
0000
0003
1000
0000
0000
0000
0000
0000
0000
0000
0000
0000
0000
0000
0000
0000
0000
0000
,
2000
0000
0000
0000
0000
0000
0000
0000
0000
0000
0000
0000
0000
0000
0000
0000
0100
0000
0000
0000
0000
0000
0000
0000
0000
0000
0000
0000
0000
0000
0000
0000
0010
0000
0000
0000
0000
0000
0000
0000
0000
0000
0000
0000
0000
0000
0000
3000
0001
0000
0000
0000
0000
0000
0000
0000
0000
0000
0000
0000
0000
0000
0000
0000
,
0001
0010
0100
1000
,
0010
0100
0110
1001
,
0110
0001
0110
1000
,
0100
0010
0100
0001
,
0100
1000
0001
1001
,
0110
0001
0100
0010
,
1000
0100
0001
0100
,
1001
0100
0010
0001
,
0010
1000
0001
0010
,
1001
1000
0001
0010
,
0001
1000
0100
0010
,
1001
0100
0110
1001
,
0010
1001
0100
1001
,
0110
0100
1001
0110
,
1000
0110
0001
0110
,
1001
1000
0110
1001
,
0100
1001
0010
1001
,
0001
1001
1000
1001
,
0010
0110
0100
0110
,
1001
0000
0000
0000
;

//---------------dance-single - ----------------
#NOTES:
     dance-single:
     :
     Medium:
     6:
     :
0000
0000
0000
0000
,
0000
0000
0000
0000
,
0000
0000
0000
0000
,
1000
0000
0000
0000
,
0001
0000
0010
0100
,
1000
1000
1000
0000
,
0001
0001
0001
0000
,
1000
1000
1000
0000
,
0001
0001
0001
0000
,
0100
0010
0100
0100
,
0010
0100
0010
0010
,
0100
0010
0100
0100
,
0010
0100
0010
0010
,
1001
0000
1000
0100
,
1001
0000
0001
0100
,
1001
0000
1000
0100
,
1001
0000
0001
0010
,
1000
1000
0001
0110
,
0001
0001
1000
0110
,
1000
1000
0010
1001
,
0001
0001
0010
1001
,
1010
0000
0100
1000
0010
0000
1000
0000
,
1010
0100
0010
0100
,
1001
0000
0000
0001
1000
0000
0101
0000
,
0011
1000
0001
0010
,
1100
0000
0010
1000
0100
0000
1000
0000
,
0101
0010
0100
0001
,
0001
0000
1000
0001
0100
0000
0001
0000
,
0001
0000
1000
0000
0100
0100
0100
0000
,
0010
1000
0000
0001
0010
0001
0000
1000
,
0000
0001
0100
0001
0000
1000
0100
1000
,
0010
1000
0000
0001
0010
0001
0000
1000
,
0000
0001
0100
0001
0000
1000
0100
1000
,
0001
1000
1001
0000
,
0001
0001
1001
0000
,
1000
1000
0110
0000
,
0001
0001
0110
0000
,
1000
1000
0010
0100
,
0001
0001
0010
0100
,
1000
1000
0010
0100
,
0001
0001
0010
0100
,
1000
0100
0010
0000
0001
0100
0010
0000
,
1000
0001
0100
0000
0001
1000
0010
0000
,
0100
0001
0010
0000
0100
1000
0010
0000
,
0001
0010
1000
0000
1000
0100
0001
0000
,
0100
1000
0100
0000
0010
0001
1000
0000
,
0001
0100
0001
0000
0010
0100
1000
0000
,
0001
0010
1000
0000
0010
0001
0100
0000
,
1000
0100
0001
0000
0100
0001
0010
0000
,
0010
0010
1001
0000
0001
0001
0110
0000
,
1000
0100
1100
0000
0010
0001
0011
0000
,
1000
0001
0110
0000
0010
0100
1001
0000
,
0010
1000
1100
0000
1000
0001
0101
0000
,
1000
1000
0110
0000
0001
0100
0101
0000
,
1000
0001
0110
0000
0001
1000
1100
0000
,
0100
0100
1001
0000
0001
0010
0011
0000
,
0200
0000
0000
0000
0000
0000
0000
0000
0000
0000
0000
0000
0000
0000
0000
0000
1000
0000
0000
0000
0000
0000
0000
0000
0000
0000
0000
0000
0000
0000
0000
0000
0010
0000
0000
0000
0000
0000
0000
0000
0000
0000
0000
0000
0000
0000
0000
0300
0001
0000
0000
0000
0000
0000
0000
0000
0000
0000
0000
0000
0000
0000
0000
0000
,
1000
0100
0010
0001
0010
0100
1000
0000
,
0001
0010
0100
1000
0100
0010
0001
0000
,
2000
0000
0000
0000
0000
0000
0000
0000
0000
0000
0000
0000
0000
0000
0000
0000
0100
0000
0000
0000
0000
0000
0000
0000
0000
0000
0000
0000
0000
0000
0000
0000
0000
0000
0000
0000
0000
0000
0000
0000
0000
0000
0000
0000
0000
0000
0000
3000
0100
0000
0000
0000
0000
0000
0000
0000
0000
0000
0000
0000
0000
0000
0000
0000
,
0002
0000
0000
0000
0000
0000
0000
0000
0000
0000
0000
0000
0000
0000
0000
0000
0100
0000
0000
0000
0000
0000
0000
0000
0000
0000
0000
0000
0000
0000
0000
0003
0010
0000
0000
0000
0000
0000
0000
0000
0000
0000
0000
0000
0000
0000
0000
0000
1001
0000
0000
0000
0000
0000
0000
0000
0000
0000
0000
0000
0000
0000
0000
0000
,
0010
0101
0010
1100
,
1000
1000
0010
0010
0100
0100
0001
0001
,
0100
0010
0100
0010
1000
0001
1000
0001
,
0100
0000
0000
0000
0000
0000
0000
0000
0010
0000
0000
0000
0000
0000
0000
0000
1000
0000
0000
0000
0000
0000
0000
0000
0001
0000
0000
0000
0000
0000
0000
0000
2002
0000
0000
0000
0000
0000
0000
0000
0000
0000
0000
0000
0000
0000
0000
3003
0000
0000
0000
0000
0000
0000
0000
0000
0000
0000
0000
0000
0000
0000
0000
0000
,
0010
0000
0000
0100
0010
0000
0000
0000
1000
0000
0000
0000
0001
0000
0000
0000
,
0010
0000
0000
0100
0010
0000
0000
0000
0001
0000
0000
0000
1000
0000
0000
0000
,
0100
0010
0100
0000
1000
0001
1000
0000
,
0010
0100
0010
0000
0001
1000
0001
0000
,
1000
0000
0000
0001
1000
0000
0000
0000
0100
0000
0000
0000
0010
0000
0000
0000
,
0001
0000
0000
1000
0001
0000
0000
0000
0100
0000
0000
0000
0010
0000
0000
0000
,
1000
0100
0001
0100
1000
0100
0001
0100
,
2000
0000
0000
0000
0000
0000
0000
0000
0000
0000
0000
0000
0000
0000
0000
0000
0010
0000
0000
0000
0000
0000
0000
0000
0000
0000
0000
0000
0000
0000
0000
0000
0001
0000
0000
0000
0000
0000
0000
0000
0000
0000
0000
0000
0000
0000
0000
3000
0100
0000
0000
0000
0000
0000
0000
0000
0000
0000
0000
0000
0000
0000
0000
0000
,
1001
0001
0001
0001
,
0010
0000
0000
0010
,
1001
1000
1000
1000
,
0100
0000
0000
0100
,
1001
0001
0001
0001
,
0100
0000
0000
0100
,
1001
1000
1000
1000
,
1000
0001
0100
0000
0010
0000
0100
0000
,
1001
0100
0001
0100
,
1000
0000
0100
0000
0001
0000
0100
0010
,
1000
0010
0100
0010
,
1000
0000
0100
0000
0010
0000
0001
1000
,
0100
0001
0100
1000
,
0100
0000
0001
0000
0100
0000
1000
0100
,
0001
0100
1000
0001
,
2002
0000
0000
0000
0000
0000
0000
0000
0000
0000
0000
0000
0000
0000
0000
3003
0000
0000
0000
0000
0000
0000
0000
0000
0000
0000
0000
0000
0000
0000
0000
0000
0001
0000
0000
0000
0000
0000
0000
0000
0100
0000
0000
0000
0000
0000
0000
0000
0010
0000
0000
0000
0000
0000
0000
0000
0000
0000
0000
0000
0000
0000
0000
0000
,
1000
0001
0100
0010
,
0100
0000
0001
0000
1000
0100
0001
0000
,
0100
1000
0001
0100
,
1001
0000
0000
0010
,
0001
1000
0100
1000
,
0001
0000
0100
0000
0010
1000
0100
0000
,
0010
0100
1000
0001
,
0010
0100
0001
0000
1000
0000
0001
0000
,
0110
1001
0110
1001
,
0010
0100
0001
1000
,
0010
1000
0100
0001
,
0010
0100
0001
1000
,
0011
1100
0011
1100
,
0010
0001
1000
0100
,
0010
0001
0100
1000
,
0010
0000
0100
0000
0110
0000
0000
0001
,
1000
0010
0100
0001
,
1000
0100
0010
0001
,
0100
0010
1000
0001
,
0200
0000
0000
0000
0000
0000
0000
0000
0000
0000
0000
0000
0000
0000
0000
0000
0000
0000
0000
0000
0000
0000
0000
0000
0000
0000
0000
0000
0000
0000
0000
0000
0000
0000
0000
0000
0000
0000
0000
0000
0000
0000
0000
0000
0000
0000
0000
0300
0010
0000
0000
0000
0000
0000
0000
0000
0000
0000
0000
0000
0000
0000
0000
0000
,
0001
1000
0100
0010
,
0001
0100
0010
1000
,
0001
0100
0010
1000
,
1001
0000
0000
0110
0000
0000
0001
1000
,
1001
1000
0001
0000
0101
0000
1010
0000
,
0001
0000
0000
0000
0000
0000
0000
0000
0100
0000
0000
0000
0000
0000
0000
0000
1000
0000
0000
0000
0000
0000
0000
0000
0000
0000
0000
0000
0000
0000
0000
0000
0100
0000
0000
0000
0000
0000
0000
0000
0002
0000
0000
0000
0000
0000
0000
0000
0000
0000
0000
0000
0000
0000
0000
0003
0010
0000
0000
0000
0000
0000
0000
0000
,
1000
0010
0001
0000
1000
0010
0100
0000
,
0001
1000
0100
1000
0001
0010
0001
0000
,
1001
0001
1000
0000
1100
0000
0011
0000
,
1000
0000
0000
0000
0000
0000
0000
0000
0100
0000
0000
0000
0000
0000
0000
0000
0001
0000
0000
0000
0000
0000
0000
0000
0000
0000
0000
0000
0000
0000
0000
0000
0100
0000
0000
0000
0000
0000
0000
0000
2000
0000
0000
0000
0000
0000
0000
0000
0000
0000
0000
0000
0000
0000
0000
3000
0010
0000
0000
0000
0000
0000
0000
0000
,
0001
0010
1000
0000
0001
0100
0010
0000
,
1000
0001
0010
0100
0010
0001
1000
0000
,
0110
0010
1000
0100
0010
0001
0100
0000
,
1000
0000
0100
0001
0000
0010
1000
0000
,
0001
0100
1000
0010
0100
0001
1000
0010
,
0001
0000
0000
0010
0000
0000
0100
0000
0000
0001
0000
0000
1000
0000
0100
0000
,
0001
0100
1000
0010
0100
0001
0010
0000
,
1000
0000
0010
0001
0000
0100
1000
0000
,
1001
0000
0010
1000
0010
0100
0001
0100
,
1000
0000
0000
0100
0000
0000
0010
0000
0000
1000
0000
0000
0001
0000
0100
0000
,
1000
0000
0000
0000
0000
0000
0000
0000
0100
0000
0000
0000
0000
0000
0000
0000
0002
0000
0000
0000
0000
0000
0000
0000
0000
0000
0000
0000
0000
0000
0000
0003
1000
0000
0000
0000
0000
0000
0000
0000
0100
0000
0000
0000
0000
0000
0000
0000
0002
0000
0000
0000
0000
0000
0000
0000
0000
0000
0000
0000
0000
0000
0000
0003
,
1000
0000
0000
0000
0000
0000
0000
0000
0010
0000
0000
0000
0000
0000
0000
0000
0002
0000
0000
0000
0000
0000
0000
0000
0000
0000
0000
0000
0000
0000
0000
0003
1000
0000
0000
0000
0000
0000
0000
0000
0010
0000
0000
0000
0000
0000
0000
0000
0002
0000
0000
0000
0000
0000
0000
0000
0000
0000
0000
0000
0000
0000
0000
0003
,
0010
0000
0000
0000
0000
0000
0000
0000
0100
0000
0000
0000
0000
0000
0000
0000
0002
0000
0000
0000
0000
0000
0000
0000
0000
0000
0000
0000
0000
0000
0000
0003
0010
0000
0000
0000
0000
0000
0000
0000
0100
0000
0000
0000
0000
0000
0000
0000
2000
0000
0000
0000
0000
0000
0000
0000
0000
0000
0000
0000
0000
0000
0000
3000
,
0010
0000
0000
0000
0000
0000
0000
0000
0100
0000
0000
0000
0000
0000
0000
0000
2000
0000
0000
0000
0000
0000
0000
0000
0000
0000
0000
0000
0000
0000
0000
3000
0100
0000
0000
0000
0000
0000
0000
0000
0010
0000
0000
0000
0000
0000
0000
0000
0001
0000
0000
0000
0000
0000
0000
0000
0010
0000
0000
0000
0000
0000
0000
0000
,
1000
1100
0001
0101
,
1000
1010
0001
0011
,
1000
0100
1100
0000
0001
0100
0101
0000
,
1000
0010
1010
0000
0001
0010
0011
0000
,
0010
0100
1000
0001
0100
0010
0001
0000
,
0001
0010
1000
0100
0010
0001
1000
0000
,
2002
0000
0000
0000
0000
0000
0000
3003
0000
0000
0000
0000
0000
0000
0000
0000
1000
0000
0000
0000
0000
0000
0000
0000
0001
0000
0000
0000
0000
0000
0000
0000
0100
0000
0000
0000
0000
0000
0000
0000
0010
0000
0000
0000
0000
0000
0000
0000
0001
0000
0000
0000
0000
0000
0000
0000
0010
0000
0000
0000
0000
0000
0000
0000
,
1000
0000
0000
0100
0000
0000
0010
0000
0000
0001
0000
0000
1000
0000
0001
0000
,
1001
0000
0000
0000
0110
0000
0000
0000
0100
0000
0001
0000
0000
1000
0000
0000
,
0010
1000
0100
1000
0001
0010
0001
0100
,
0101
0010
0101
0011
,
0010
0000
0000
0001
0000
0000
1000
0000
0000
0001
0000
0000
0100
0000
0001
0000
,
0102
0000
0000
0000
0000
0000
0000
0000
0000
0000
0000
0000
0000
0000
0000
0003
1000
0000
0000
0000
0000
0000
0000
0000
0000
0000
0000
0000
0000
0000
0000
0000
1010
0000
0000
0000
0000
0000
0000
0000
0000
0000
0000
0000
0000
0000
0000
0000
1001
0000
0000
0000
0000
0000
0000
0000
0000
0000
0000
0000
0000
0000
0000
0000
,
0010
0000
0000
1000
0000
0000
0001
0000
0000
0100
0000
0000
0010
0000
1000
0000
,
1010
0100
1010
1001
,
1000
0000
0000
0100
0000
0000
1000
0000
0000
0001
0000
0000
1000
0000
0010
0000
,
0100
0000
0000
0010
0000
0000
1000
0000
0000
0001
0000
0000
0010
0000
0100
0000
,
0001
0000
0000
0100
0000
0000
1000
0000
0000
0010
0000
0000
0100
0000
0010
0000
,
1001
0000
0000
0000
;

//---------------dance-single - ----------------
#NOTES:
     dance-single:
     :
     Hard:
     8:
     :
0000
0000
0000
0000
,
0000
0000
0000
0000
,
0000
0000
0000
0000
,
1000
0001
0010
0000
,
0001
1000
0100
0000
,
1000
0001
1000
0001
1000
0000
0000
0000
,
0001
1000
0001
1000
0001
0000
0000
0000
,
1000
0001
1000
0001
1000
0000
0000
0000
,
0001
1000
0001
1000
0001
0000
0100
0000
,
0100
0100
0010
0000
0100
0000
0100
0000
,
0010
0010
0100
0000
0010
0000
0010
0000
,
0100
0100
0010
0000
0100
0000
0100
0000
,
0010
0010
0100
0000
0010
0000
0010
0000
,
1001
1000
0000
0000
1000
0100
0100
0000
,
1001
0001
0000
0000
0001
0100
0100
0000
,
1001
1000
0000
0000
1000
0100
0100
0000
,
1001
0001
0000
0000
0001
0010
0010
0000
,
1000
0100
1000
0100
0010
0000
0110
0000
,
0001
0010
0001
0010
1000
0000
0110
0000
,
1000
0100
1000
0100
0010
0000
1001
0000
,
0001
0010
0001
0010
0100
0000
1001
0000
,
1010
0000
0100
1000
0010
0000
1000
0000
,
1010
0000
0100
0001
0010
0001
0100
0000
,
1001
0000
0100
0001
1000
0000
0101
0000
,
0011
0100
1000
0100
0010
0000
0001
0000
,
1100
0000
0010
1000
0100
0000
1001
0000
,
0101
1000
0010
1000
0100
0000
1000
0000
,
0101
0000
1000
0001
0100
0000
0011
0000
,
0001
0000
1000
0000
0100
0100
0100
0000
,
0010
1000
0001
1000
0010
1000
0001
1000
,
0001
1000
0010
1000
0001
1000
0010
1000
,
0100
1000
0001
1000
0010
1000
0001
1000
,
0001
1000
0010
1000
0001
1000
0010
1000
,
0001
0100
0001
0000
1001
0000
0010
0000
,
0001
0010
0001
0000
1001
0000
0100
0000
,
1000
0100
1000
0000
0110
0000
1001
0000
,
0001
1000
0001
0000
0110
0000
0100
0000
,
1000
0001
1000
0000
0110
0000
0010
0000
,
0001
1000
0001
0000
0110
0000
0100
0000
,
1000
0001
1000
0000
0110
0000
0010
0000
,
0001
0001
0010
0100
,
0100
0010
0001
1000
0010
0001
1000
0000
,
0100
0001
0010
0100
0001
1000
0010
0000
,
0001
0100
0010
0001
1000
0100
0010
0000
,
1000
0000
0100
0000
0010
0000
1000
0000
0001
0000
0010
0001
0100
0000
0001
0000
,
0010
0100
1000
0010
0001
0100
0010
0000
,
1000
0010
0100
0001
0010
1000
0100
0000
,
0001
1000
0100
0001
0010
1000
0001
0000
,
0010
0000
0001
0000
1000
0000
0010
0000
1000
0000
0100
1000
0010
0000
1000
0000
,
0001
0100
1000
0001
0010
0100
0001
0000
,
1000
0100
0010
1000
0001
0100
1000
0000
,
0010
1000
0100
0001
1000
0010
0001
0000
,
0100
0000
0001
0000
0010
0000
0001
0000
0100
0000
1000
0100
0001
0000
0100
0000
,
0010
1000
0001
0010
1000
0001
0010
0000
,
1000
0100
0010
1000
0100
0010
1000
0000
,
0001
0010
0100
0001
0010
0100
0001
0000
,
0200
0000
0000
0000
0000
0000
0000
0000
0000
0000
0000
0000
0000
0000
0000
0000
1000
0000
0000
0000
0000
0000
0000
0000
0000
0000
0000
0000
0000
0000
0000
0000
0010
0000
0000
0000
0000
0000
0000
0000
0000
0000
0000
0000
0000
0000
0000
0300
0001
0000
0000
0000
0000
0000
0000
0000
0000
0000
0000
0000
0000
0000
0000
0000
,
1000
0010
0001
0010
0100
1000
0100
0001
,
1000
0100
0001
0100
0010
1000
0010
0001
,
1000
0000
0000
0001
0000
0010
0100
0010
1000
0000
0000
0000
0000
0000
2000
0000
,
0000
0000
0000
0000
0000
0000
0000
3000
0010
0000
0000
0000
0000
0000
0000
0000
0001
0000
0000
0000
0000
0000
0000
0000
0100
0000
0000
0000
0000
0000
0000
0000
0010
0000
0000
0000
0100
0000
0000
0000
0010
0000
0000
0000
0100
0000
0000
0000
0010
0000
0000
0000
0000
0000
0000
0000
0000
0000
0000
0000
0000
0000
0000
0000
,
0110
0000
0000
0010
1000
0000
0000
0000
1001
0000
0000
0001
0100
0000
0000
0000
,
0110
0000
0000
1000
0001
0000
0000
0001
0010
0000
0000
0010
0100
0000
0000
0100
,
1000
0010
0001
0010
1000
0100
0001
0100
,
1000
0000
0000
0000
0001
0000
0000
0000
1000
0000
0000
0000
0001
0000
0000
0000
1000
0000
0000
0000
0001
0000
0000
0000
1000
0000
0000
0000
0001
0000
0000
0000
0200
0000
0000
0000
0000
0000
0000
0000
0000
0000
0000
0000
0000
0000
0000
0300
0010
0000
0000
0000
0000
0000
0000
0000
0000
0000
0000
0000
0000
0000
0000
0000
,
0001
0000
0000
0010
0100
0000
1000
0000
0001
0000
0100
0000
0010
1000
0010
1000
,
0100
0000
0000
0010
0001
0000
1000
0000
0010
0000
0100
0000
0001
1000
0001
0000
,
2000
0000
0000
0000
0000
0000
0000
3000
0100
0000
0000
0000
0000
0000
0000
0000
0002
0000
0000
0000
0000
0000
0000
0003
0010
0000
0000
0000
0000
0000
0000
0000
2000
0000
0000
0000
0000
0000
0000
3000
0010
0000
0000
0000
0000
0000
0000
0000
0002
0000
0000
0000
0000
0000
0000
0003
0100
0000
0000
0000
0000
0000
0000
0000
,
0010
0100
0001
1000
0100
0010
1000
0001
,
0010
0000
0000
0001
1000
0000
0100
0000
0010
0000
1000
0000
0010
0001
0010
0001
,
1000
0000
0000
0010
0100
0000
0001
0000
1000
0000
0100
0000
0010
0100
0010
0000
,
0001
0000
0000
1000
0000
0000
0010
0000
0000
0100
0000
0001
1000
0000
0100
0000
,
0020
0000
0000
0000
0000
0000
0000
0000
0000
0000
0000
0000
0000
0000
0000
0000
1000
0000
0000
0000
0000
0000
0000
0000
0000
0000
0000
0000
0000
0000
0000
0000
0100
0000
0000
0000
0000
0000
0000
0000
0000
0000
0000
0000
0000
0000
0000
0030
0001
0000
0000
0000
0000
0000
0000
0000
0000
0000
0000
0000
0000
0000
0000
0000
,
1000
0100
0010
0001
1000
0100
0010
0001
,
0200
0000
0000
0000
0000
0000
0000
0000
0000
0000
0000
0000
0000
0000
0000
0000
0000
0000
0000
0000
0000
0000
0000
0000
0000
0000
0000
0000
0000
0000
0000
0000
0000
0000
0000
0000
0000
0000
0000
0000
0000
0000
0000
0000
0000
0000
0000
0300
0000
0000
0000
0000
0000
0000
0000
0000
0000
0000
0000
0000
0000
0000
0000
0000
,
1000
0010
0100
0001
1000
0010
0100
0001
,
0020
0000
0000
0000
0000
0000
0000
0000
0000
0000
0000
0000
0000
0000
0000
0000
0000
0000
0000
0000
0000
0000
0000
0000
0000
0000
0000
0000
0000
0000
0000
0000
0000
0000
0000
0000
0000
0000
0000
0000
0000
0000
0000
0000
0000
0000
0000
0030
0000
0000
0000
0000
0000
0000
0000
0000
0000
0000
0000
0000
0000
0000
0000
0000
,
0001
0010
0100
1000
0001
0010
0100
1000
,
0020
0000
0000
0000
0000
0000
0000
0000
0000
0000
0000
0000
0000
0000
0000
0000
0000
0000
0000
0000
0000
0000
0000
0000
0000
0000
0000
0000
0000
0000
0000
0000
0000
0000
0000
0000
0000
0000
0000
0000
0000
0000
0000
0000
0000
0000
0000
0030
0000
0000
0000
0000
0000
0000
0000
0000
0000
0000
0000
0000
0000
0000
0000
0000
,
1000
0001
0100
0010
1000
0010
0100
0001
,
0001
0100
0010
1000
0010
0100
0001
1000
,
0002
0000
0000
0000
0000
0000
0000
0000
0000
0000
0000
0000
0000
0000
0000
0000
1000
0000
0000
0000
0000
0000
0000
0000
0000
0000
0000
0000
0000
0000
0000
0000
0100
0000
0000
0000
0000
0000
0000
0000
0000
0000
0000
0000
0000
0000
0000
0003
1000
0000
0000
0000
0000
0000
0000
0000
0000
0000
0000
0000
0000
0000
0000
0000
,
2000
0000
0000
0000
0000
0000
0000
0000
0000
0000
0000
0000
0000
0000
0000
0000
0001
0000
0000
0000
0000
0000
0000
0000
0000
0000
0000
0000
0000
0000
0000
0000
0100
0000
0000
0000
0000
0000
0000
0000
0000
0000
0000
0000
0000
0000
0000
3000
0001
0000
0000
0000
0000
0000
0000
0000
0000
0000
0000
0000
0000
0000
0000
0000
,
0200
0000
0000
0000
0000
0000
0000
0000
0000
0000
0000
0000
0000
0000
0000
0000
1000
0000
0000
0000
0000
0000
0000
0000
0000
0000
0000
0000
0000
0000
0000
0000
0010
0000
0000
0000
0000
0000
0000
0000
0000
0000
0000
0000
0000
0000
0000
0300
1000
0000
0000
0000
0000
0000
0000
0000
0000
0000
0000
0000
0000
0000
0000
0000
,
0020
0000
0000
0000
0000
0000
0000
0000
0000
0000
0000
0000
0000
0000
0000
0000
0100
0000
0000
0000
0000
0000
0000
0000
0000
0000
0000
0000
0000
0000
0000
0000
0001
0000
0000
0000
0000
0000
0000
0000
0000
0000
0000
0000
0000
0000
0000
0030
0100
0000
0000
0000
0000
0000
0000
0000
0000
0000
0000
0000
0000
0000
0000
0000
,
0002
0000
0000
0000
0000
0000
0000
0000
0000
0000
0000
0000
0000
0000
0000
0000
0010
0000
0000
0000
0000
0000
0000
0000
0000
0000
0000
0000
0000
0000
0000
0000
0100
0000
0000
0000
0000
0000
0000
0000
0000
0000
0000
0000
0000
0000
0000
0003
1000
0000
0000
0000
0000
0000
0000
0000
0000
0000
0000
0000
0000
0000
0000
0000
,
2000
0000
0000
0000
0000
0000
0000
0000
0000
0000
0000
0000
0000
0000
0000
0000
0010
0000
0000
0000
0000
0000
0000
0000
0000
0000
0000
0000
0000
0000
0000
0000
0100
0000
0000
0000
0000
0000
0000
0000
0000
0000
0000
0000
0000
0000
0000
3000
0001
0000
0000
0000
0000
0000
0000
0000
0000
0000
0000
0000
0000
0000
0000
0000
,
0200
0000
0000
0000
0000
0000
0000
0000
0000
0000
0000
0000
0000
0000
0000
0000
0010
0000
0000
0000
0000
0000
0000
0000
0000
0000
0000
0000
0000
0000
0000
0000
1000
0000
0000
0000
0000
0000
0000
0000
0000
0000
0000
0000
0000
0000
0000
0300
0010
0000
0000
0000
0000
0000
0000
0000
0000
0000
0000
0000
0000
0000
0000
0000
,
2002
0000
0000
0000
0000
0000
0000
0000
0000
0000
0000
0000
0000
0000
0000
3003
0000
0000
0000
0000
0000
0000
0000
0000
0000
0000
0000
0000
0000
0000
0000
0000
0010
0000
0000
0000
1000
0000
0000
0000
0010
0000
0000
0000
0000
0000
0000
0000
0100
0000
0000
0000
0001
0000
0000
0000
0100
0000
0000
0000
0001
0000
0000
0000
,
0100
0000
0010
0000
1000
0001
0100
0000
,
0010
1000
0100
0000
0010
0001
0100
0000
,
0001
0000
1000
0000
0001
0100
1000
0000
,
0100
0000
0000
0001
0000
0000
1000
0000
0000
0100
0000
0000
1001
0000
0000
0000
,
0011
0000
1100
0000
1000
0010
0001
0000
,
0001
0100
1000
0000
0001
1000
0100
0000
,
1010
0000
0101
0000
0010
1000
0100
0000
,
0001
0000
0000
0000
0000
0000
0000
0000
0100
0000
0000
0000
0000
0000
0000
0000
1000
0000
0000
0000
0000
0000
0000
0000
0000
0000
0000
0000
0001
0000
0000
0000
0000
0000
0000
0000
1000
0000
0000
0000
0200
0000
0000
0000
0000
0000
0000
0000
0000
0000
0000
0000
0000
0000
0000
0000
0000
0000
0000
0000
0000
0000
0000
0300
,
1000
0001
0100
0000
0001
1000
0100
0000
,
0010
0001
0100
0010
1000
0100
0010
0000
,
0001
1000
0100
0000
0001
0100
1000
0000
,
0010
1000
0100
0001
0100
0000
1001
0000
,
1000
0010
0001
0000
1000
0100
0001
0000
,
1000
0010
0100
0001
0010
0100
1000
0000
,
0001
1000
0010
0100
1000
0100
0001
1000
,
0100
0000
0010
0000
0100
0000
1000
0000
0001
1000
0000
0100
0000
0000
0010
0000
,
0001
1000
0100
0010
0100
0010
0001
0100
,
1000
0100
0001
1000
0100
0001
0100
1000
,
0010
1000
0100
0010
0001
0100
0001
1000
,
0100
0010
0001
0100
1000
0100
0010
0100
,
0001
1000
0010
0100
0001
1000
0010
0100
,
0001
0010
0100
1000
0001
0010
0100
1000
,
0001
0100
0010
1000
0001
0100
0010
1000
,
0110
0000
0000
0000
0000
0000
1001
0000
0000
0000
0000
0000
0100
0010
0100
0000
,
1010
0001
0010
0100
1001
0000
0101
0000
,
1000
0000
0000
0000
0000
0000
0000
0000
0010
0000
0000
0000
0000
0000
0000
0000
0100
0000
0000
0000
0000
0000
0000
0000
0001
0000
0000
0000
0000
0000
0000
0000
0010
0000
0000
0000
0000
0000
0000
0000
0200
0000
0000
0000
0000
0000
0000
0000
0000
0000
0000
0000
0000
0000
0000
0300
1000
0000
0000
0000
0000
0000
0000
0000
,
0011
0000
0100
0001
0010
0001
1000
0010
,
1000
0100
1000
0001
0010
0100
1000
0000
,
0011
1000
0010
0100
1001
0000
1100
0000
,
0001
0000
0000
0000
0000
0000
0000
0000
0010
0000
0000
0000
0000
0000
0000
0000
0100
0000
0000
0000
0000
0000
0000
0000
1000
0000
0000
0000
0000
0000
0000
0000
0010
0000
0000
0000
0000
0000
0000
0000
0200
0000
0000
0000
0000
0000
0000
0000
0000
0000
0000
0000
0000
0000
0000
0300
0001
0000
0000
0000
0000
0000
0000
0000
,
1010
0000
0100
1000
0010
1000
0001
0010
,
0001
0000
0000
0000
0000
0000
0000
0000
0200
0000
0000
0000
0000
0000
0000
0000
0000
0000
0000
0300
2000
0000
0000
0000
0000
0000
0000
0000
0000
0000
0000
3000
0200
0000
0000
0000
0000
0000
0000
0000
0000
0000
0000
0300
0002
0000
0000
0000
0000
0000
0000
0000
0000
0000
0000
0003
1000
0000
0000
0000
0000
0000
0000
0000
,
1001
0000
0000
0000
0000
0000
0000
0000
1000
0000
0000
0000
0000
0000
0000
0000
0100
0000
0000
0000
0000
0000
0000
0000
0001
0000
0000
0000
0000
0000
0000
0000
1000
0000
0000
0000
0000
0000
0000
0000
0010
0000
0000
0000
0000
0000
0000
0000
0002
0000
0000
0000
0000
0000
0000
0000
0000
0000
0000
0000
0000
0000
0000
0003
,
2000
0000
0000
0000
0000
0000
0000
0000
0000
0000
0000
0000
0000
0000
0000
3000
0010
0000
0000
0000
0000
0000
0000
0000
0002
0000
0000
0000
0000
0000
0000
0000
0000
0000
0000
0000
0000
0000
0000
0003
2000
0000
0000
0000
0000
0000
0000
0000
0000
0000
0000
0000
0000
0000
0000
3000
0000
0000
0000
0000
0000
0000
0000
0000
,
0100
0001
0000
0000
1000
0000
0010
1000
0000
0001
1000
0000
0100
0000
1000
0000
,
0011
0000
0000
0101
0000
0000
1010
0000
0000
1100
0000
0000
0001
0000
0010
0000
,
1001
0000
0000
0000
0000
0000
0000
0000
0001
0000
0000
0000
0000
0000
0000
0000
0100
0000
0000
0000
0000
0000
0000
0000
1000
0000
0000
0000
0000
0000
0000
0000
0001
0000
0000
0000
0000
0000
0000
0000
0010
0000
0000
0000
0000
0000
0000
0000
2000
0000
0000
0000
0000
0000
0000
0000
0000
0000
0000
0000
0000
0000
0000
3000
,
0002
0000
0000
0000
0000
0000
0000
0000
0000
0000
0000
0000
0000
0000
0000
0003
0010
0000
0000
0000
0000
0000
0000
0000
0200
0000
0000
0000
0000
0000
0000
0000
0000
0000
0000
0000
0000
0000
0000
0300
0020
0000
0000
0000
0000
0000
0000
0000
0000
0000
0000
0000
0000
0000
0000
0030
0000
0000
0000
0000
0000
0000
0000
0000
,
0110
0000
0000
0000
1000
0000
0001
0010
0000
0001
1000
0001
0100
0000
0001
0000
,
1001
0000
0000
1010
0000
0000
1100
0000
0000
1000
0000
0000
0100
0000
0010
0000
,
0001
0100
0001
0000
1000
0100
1000
0000
,
0001
0010
0001
0000
1000
0010
1000
0000
,
1001
0000
0000
0000
0000
0000
0000
0000
0000
0000
0000
0000
0000
0000
0000
0000
2000
0000
0000
0000
0000
0000
0000
0000
0000
0000
0000
3000
0020
0000
0000
0000
0000
0000
0000
0000
0000
0000
0000
0030
0002
0000
0000
0000
0000
0000
0000
0000
0000
0000
0000
0003
0020
0000
0000
0000
0000
0000
0000
0000
0000
0000
0000
0030
,
0100
0000
0010
0000
0100
0000
0000
0001
0000
0010
0000
0100
0010
0100
0010
0100
,
1000
0000
0010
1000
0000
0001
1000
0000
0001
0000
0100
0001
0000
1000
0001
0000
,
1000
0010
0001
1000
0100
0001
1001
0000
,
0001
0000
0010
0001
0000
1000
0001
0000
1000
0000
0100
1000
0000
0001
1000
0000
,
0001
0010
1000
0001
0100
1000
1001
0000
,
0100
0010
0000
0000
0001
0000
0100
0010
0000
1000
0100
0000
0010
0000
0001
0000
,
1000
0100
0010
1000
0010
0001
0100
0010
,
2002
0000
0000
0000
0000
0000
0000
3003
0000
0000
0000
0000
0000
0000
0000
0000
0001
0000
0000
0000
0000
0000
0000
0000
0100
0000
0000
0000
0001
0000
0000
0000
0000
0000
0000
0000
1000
0000
0000
0000
0010
0000
0000
0000
1000
0000
0000
0000
0010
0000
0000
0000
0000
0000
0000
0000
0100
0000
0000
0000
0000
0000
0000
0000
,
0101
0000
0000
1001
0000
0000
0011
0000
0000
0110
0000
0000
1100
0000
0001
0000
,
0101
0000
0000
0000
1010
0000
0000
0000
0001
0000
0100
0000
0000
0010
0000
0000
,
1000
0100
0001
1000
0010
0001
1001
0000
,
0110
0001
1000
0100
0011
1000
1100
0000
,
0001
0000
0000
0011
0000
0000
0101
0000
0000
1001
0000
0000
0001
0000
0010
0000
,
0001
0100
0010
1000
0001
1000
0100
0000
,
1000
0000
0000
1100
0000
0000
1010
0000
0000
1001
0000
0000
1000
0000
0100
0000
,
1001
0100
0010
0001
1100
0001
0011
0000
,
1010
0000
0000
0110
0000
0000
0010
0000
0000
0011
0000
0000
0010
0000
0100
0000
,
0101
0000
0000
0110
0000
0000
0100
0000
0000
1100
0000
0000
0100
0000
1000
0000
,
1100
0000
0000
1010
0000
0000
0011
0000
0000
0101
0000
0000
1000
0000
0001
0000
,
1001
0000
0000
0000
;

//---------------dance-double - ----------------
#NOTES:
     dance-double:
     :
     Beginner:
     1:
     :
00000000
00000000
00000000
00000000
,
00000000
00000000
00000000
00000000
,
00000000
00000000
00000000
00000000
,
10000000
00000000
00000000
00000000
,
00010000
00000000
00100000
00000000
,
10000000
00000000
01000000
00000000
,
00100000
00000000
00001000
00000000
,
00010000
00000000
00000100
00000000
,
00001000
00000000
00000001
00000000
,
00000010
00000000
00010000
00000000
,
00001000
00000000
00100000
00000000
,
01000000
00000000
00010000
00000000
,
00000010
00000000
00001001
00000000
,
00010000
00000000
00001000
00000000
,
00100000
00000000
01000000
00000000
,
10010000
00000000
01000000
00000000
,
00011000
00000000
00000010
00000000
,
00001000
00000000
00010000
00000000
,
00001000
00000000
00001000
00000000
,
00010000
00000000
00000100
00000000
,
00000010
00000000
00001000
00000000
,
00000010
00000000
00000010
00000000
,
00001000
00000000
00100000
00000000
,
10000000
00000000
01000000
00000000
,
00010000
00000000
00001000
00000000
,
00000010
00000000
00000001
00000000
,
00000100
00000000
00000100
00000000
,
00010000
00000000
00100000
00000000
,
00010000
00000000
00010000
00000000
,
10010000
00000000
00100000
00000000
,
00000000
00010000
00000000
00000000
,
00001000
00000000
00000100
00000000
,
00000001
00000000
00000010
00000000
,
00010000
00000000
00100000
00000000
,
00010000
00000000
10000000
00000000
,
00010000
00000000
00001000
00000000
,
00010000
00000000
00000010
00000000
,
00000001
00000000
00000010
00000000
,
00001000
00000000
00000010
00000000
,
00001000
00000000
00000010
00000000
,
00000001
00000000
00000010
00000000
,
00000001
00000000
00000100
00000000
,
00010000
00000000
00000100
00000000
,
00010000
00000000
01000000
00000000
,
00100000
00000000
01000000
00000000
,
00010000
00000000
10000000
00000000
,
01000000
00000000
00010000
00000000
,
00001000
00000000
00000100
00000000
,
00000001
00000000
00000010
00000000
,
00001000
00000000
00000001
00000000
,
00000010
00000000
00001000
00000000
,
00010000
00000000
00100000
00000000
,
10000000
00000000
01000000
00000000
,
00010000
00000000
10000000
00000000
,
01000000
00000000
00010000
00000000
,
00001000
00000000
00000100
00000000
,
00000001
00000000
00000000
00000000
,
00000010
00000000
00000100
00000000
,
00010000
00000000
00100000
00000000
,
00010000
00000000
00000010
00000000
,
00001000
00000000
01000000
00000000
,
10000000
00000000
01000000
00000000
,
00010000
00000000
00100000
00000000
,
00001000
00000000
00000010
00000000
,
00000001
00000000
00000100
00000000
,
00001000
00000000
00000100
00000000
,
00001000
00000000
00000100
00000000
,
00001000
00000000
00000010
00000000
,
00100000
00000000
01000000
00000000
,
00010000
00000000
10000000
00000000
,
01000000
00000000
00001000
00000000
,
00010000
00000000
00000100
00000000
,
00001000
00000000
00000010
00000000
,
00000001
00000000
00000000
00000000
,
00000001
00000000
00001000
00000000
,
00001001
00000000
00000000
00000000
,
00000100
00000000
00000000
00000000
,
00011000
00000000
00000000
00000000
,
01000000
00000000
00000000
00000000
,
10010000
00000000
01000000
00000000
,
00100000
00000000
00010000
00000000
,
00011000
00000000
00000000
00000000
,
00000100
00000000
00000000
00000000
,
00000001
00000000
00000000
00000000
,
00000010
00000000
00000000
00000000
,
00001000
00000000
00000000
00000000
,
00010000
00000000
00000000
00000000
,
01000000
00000000
10000000
00000000
,
00010000
00000000
00000000
00000000
,
10010000
00000000
01000000
00000000
,
00010000
00000000
00001000
00000000
,
00000100
00000000
00000001
00000000
,
00001000
00000000
00000100
00000000
,
00001001
00000000
00000100
00000000
,
00001000
00000000
00010000
00000000
,
00001000
00000000
01000000
00000000
,
00100000
00000000
00010000
00000000
,
00100000
00000000
00010000
00000000
,
00001000
00000000
00000000
00000000
,
00000000
00001000
00000000
00000001
,
00000000
00001000
00000000
00000000
,
00000010
00000000
00001000
00000000
,
00010000
00000000
00000000
00000000
,
00000000
00010000
00000000
10000000
,
00000000
00010000
00000000
00000000
,
10010000
00000000
00000000
01000000
,
00000000
00100000
00000000
00010000
,
00000000
00001000
00000000
00000010
,
00000000
00001000
00000000
00001000
,
00000000
00000001
00000000
00000100
,
00000000
00001000
00000000
00010000
,
00000000
01000000
00000000
10000000
,
00000000
00000000
00000000
00000000
,
00011000
00000000
00001001
00000000
,
00000100
00000000
00010000
00000000
,
01000000
00000000
00010000
00000000
,
10000000
00000000
01000000
00000000
,
10010000
00000000
01100000
00000000
,
10000000
00000000
00100000
00000000
,
00010000
00000000
00000100
00000000
,
00001000
00000000
00000001
00000000
,
00000110
00000000
00000110
00000000
,
00000100
00000000
00001000
00000000
,
00010000
00000000
00100000
00000000
,
01000000
00000000
00010000
00000000
,
01100000
00000000
01100000
00000000
,
00100000
00000000
00010000
00000000
,
00001000
00000000
00000100
00000000
,
00000010
00000000
00001000
00000000
,
00000100
00000000
00000110
00000000
,
00001000
00000000
00000010
00000000
,
00010000
00000000
00001000
00000000
,
00010000
00000000
10000000
00000000
,
00100000
00000000
01100000
00000000
,
01100000
00000000
01100000
00000000
,
00100000
00000000
00010000
00000000
,
00001000
00000000
00000010
00000000
,
00000110
00000000
00001000
00000000
,
00010000
00000000
01000000
00000000
,
10010000
00000000
00100000
00000000
,
00100000
00000000
10000000
00000000
,
10010000
00000000
00010000
00000000
,
00001000
00000000
00000010
00000000
,
00001001
00000000
00000110
00000000
,
00000010
00000000
00000100
00000000
,
00000110
00000000
00011000
00000000
,
00010000
00000000
10000000
00000000
,
10010000
00000000
01100000
00000000
,
10000000
00000000
00010000
00000000
,
00100000
00000000
00001000
00000000
,
00000100
00000000
00000010
00000000
,
00001001
00000000
00000000
00000000
;

//---------------dance-double - ----------------
#NOTES:
     dance-double:
     :
     Easy:
     3:
     :
00000000
00000000
00000000
00000000
,
00000000
00000000
00000000
00000000
,
00000000
00000000
00000000
00000000
,
10000000
00000000
00000000
00000000
,
00010000
00000000
00100000
01000000
,
10000000
00000000
01000000
00000000
,
00100000
00000000
00001000
00000000
,
00010000
00000000
00000100
00000000
,
00001000
00000000
00000001
00000000
,
00000010
00000100
00010000
00000000
,
00001000
01000000
00100000
00000000
,
01000000
00001000
00010000
00000000
,
00000010
00000100
00001001
00000010
,
00010000
00000000
00001000
00000000
,
00100000
00000000
01000000
00000000
,
10010000
00000000
01000000
00000000
,
00011000
00000000
00000010
00000000
,
00001000
00000100
00010000
00000000
,
00001000
01000000
00001000
00000000
,
00010000
00000100
00000100
00000000
,
00000010
00000001
00001000
00000000
,
00000010
00000100
00000010
00010000
,
00001000
01000000
00100000
00000000
,
10000000
00010000
01000000
00001000
,
00010000
00000100
00001000
00000000
,
00000010
00000100
00000001
00001000
,
00000100
00000010
00000100
00000000
,
00010000
00001000
00100000
00000000
,
00010000
10000000
00010000
01000000
,
10010000
01000000
00100000
00001000
,
00000000
00010000
00000010
00000000
,
00001000
00001001
00000100
00000000
,
00000001
00000100
00000010
00000000
,
00010000
00001000
00100000
00000000
,
00010000
10000000
10000000
00000000
,
00010000
01000000
00001000
00000000
,
00010000
00000100
00000010
00000000
,
00000001
00000001
00000010
00000100
,
00001000
00000001
00000010
00000100
,
00001000
00001000
00000010
00000100
,
00000001
00000001
00000010
00000100
,
00000001
00000010
00000100
00000000
,
00010000
00000000
00000100
00000000
,
00010000
00001000
01000000
00000000
,
00100000
00000000
01000000
00000000
,
00010000
01000000
10000000
00000000
,
01000000
00100000
00010000
00000000
,
00001000
00000000
00000100
00000000
,
00000001
00000000
00000010
00000000
,
00001000
00000010
00000001
00000000
,
00000010
00000100
00001000
00000000
,
00010000
00000000
00100000
00000000
,
10000000
00000000
01000000
00000000
,
00010000
01000000
10000000
00000000
,
01000000
00100000
00010000
00000000
,
00001000
00000000
00000100
00000000
,
00000002
00000000
00000000
00000003
,
00000010
00000000
00000100
00000000
,
00010000
00000000
00100000
00000000
,
00010000
00001000
00000010
00000000
,
00001000
00010000
01000000
00000000
,
10000000
00000000
01000000
00000000
,
00010000
00001000
00100000
00000000
,
00001000
00010000
00000010
00000100
,
00000001
00000010
00000100
00000000
,
00001000
00000010
00000100
00000000
,
00001000
00000000
00000100
00000000
,
00001000
00010000
00000010
00000000
,
00100000
00000000
01000000
00000000
,
00010000
01000000
10000000
00000000
,
01000000
00100000
00001000
00000000
,
00010000
00000000
00000100
00000000
,
00001000
00000000
00000010
00000000
,
00000001
00000000
00000000
00000100
,
00000001
00000000
00001000
00000000
,
00001001
00000000
00000000
00000000
,
00000100
00000000
00000000
00000000
,
00011000
00000000
00000000
00000000
,
01000000
00000000
00000000
00000000
,
10010000
00000000
01000000
00000000
,
00100000
00000000
00010000
00001000
,
00011000
00000000
00000000
00000000
,
00000100
00000000
00000000
00000000
,
00000001
00000000
00000000
00000000
,
00000010
00000000
00000000
00000000
,
00001000
00000000
00000000
00000000
,
00010000
00000000
00000000
00000000
,
01000000
00000000
10000000
00000000
,
00020000
00000000
00000000
00030000
,
10010000
00000000
01000000
00000000
,
00010000
00000000
00001000
00000000
,
00000100
00000000
00000001
00000000
,
00001000
00000000
00000100
00001000
,
00001001
00000000
00000100
00000000
,
00001000
00000000
00010000
00000000
,
00001000
00000000
01000000
00000000
,
00100000
10000000
00010000
01000000
,
00100000
00000000
00010000
00000000
,
00002000
00000000
00000000
00003000
,
00000000
00001000
00000100
00000001
,
00000001
00001000
00000001
00000000
,
00000010
00000000
00001000
00000000
,
00020000
00000000
00000000
00030000
,
00000000
00010000
01000000
10000000
,
10000000
00010000
10000000
00000000
,
10010000
01000000
00000000
01000000
,
00000000
00100000
00000000
00010000
,
00000000
00001000
00000000
00000010
,
00000001
00001000
00000001
00001000
,
00000110
00000001
00000000
00000100
,
00000000
00001000
00000000
00010000
,
00000000
01000000
00000000
10000000
,
20020000
00000000
00000000
30030000
,
00011000
00000010
00001001
00000110
,
00000100
00001000
00010000
00001000
,
01000000
00100000
00010000
00100000
,
10000000
00010000
01000000
01100000
,
10010000
01000000
01100000
10010000
,
10000000
01000000
00100000
00001000
,
00010000
00001000
00000100
00000010
,
00001000
00000100
00000001
00000100
,
00000110
00000001
00000110
00001000
,
00000100
00010000
00001000
00100000
,
00010000
01000000
00100000
10000000
,
01000000
00100000
00010000
10000000
,
01100000
10000000
01100000
00010000
,
00100000
00001000
00010000
00000100
,
00001000
00000010
00000100
00000001
,
00000010
00000100
00001000
00000001
,
00000100
00000010
00000110
00001001
,
00002000
00000001
00000010
00003100
,
00020000
00000100
00001000
00130000
,
00010000
00100000
10000000
01000000
,
00100000
01000000
01100000
10010000
,
01100000
10000000
01100000
00010000
,
00100000
00001000
00010000
00000010
,
00001000
00000100
00000010
00001001
,
00000110
00000001
00001000
00000100
,
00010000
00001000
01000000
00100000
,
10010000
01000000
00100000
10000000
,
00100000
00010000
10000000
00100000
,
10010000
10000000
00010000
00100000
,
00001000
00010000
00000010
00000100
,
00001001
00000100
00000110
00001001
,
00000010
00001001
00000100
00001001
,
00000110
00001000
00011000
00011000
,
00010000
01100000
10000000
01100000
,
10010000
01000000
01100000
10010000
,
10000000
01100000
00010000
01100000
,
00100000
00011000
00001000
00011000
,
00000100
00000110
00000010
00000110
,
00001001
00000000
00000000
00000000
;

//---------------dance-double - ----------------
#NOTES:
     dance-double:
     :
     Medium:
     6:
     :
00000000
00000000
00000000
00000000
,
00000000
00000000
00000000
00000000
,
00000000
00000000
00000000
00000000
,
10000000
00000000
00000000
00000000
,
00010000
00000000
00100000
01000000
,
10000000
10000000
10000000
00000000
,
00010000
00100000
00001000
00000000
,
00010000
00000100
00001000
00000000
,
00000001
00000001
00000001
00000000
,
00000100
00000001
00001000
00000100
,
00000010
00000100
00010000
00001000
,
00100000
00010000
01000000
10010000
,
00100000
01000000
10010000
00100000
,
00001000
00000000
00010000
00000100
,
00001100
00000000
00000001
00000010
,
00001100
00000000
00011000
00100000
,
01000000
00000000
10010000
00100000
,
01000000
00001000
00010000
00000100
,
00001100
00000001
00001000
00000110
,
00001000
00001000
00000010
00010000
,
00011000
01000000
00100000
10010000
,
10100000
00000000
01000000
10000000
00100000
00000000
10000000
00000000
,
10010000
01000000
00001000
00010000
,
00000100
00000000
00000010
00001001
,
00001100
00010000
00001000
00100000
,
01010000
00000000
00010000
10000000
01000000
00000000
10000000
00000000
,
01010000
00100000
00001000
00010000
,
00000100
00000000
00001000
00000001
00000100
00000000
00000001
00000000
,
00001000
00000000
00000100
00000000
00010000
00001000
00100000
00000000
,
01000000
10000000
00000000
00010000
00100000
00010000
00000000
10000000
,
00000000
00010000
01000000
00010000
00000000
01000000
00001000
00010000
,
00000010
00001000
00000000
00000001
00000010
00000001
00000000
00001000
,
00000000
00000001
00000100
00000001
00000000
00001000
00000100
00001000
,
00000001
00001000
00000100
00000000
,
00011000
00100000
01000000
00000000
,
01100000
10000000
10010000
00000000
,
00010000
00100000
00011000
00000000
,
00001000
00010000
00000010
00000100
,
00000001
00000001
00000010
00000100
,
00010000
00001000
00100000
01000000
,
00010000
00010000
00100000
01000000
,
00000001
00000010
00000100
00001000
00000000
00000010
00000100
00000000
,
00001000
00000000
00100000
00000000
00010000
00100000
10000000
00000000
,
00100000
00000000
00001000
00010000
01000000
10000000
00100000
00000000
,
10000000
01000000
00010000
00000000
00001000
00000010
00000001
00000000
,
00000010
00000000
00001000
00000000
00000001
00000010
00001000
00000000
,
00010000
00000000
00001000
00000000
00000100
00000001
00000010
00000000
,
00000100
00000000
00010000
00000000
00001000
00010000
01000000
00000000
,
10000000
00100000
01000000
00010000
00100000
00000000
10010000
00000000
,
10000000
01000000
00100000
00010000
00000000
01000000
00100000
00000000
,
00010000
00000000
00000100
00000000
00001000
00000100
00000001
00000000
,
00000100
00000000
00010000
00001000
00000010
00000001
00000100
00000000
,
00000001
00000010
00001000
00000000
00010000
01000000
10000000
00000000
,
01000000
00000000
00010000
00000000
10000000
01000000
00010000
00000000
,
00001000
00000000
00010000
00000000
00100000
10000000
01000000
00000000
,
00100000
00000000
00001000
00000000
00010000
00001000
00000010
00000000
,
00000001
00000100
00000010
00001000
00000100
00000000
00000011
00000000
,
00000100
00000100
00001000
00000000
00000100
00000001
00000010
00000000
,
00000100
00010000
00001000
00010000
01000000
10000000
00100000
00000000
,
00100000
01010000
00100000
11000000
,
10000000
01000000
00010000
01000000
00100000
00001000
00010000
00000000
,
00000110
00001000
00001001
00000010
,
00000100
00000100
00000101
00000000
00000010
00000000
00001000
00000000
,
00000100
00010000
00001000
00100000
00010000
01000000
10000000
01000000
,
00010000
00100000
01000000
10000000
01000000
00000000
00110000
00000000
,
10000000
01000000
00100000
00010000
00000000
01000000
00100000
00000000
,
00010000
00000000
00000100
00000000
00001000
00000100
00000001
00000000
,
00000100
00000000
00010000
00001000
00000010
00000001
00000100
00000000
,
00000001
00000010
00001000
00000000
00010000
01000000
10000000
00000000
,
01000000
00000000
00010000
00000000
10000000
01000000
00010000
00000000
,
00001000
00000000
00010000
00000000
00100000
10000000
01000000
00000000
,
00100000
00000000
00001000
00000000
00010000
00001000
00000010
00000000
,
00000001
00000100
00000010
00001000
00000100
00000000
00000101
00000000
,
00001001
00000100
00000010
00000100
,
00010000
00001000
00000100
00001000
,
00010100
00001000
00001000
00001000
,
00000020
00000000
00000000
00000030
,
01001000
00010000
00010000
00010000
,
00200000
00000000
00000000
00300000
,
10000000
00010000
00100000
01000000
,
00010000
00001000
00000100
00000000
00000101
00000000
00000011
00000000
,
00001001
00000100
00001000
00010000
,
01000000
00000000
10000000
00000000
00100000
00000000
01000000
00100000
,
00010000
00001000
00000010
00000001
,
00000100
00000000
00011000
00000000
01000000
00000000
00010000
00001000
,
00000100
00000010
00001000
00000100
,
00000010
00000000
00000001
00000000
00000100
00000000
00001000
00010000
,
00100000
01000000
00010000
10000000
,
02200000
00000000
03300000
00000000
00010000
00001000
00000100
00000000
,
00001000
00010000
01000000
00010000
,
00001000
00000000
00000010
00000000
00001000
00010000
00100000
00000000
,
01001000
00101000
00010100
00001100
,
00011000
00000000
00000000
00100000
,
01000000
00100000
00010000
00001000
,
00000010
00000000
00000100
00000000
00000010
00000100
00001000
00000000
,
00000001
00000100
00001000
00010000
,
01000000
00010000
00001000
00000000
00010000
00000000
00100000
00000000
,
10000000
01000000
00100000
00010000
,
00001100
00000101
00001010
00000011
,
00000001
00000010
00000100
00001000
,
00110000
10100000
01010000
11000000
,
00100000
00011000
00000010
00011000
,
00100000
01000000
00100000
00010000
,
00001000
00000100
00000001
00000010
,
00001100
00000000
00011000
00000000
01010000
00000000
00000000
00100000
,
01000000
00100000
10000000
01000000
,
00010000
00001000
00000100
00000001
,
00000100
00001000
00010000
01000000
,
20000000
00000000
00000000
30010000
,
00100000
00010000
00001000
00000010
,
00000001
00000010
00001000
00010000
,
00100000
01000000
00010000
10000000
,
01100000
00000000
00000000
00011000
00000000
00000000
00000010
00000100
,
00011000
00010000
01010000
10100000
,
00010000
01000000
10000000
00000000
01000000
00020000
00000000
00130000
,
00001000
00010000
00000100
00000000
00001000
00000100
00000010
00000000
,
00000001
00001000
00000100
00001000
00000001
00000010
00000001
00000000
,
00001001
00000001
00001000
00000000
00001100
00000000
00000011
00000000
,
00001000
00000100
00000001
00000000
00000100
10002000
00000000
00003010
,
00010000
00001000
00100000
00000000
00010000
00100000
01000000
00000000
,
10000000
00010000
01000000
00100000
01000000
00010000
10000000
00000000
,
01100000
00100000
10000000
01000000
00100000
00010000
01000000
00000000
,
00001000
00000000
00010000
00001000
00000000
00000010
00000100
00000000
,
00000001
00000100
00001000
00000010
00000100
00000001
00001000
00000010
,
00000001
00000000
00000000
00000010
00000000
00000000
00000100
00000000
00000000
00000001
00000000
00000000
00001000
00000000
00000100
00000000
,
00000001
00000100
00001000
00000010
00000100
00000001
00000010
00000000
,
00001000
00000000
00010000
00001000
00000000
01000000
00100000
00000000
,
10010000
00000000
00100000
10000000
00100000
01000000
00010000
01000000
,
10000000
00000000
00000000
01000000
00000000
00000000
00100000
00000000
00000000
10000000
00000000
00000000
00010000
00000000
01000000
00000000
,
10000000
01000000
00020000
00000000
10030000
01000000
00020000
00000000
,
00031000
00000010
00010002
00000000
00001003
00000010
00010002
00000000
,
00000013
00000100
10002000
00000000
00103000
01000000
00020000
00000000
,
00031000
00000100
00100020
00000000
00000130
00001000
00010000
00001000
,
00020000
01030000
10002000
00003100
,
00020000
00130000
10002000
00003010
,
00001000
00010000
01000000
00000000
00010000
00001000
00000100
00000000
,
00001000
00010000
00100000
00000000
00010000
00001000
00000010
00000000
,
00000010
00000100
00001000
00000001
00000100
00001000
00010000
00000000
,
00001000
00010000
00100000
01000000
00010000
10000000
00100000
00000000
,
20020000
30030000
10000000
00010000
01000000
00100000
00010000
00100000
,
10000000
00000000
00000000
01000000
00000000
00000000
00100000
00000000
00000000
00010000
00000000
00000000
10000000
00000000
00010000
00000000
,
10010000
00000000
00000000
00000000
01100000
00000000
00000000
00000000
01000000
00000000
00001000
00000000
00000000
00010000
00000000
00000000
,
00000010
00001000
00000100
00010000
00001000
00100000
00010000
01000000
,
01010000
00100000
01010000
00110000
,
00100000
00000000
00000000
00010000
00000000
00000000
10000000
00000000
00000000
00010000
00000000
00000000
01000000
00000000
00010000
00000000
,
01010000
00010000
00101000
00011000
,
00100000
00000000
00000000
00001000
00000000
00000000
00010000
00000000
00000000
00000100
00000000
00000000
00001000
00000000
00000010
00000000
,
00001010
00000100
00001010
00001100
,
00001000
00000000
00000000
00000100
00000000
00000000
00001000
00000000
00000000
00000001
00000000
00000000
00001000
00000000
00000010
00000000
,
00010000
00000000
00000000
00001000
00000000
00000000
01000000
00000000
00000000
00010000
00000000
00000000
00100000
00000000
00001000
00000000
,
00010000
00000000
00000000
01000000
00000000
00000000
10000000
00000000
00000000
00010000
00000000
00000000
01000000
00000000
00100000
00000000
,
01100000
00000000
00000000
00000000
;

//---------------dance-double - ----------------
#NOTES:
     dance-double:
     :
     Hard:
     8:
     :
00000000
00000000
00000000
00000000
,
00000000
00000000
00000000
00000000
,
00000000
00000000
00000000
00000000
,
10000000
00010000
00100000
00000000
,
00010000
10000000
01000000
00000000
,
10000000
00010000
01000000
00001000
00010000
00000000
00000000
00000000
,
00000010
00001000
00000001
00001000
00000001
00000000
00000000
00000000
,
00001000
00000100
00010000
00001000
00100000
00000000
00000000
00000000
,
00010000
10000000
00010000
10000000
00010000
00000000
01000000
00000000
,
01000000
01000000
00001000
00000000
00010000
00000000
00000100
00000000
,
00000010
00000110
00000100
00000000
00000010
00000000
00001001
00000000
,
00000010
00001000
00000100
00000000
00010000
00000000
00001000
00000000
,
00100000
00010000
01000000
00000000
00100000
00000000
00100000
00000000
,
10010000
10000000
00000000
00000000
10000000
01000000
01000000
00000000
,
10010000
00010000
00000000
00000000
10000000
00010000
01000000
00000000
,
01010000
01000000
00000000
00000000
00001000
00010000
00000100
00000000
,
00000010
00000001
00000000
00000000
00000010
00000100
00000100
00000000
,
00010000
00000100
00010000
00001000
01000000
00000000
00100000
00000000
,
10000000
00100000
01000000
00100000
10000000
00000000
01100000
00000000
,
10000000
01000000
00100000
00001000
00010000
00000000
00011000
00000000
,
00000100
00000010
00000001
00000010
00000100
00000000
00001000
00000000
,
00001100
00000000
00000100
00010000
00011000
00000000
01000000
00000000
,
01010000
00000000
10000000
00010000
00100000
00001000
00010000
00000000
,
00000010
00000000
00001000
00000100
00010000
00000000
00001000
00000000
,
00110000
01000000
10000000
01000000
00100000
00000000
00001000
00000000
,
00011000
00000000
00000010
00001000
00000100
00000000
00011000
00000000
,
00100000
01000000
10000000
00010000
00100000
00000000
00001000
00000000
,
00010000
00000000
00000010
00001000
00000100
00000000
00010000
00000000
,
00011000
00000000
00110000
00000000
10000000
01000000
00100000
00000000
,
00001000
00010000
00000010
00001000
00000001
00001000
00000100
00010000
,
00001000
00100000
01000000
10000000
00100000
10000000
01000000
00100000
,
00001000
00010000
00000100
00001000
00000001
00001000
00000010
00001000
,
00000100
00010000
00001000
00100000
01000000
10000000
01000000
00100000
,
00001000
00010000
00000100
00000000
00001100
00000000
00000010
00000000
,
00010000
00001000
00100000
00000000
01000000
00000000
01100000
00000000
,
10000000
01000000
10000000
00000000
01100000
00000000
10010000
00000000
,
10000000
00010000
10000000
00000000
01000000
00000000
00100000
00000000
,
00001000
00010000
00000100
00000000
00000110
00000000
00000010
00000000
,
00000001
00001000
00000001
00000000
00000110
00000000
00000100
00000000
,
00001000
00000001
00001000
00000000
00000101
00000000
00000010
00000000
,
00010000
00011000
00100000
01000000
,
00000100
00010000
00001000
01000000
00001000
00010000
00001000
00000000
,
00100000
00001000
01000000
00010000
00100000
00001000
00010000
00000000
,
00000010
00001000
00000100
00010000
00001000
01000000
00010000
00000000
,
10000000
00000000
01000000
00000000
00010000
00000000
00001000
00000000
00010000
00000000
00000010
00010000
00000100
00000000
00010000
00000000
,
00000010
00001000
00000001
00000100
00001000
01000000
00010000
00000000
,
00100000
00001000
01000000
00010000
10000000
01000000
00010000
00000000
,
00001000
00100000
01000000
00010000
00000100
00001000
00000010
00000000
,
00000001
00000000
00000010
00000000
00001000
00000000
00000100
00000000
00010000
00000000
00000010
00010000
00000100
00000000
00010000
00000000
,
00001000
00100000
01000000
10000000
00010000
01000000
00001000
00000000
,
00010000
00000100
00001000
00000001
00000100
00000010
00010000
00000000
,
00001000
00000010
00000001
00001000
00000010
00010000
00001000
00000000
,
00010000
00000000
01000000
00000000
00100000
00000000
00001000
00000000
00010000
00000000
00100000
01000000
00100000
00000000
00010000
00000000
,
00001000
00000010
00000001
00000100
00001000
01000000
00010000
00000000
,
10000000
01000000
00100000
00010000
01000000
00001000
00000100
00000000
,
00000001
00001000
00000100
00000010
00001000
00100000
00010000
00000000
,
00002000
00100000
00010000
01003000
,
00010000
00100000
10000000
00100000
01000000
10000000
01000000
00010000
,
00001000
00000010
00000001
00000010
00000100
00000001
00000100
00001000
,
00000001
00000000
00000000
00000100
00000000
00000010
00001000
00000010
00010000
00000000
00000000
00000000
00000000
00000000
00020000
00000000
,
00000000
00000000
01030000
00000000
10000000
00000000
00100000
00000000
00010000
00001000
00010000
00001000
00010000
00000000
00000000
00000000
,
00011000
00000000
00000000
00000010
00001000
00000000
00000000
00000000
00001001
00000000
00000000
00000001
00000010
00000000
00000000
00000000
,
00000110
00000000
00000000
00001000
00000100
00000000
00000000
00010000
00001000
00000000
00000000
00100000
00010000
00000000
00000000
01000000
,
00100000
10000000
01000000
00010000
01000000
10000000
00100000
00010000
,
00001000
00010000
00001000
00010000
00001000
00010000
00001000
00010000
00000200
00000000
00000000
00000000
00000310
00000000
00000000
00000000
,
00000001
00000000
00000000
00000010
00000100
00000000
00010000
00000000
00001000
00000000
00100000
00000000
00010000
01000000
00010000
01000000
,
00100000
00000000
00000000
10000000
00010000
00000000
01000000
00000000
00100000
00000000
00010000
00000000
00001000
00010000
00001000
00000000
,
00010000
01000000
00100000
00001000
00010000
00000100
00000010
00000001
,
00000100
00001000
01000000
00100000
00010000
00000010
00001000
00000000
,
00000100
00000000
00000000
00001000
00000001
00000000
00000100
00000000
00000010
00000000
00010000
00000000
00001000
00100000
00001000
00100000
,
00010000
00000000
00000000
01000000
00100000
00000000
10000000
00000000
01000000
00000000
00100000
00000000
00001000
00010000
00001000
00000000
,
01000000
00000000
00000000
00001000
00000000
00000000
00000010
00000000
00000000
00000100
00000000
00010000
00001000
00000000
01000000
00000000
,
00200000
00010000
01000000
10300000
,
01100000
10000000
10000000
10000000
,
00010000
00000000
00000000
00100000
00000000
00000000
10000000
00000000
,
10010000
00010000
00010000
00010000
,
00010000
00000000
00000000
00001000
00000000
00000000
00000100
00000000
,
00001001
00001000
00001000
00001000
,
00001000
00000000
00000000
00010000
00000000
00000000
01000000
00000000
,
10010000
00010000
00010000
00010000
,
00100000
01000000
00010000
00000000
00001000
00000100
00000001
00000010
,
00000200
00001000
00000001
00001000
,
00000001
00001000
00000001
00000320
,
00002030
00010000
00000010
00010000
,
00000010
00010000
00000010
00013000
,
02000000
10000000
00010000
10000000
,
00010000
10000000
00010000
03200000
,
00320000
10000000
00100000
01030000
,
00011000
00000000
00000000
00000000
00000000
00000000
00000000
00000000
00010000
00000100
00010000
00000000
00001000
01000000
00001000
01000000
,
00001000
00000100
00000001
00000010
,
00000001
00001000
00000100
00000000
00000010
00000001
00000100
00001000
,
00010000
00000000
01000000
00000000
10000000
00010000
01000000
00000000
,
00100000
00000000
00000000
00010000
00000000
00000000
00001000
00000000
00000000
00000010
00000000
00000000
00001001
00000000
00000000
00000000
,
00000100
00000001
00000010
00001000
,
00010000
00100000
01000000
00000000
00010000
10000000
01000000
00010000
,
00001000
00000000
00000100
00000000
00000010
00001000
00000100
00000000
,
00000001
00000000
00000100
00000000
00001000
00000000
00000000
00010000
00000000
01000000
20000000
00000000
00000000
00000000
30000000
00000000
,
01010000
00011000
00001100
00011000
,
00101000
00000000
00010010
00000000
00001000
00000001
00000100
00000000
,
00000110
00000000
00001001
00000000
00000010
00000100
00001000
00000000
,
00010000
01000000
00100000
00000000
10010000
00000000
01100000
00000000
,
00101000
00011000
00010010
00011000
,
01010000
00000000
00001100
00000000
00000001
00000010
00001000
00000000
,
00010000
00100000
10000000
00000000
00010000
10000000
01000000
00000000
,
00100000
00000000
10000000
00000000
01000000
00000000
00000000
00000000
00010000
00001000
00000000
00000100
00000000
00000000
00000010
00000000
,
00001000
00000001
00000100
00000000
00000001
00001000
00000100
00000000
,
00000010
00000001
00000100
00001000
00010000
01000000
10000000
00000000
,
00010000
10000000
01000000
00000000
10000000
00010000
01000000
00000000
,
00100000
10000000
01000000
00010000
00001000
00000100
00000001
00000000
,
00001000
00000010
00000100
00000000
00000001
00000010
00000100
00000000
,
00001000
00000010
00000100
00001000
00010000
00100000
01000000
00000000
,
00010000
01000000
00100000
00000000
10000000
01000000
00100000
00000000
,
10010000
00000000
00000000
00011000
00000000
00000000
00001000
00000000
,
00010000
00010000
00100000
01000000
10010000
00000000
01010000
00000000
,
10000000
00100000
01000000
00010000
00100000
02000000
00000000
13000000
,
00110000
00000000
01000000
00010000
00100000
00001000
00010000
00000100
,
00001000
00000001
00000010
00001000
00000010
00000100
00001000
00000000
,
00000011
00001000
00000010
00000100
00001001
00000000
00001100
00000000
,
00000001
00000010
00000100
00001000
00000010
00000200
00000000
00000301
,
00001010
00000000
00000100
00001000
00000010
00010000
00001000
00100000
,
00010000
00000000
02000000
00000000
00000000
23000000
00000000
00000000
32000000
00000000
00000000
03020000
00000000
00000000
10030000
00000000
,
10010000
10000000
01000000
00010000
10000000
00100000
00020000
00000000
,
02030000
00000000
03001000
00000020
00000000
00000032
00000000
00000003
,
00001000
00000001
00000000
00000000
00001000
00000000
00000010
00001000
00000000
00000001
00001000
00000000
00000100
00000000
00001000
00000000
,
00000011
00000000
00000000
00000101
00000000
00000000
00001010
00000000
00000000
00001100
00000000
00000000
00010000
00000000
00001000
00000000
,
00011000
00010000
00100000
10000000
00010000
00100000
20000000
00000000
,
30020000
00000000
00031000
00000020
00000000
00000230
00000000
00000300
,
00000110
00000000
00000000
00000000
00001000
00000000
00000001
00000010
00000000
00000001
00001000
00000001
00000100
00000000
00000010
00000000
,
00010010
00000000
00000000
00010100
00000000
00000000
00011000
00000000
00000000
00101000
00000000
00000000
01001000
00000000
00010000
00000000
,
10000000
00100000
01000000
00000000
00001000
00010000
01000000
00000000
,
00010000
00001000
00000100
00000000
00000001
00000010
00000100
00000000
,
00001001
00000000
00000000
00000000
00002000
00000000
00000000
00003020
00000000
00000000
00000032
00000000
00000000
00000023
00000000
00000000
,
00000130
00000000
00000010
00000000
00000100
00000000
00000000
00000001
00000000
00000010
00000000
00000100
00000010
00000100
00000010
00000100
,
00001000
00000000
00000010
00010000
00000000
00001000
00010000
00000000
00001000
00000000
01000000
00010000
00000000
01000000
00100000
00000000
,
10000000
00100000
00010000
10000000
01000000
00010000
10010000
00000000
,
00010000
00000000
00100000
00001000
00000000
00010000
00001000
00000000
00010000
00000000
00000100
00001000
00000000
00000100
00000010
00000000
,
00000001
00000010
00001000
00000001
00000100
00001000
00001001
00000000
,
00000100
00000010
00000000
00000000
00000001
00000000
00000100
00000010
00000000
00000001
00000010
00000000
00000100
00000000
00001000
00000000
,
00010000
00100000
01000000
10000000
01000000
00100000
10000000
00010000
,
20020000
00000000
30030000
00000000
00010000
00000000
01000000
00010000
00000000
10000000
00100000
10000000
00100000
00000000
01000000
00000000
,
01010000
00000000
00000000
10010000
00000000
00000000
00110000
00000000
00000000
01100000
00000000
00000000
11000000
00000000
00010000
00000000
,
01010000
00000000
00000000
00000000
00101000
00000000
00000000
00000000
00010000
00000000
00001000
00000000
00000000
00000100
00000000
00000000
,
00000001
00000100
00001000
00000001
00000010
00001000
00001001
00000000
,
00000110
00000001
00001000
00000100
00000011
00001000
00001100
00000000
,
00000001
00000000
00000000
00000011
00000000
00000000
00000101
00000000
00000000
00001001
00000000
00000000
00000100
00000000
00010000
00000000
,
00001000
00100000
00010000
01000000
00001000
00010000
00000100
00001000
,
00000010
00000000
00000000
00010010
00000000
00000000
00011000
00000000
00000000
01001000
00000000
00000000
01000000
00000000
00010000
00000000
,
10010000
01000000
00100000
00010000
11000000
00010000
00110000
00000000
,
10100000
00000000
00000000
01100000
00000000
00000000
00110000
00000000
00000000
00101000
00000000
00000000
00100000
00000000
00001000
00000000
,
00010000
00000000
00000000
00011000
00000000
00000000
00010100
00000000
00000000
00010010
00000000
00000000
00010000
00000000
00000010
00000000
,
00010010
00000000
00000000
00001010
00000000
00000000
00000110
00000000
00000000
00000011
00000000
00000000
00000010
00000000
00000001
00000000
,
00001100
00000000
00000000
00000000
;
