#TITLE:Not Me (Extended Mix);
#ARTIST:Sarah Taylor;
#BANNER:Not Me (Extended Mix).png;
#BACKGROUND:Not Me (Extended Mix)-bg.png;
#CDTITLE:./CDTITLES/DanceDanceRevolution UNIVERSE2.png;
#MUSIC:Not Me (Extended Mix).ogg;
#SAMPLESTART:42.6;
#SAMPLELENGTH:15;
#BPMS:0=139.995;

//---------------dance-single - ----------------
#NOTES:
     dance-single:
     :
     Beginner:
     1:
     :
0000
0000
0000
0000
,
0000
0000
0000
0000
,
0000
0000
0000
0000
,
0000
0000
0000
0000
,
0000
0000
0000
0000
,
0010
0000
0010
0000
,
1000
0000
0000
0000
,
0001
0000
0001
0000
,
0100
0000
0000
0000
,
0010
0000
0001
0000
,
1000
0000
0000
0000
,
0100
0000
0001
0000
,
0010
0000
0000
0000
,
1000
0000
1000
0000
,
0100
0000
0000
0000
,
0001
0000
0001
0000
,
0010
0000
0000
0000
,
1000
0000
0000
0000
,
0001
0000
0000
0000
,
0010
0000
0010
0000
,
0100
0000
0000
0000
,
1000
0000
0000
0000
,
0010
0000
0000
0000
,
0100
0000
0000
0000
,
0001
0000
0000
0000
,
0010
0000
0000
0000
,
0110
0000
0000
0000
,
0100
0000
0001
0000
,
1000
0000
0001
0000
,
1001
0000
0000
0000
,
1000
0000
0000
0000
,
0010
0000
0100
0000
,
0001
0000
0000
0000
,
0001
0000
0100
0000
,
0010
0000
0000
0000
,
1000
0000
1000
0000
,
0100
0000
0000
0000
,
0001
0000
0000
0000
,
1000
0000
0000
0000
,
0010
0000
0100
0000
,
0001
0000
0000
0000
,
0001
0000
0000
0000
,
1000
0000
0000
0000
,
0100
0000
0000
0000
,
0001
0000
0000
0000
,
0010
0000
0010
0000
,
0100
0000
0100
0000
,
1000
0000
1000
0000
,
0001
0000
0000
0000
,
0100
0000
1000
0000
,
0001
0000
0010
0000
,
0100
0000
0100
0000
,
0001
0000
0001
0000
,
0010
0000
0001
0000
,
1000
0000
0100
0000
,
0010
0000
0010
0000
,
0100
0000
0100
0000
,
0110
0000
0000
0000
;

//---------------dance-single - ----------------
#NOTES:
     dance-single:
     :
     Easy:
     4:
     :
0000
0000
0000
0000
,
0000
0000
0000
0000
,
0000
0000
0000
0000
,
0000
0000
0000
0000
,
0000
0000
0000
0000
,
2000
0000
0000
3000
,
0001
0000
0100
0000
,
0010
0000
0100
0000
,
0001
0000
0100
0000
,
0010
0000
1000
0000
,
0001
0001
1000
0000
,
0100
0000
0001
0000
,
0010
0010
0000
0000
,
0001
0000
1000
0000
,
0010
0000
0100
0000
,
0001
0001
1000
0000
,
0100
0000
0010
0000
,
0100
0100
1000
0000
,
0010
0000
0100
0000
,
0001
0010
0010
0000
,
1000
0000
0010
0000
,
0100
0000
1000
0000
,
0001
0000
0010
0000
,
1000
0000
0100
0000
,
0002
0000
0000
0003
,
0100
0000
0100
0000
,
0010
0000
0000
0000
,
0001
0000
0001
0000
,
1000
0000
0010
0000
,
1000
0000
1000
0000
,
0001
0000
0100
0000
,
0010
0000
1000
0000
,
0100
0000
1000
0000
,
0001
0010
0010
0000
,
1000
0000
0010
0000
,
0100
0100
0001
0000
,
0100
0000
0010
0000
,
1000
1000
0100
0000
,
0001
0000
0010
0000
,
0001
0001
1000
1000
,
0200
0000
0000
0300
,
0010
0000
0100
0000
,
0001
0100
0010
0000
,
1000
0000
0010
0000
,
0100
0001
0100
0000
,
0010
0000
1000
0000
,
0100
0010
0001
0000
,
0100
0000
1000
0000
,
0100
0001
0010
0000
,
0110
0000
1000
0000
,
0100
0001
0100
0000
,
1000
0000
1001
0000
,
1000
0010
0100
0000
,
0110
0000
0001
0000
,
0100
0010
1000
0000
,
1001
0000
1000
0000
,
0010
0100
0001
0000
,
0110
0000
0000
0000
;

//---------------dance-single - ----------------
#NOTES:
     dance-single:
     :
     Medium:
     7:
     :
0000
0000
0000
0000
,
0000
0000
0000
0000
,
0000
0000
0000
0000
,
0000
0000
0000
0000
,
0000
0000
0000
0000
,
0100
0000
0100
0000
0010
1000
0010
0000
,
1000
0000
1000
0000
0001
0010
0001
0000
,
0100
0000
0100
0000
0010
0001
0010
0000
,
0100
0001
0100
0000
0100
1000
0100
0001
,
0010
1100
0001
1000
,
0010
0100
0001
0000
0100
0000
1000
0000
,
0100
0011
1000
0001
,
0100
0010
1000
0000
0010
0000
0100
0100
,
1000
0100
0001
0000
0100
0000
1000
0000
,
0010
0001
0010
0000
1000
0000
0100
0000
,
0010
0100
1000
0000
0010
0100
0001
0000
,
1000
0100
0001
0100
1000
0000
0110
0000
,
0001
0010
1000
0000
0010
0000
0001
0000
,
0100
1000
0100
0000
0001
0000
0010
0000
,
0100
0010
0001
0000
0100
0010
1000
0000
,
0001
0010
1000
0010
,
0200
0000
0000
1300
0010
0000
0100
0000
,
0002
0000
0000
0013
0100
0000
1000
0000
,
0020
0000
0000
1030
0001
0000
0100
0000
,
2020
0000
0000
3030
,
0100
1000
0010
0000
0100
1000
0100
0000
,
0001
0101
0010
1010
,
0100
1000
0001
0000
0010
0001
0010
0000
,
0100
1000
0010
0100
0001
0000
1010
0000
,
0001
1000
0010
0000
0100
0001
0010
0000
,
0100
1010
1000
0011
,
0001
0100
1000
0000
1000
0100
0001
0000
,
0010
0100
0110
0000
0000
1000
0010
0100
,
0001
0000
0100
0000
0010
1000
0100
0000
,
0010
0001
0100
0000
0001
1000
0100
0000
,
0101
0000
1001
0000
0010
1000
0100
0000
,
1100
0000
1001
0000
0010
0001
0100
0000
,
0100
0001
2000
0000
0000
0000
0010
0000
,
3100
1000
0100
0000
0001
0000
1100
0000
,
0010
1001
0100
1100
,
0100
0010
1000
0010
0001
0100
1000
0100
,
0020
1000
0100
1000
,
0100
0001
0100
0001
,
2030
0100
0001
0100
,
0001
0010
0001
0010
,
3200
0010
1000
0010
,
2300
0001
0010
0001
,
3002
0100
2003
0010
,
3100
0000
0002
0000
2000
0000
0000
0003
,
3010
0100
0001
0000
0010
0000
0101
0000
,
1000
0100
0001
0000
0100
0000
1010
0000
,
1000
0010
0001
0000
0010
0000
1100
0000
,
0100
1000
0010
0000
0100
0001
0110
0000
,
0001
0010
1000
0000
0100
0000
1010
0000
,
0001
0010
1000
0000
0010
0000
0101
0000
,
0001
0100
1000
0000
0100
0001
0010
0000
,
0001
1000
0100
0001
0100
1000
0010
0000
,
0110
0000
0000
0000
;

//---------------dance-single - ----------------
#NOTES:
     dance-single:
     :
     Hard:
     8:
     :
0000
0000
0000
0000
,
0000
0000
0000
0000
,
0000
0000
0000
0000
,
0000
0000
0000
0000
,
0000
0000
0000
0000
,
0010
1000
0010
0000
0100
1000
0100
0000
,
0001
0010
0001
0000
0010
1000
0010
0000
,
0100
0010
0100
0000
1000
0100
1000
0000
,
0001
0100
0001
0000
0010
0100
0010
0000
,
0001
1000
0110
0000
0010
0001
1100
0000
,
0100
0001
1010
0000
0010
0100
1001
0000
,
0100
1000
0011
0000
0100
0010
1001
0000
,
0001
0000
0100
0000
1010
0000
0000
0000
0000
0000
0010
1000
0010
0000
0100
0000
,
0001
0100
1000
0100
0001
0010
1000
0000
,
0100
0010
1100
0000
0011
0000
0101
0100
,
1000
0100
0001
0100
0010
1000
0010
0100
,
0001
0010
0100
0000
1010
0000
0100
0001
,
0010
0100
1000
0000
0100
1000
0010
0000
,
1000
0100
0001
0100
1000
0010
0001
0000
,
0010
0100
0001
0000
1000
0100
0010
0001
,
2000
0010
0001
0100
,
3010
0000
0000
0000
0100
0000
0001
0000
0200
0000
0000
0000
1300
0000
0000
0020
,
0000
0000
0000
0000
0031
0000
0000
0000
0100
0000
0100
0000
0010
1000
0000
0000
,
0001
0010
0100
0001
0100
1000
0010
0000
,
0101
1010
0110
1001
,
0010
0000
1000
0000
0001
0100
0000
0000
0010
0000
0100
0000
0001
0000
0100
0000
,
1000
0100
0000
0000
0010
1000
0000
0000
0100
0000
1000
0000
0020
0000
0000
0000
,
1030
0000
0100
0000
0001
0100
0000
0000
0010
0000
1000
0000
0010
0001
0000
0000
,
0010
0000
1000
0000
0001
0000
1000
0000
0010
0000
0000
0100
0001
0000
0010
0000
,
0100
0000
1001
0000
0100
0001
1000
0100
,
0010
0000
0001
0000
0100
1000
0000
0000
0100
0000
0010
0000
0100
0000
0001
0000
,
1000
0000
0010
0000
0100
0001
0000
0000
0001
0000
0010
0000
0100
1000
0000
0000
,
0010
0000
0001
0000
0010
0000
1000
0000
0000
0000
0010
0100
0001
0000
0001
0000
,
0100
0000
0001
0000
1000
0010
0000
0000
0100
0000
0010
0000
1000
0000
0010
0000
,
0001
0010
0000
0000
0100
0001
0000
0000
0010
0000
0001
0000
0200
0000
0000
0000
,
0301
0000
0010
0000
1000
0010
0000
0000
0100
0000
0001
0000
0100
1000
0000
0000
,
0100
0000
0001
0000
1000
0000
0001
0000
0100
0000
0000
0010
1000
0000
0100
0000
,
0010
0000
1001
0000
0010
1000
0001
0010
,
0100
0000
1000
0000
0010
0001
0000
0000
0010
0000
0100
0000
0010
0000
1000
0000
,
0011
1100
1010
0101
,
0220
0000
0000
0000
0000
0000
0000
0330
,
0100
1000
0100
0001
,
0010
0000
0001
0000
1000
0000
0010
0100
,
0001
0010
1000
0001
,
0100
0001
0010
1000
,
0010
0000
0000
0000
0100
0000
0000
0000
0001
0000
0000
0010
0100
0000
1000
0000
,
0100
0000
0000
1000
0010
0000
0100
0000
0001
0000
0000
1000
0001
0000
0100
0000
,
0010
0000
0000
1000
0010
0000
0100
0000
0001
0000
0000
0010
0100
0000
1000
0000
,
2002
0000
0000
3003
,
0010
0000
1000
0000
0100
0000
0000
0011
0000
0000
0010
0000
0100
0000
0001
0000
,
0100
0000
1000
0000
0010
0000
0000
0101
0000
0000
0100
0000
1000
0000
0100
0000
,
0010
0000
0100
0000
0001
0000
0000
1010
0000
0000
1000
0000
0100
0000
0001
0000
,
0100
0000
1000
0000
0100
0000
0000
1010
0000
0000
0010
0000
0010
0000
0100
0000
,
0001
0000
0010
0000
0100
0000
0000
1010
0000
0000
1000
0000
0100
0000
1000
0000
,
0001
0000
0100
0000
0010
0000
0000
1001
0000
0000
1000
0000
0100
0000
1000
0000
,
0010
0000
0001
0000
0010
0000
0000
0101
0000
0000
0100
0000
1000
0000
0100
0000
,
0101
1010
0110
1001
,
0110
0000
0000
0000
;

//---------------dance-double - ----------------
#NOTES:
     dance-double:
     :
     Beginner:
     1:
     :
00000000
00000000
00000000
00000000
,
00000000
00000000
00000000
00000000
,
00000000
00000000
00000000
00000000
,
00000000
00000000
00000000
00000000
,
00000000
00000000
00000000
00000000
,
00001000
00000000
00000000
00000000
,
00100000
00000000
00000000
00000000
,
10000000
00000000
00000000
00000000
,
00010000
00000000
00000000
00000000
,
00001000
00000000
00000100
00000000
,
00000001
00000000
00000000
00000000
,
00000010
00000000
00000000
00000000
,
00010000
00000000
00000000
00000000
,
00010000
00000000
00000000
00000000
,
00100000
00000000
00000000
00000000
,
00001000
00000000
00000000
00000000
,
00000001
00000000
00000000
00000000
,
00000100
00000000
00000000
00000000
,
00001000
00000000
00000000
00000000
,
00010000
00000000
00000000
00000000
,
00100000
00000000
00000000
00000000
,
10000000
00000000
00000000
00000000
,
00010000
00000000
00000000
00000000
,
00001000
00000000
00000000
00000000
,
00000020
00000000
00000000
00000030
,
00000001
00000000
00000000
00000000
,
00000010
00000000
00000000
00000000
,
00000100
00000000
00000000
00000000
,
00010000
00000000
00000000
00000000
,
10000000
00000000
00000000
00000000
,
00100000
00000000
00000000
00000000
,
00010000
00000000
00000000
00000000
,
00000020
00000000
00000000
00000030
,
00000001
00000000
00000000
00000000
,
00001000
00000000
00000000
00000000
,
00100000
00000000
00000000
00000000
,
10000000
00000000
00000000
00000000
,
00100000
00000000
00000000
00000000
,
00001000
00000000
00000000
00000000
,
00010000
00000000
00000010
00000000
,
00000100
00000000
00000001
00000000
,
00000200
00000000
00000000
00000300
,
00002000
00000000
00000000
00003000
,
00020000
00000000
00000000
00030000
,
00200000
00000000
00000000
00300000
,
01000000
00000000
00010000
00000000
,
10000000
00000000
00000000
00000000
,
00100000
00000000
00001000
00000000
,
00010000
00000000
00000000
00000000
,
00011000
00000000
00000010
00000000
,
00000100
00000000
00000000
00000000
,
00000010
00000000
00001000
00000000
,
00010000
00000000
00000000
00000000
,
10000000
00000000
01000000
00000000
,
00100000
00000000
00000000
00000000
,
00010000
00000000
00001000
00000000
,
00000100
00000000
00000000
00000000
,
00001001
00000000
00000000
00000000
;

//---------------dance-double - ----------------
#NOTES:
     dance-double:
     :
     Easy:
     3:
     :
00000000
00000000
00000000
00000000
,
00000000
00000000
00000000
00000000
,
00000000
00000000
00000000
00000000
,
00000000
00000000
00000000
00000000
,
00000000
00000000
00000000
00000000
,
00000010
00000000
00000001
00000000
,
00000100
00000000
00000000
00000000
,
00001000
00000000
00000000
00000000
,
00010000
00000000
00000000
00000000
,
00100000
00000000
01000000
00000000
,
00010000
00000000
00000000
00000000
,
00100000
00000000
10000000
00000000
,
00100000
00000000
00000000
00000000
,
01000000
00000000
00010000
00000000
,
00001000
00000000
00000000
00000000
,
00010000
00000000
00001000
00000000
,
00000100
00000000
00000000
00000000
,
00000010
00000000
00000000
00000000
,
00000001
00000000
00000000
00000000
,
00000010
00000000
00001000
00000000
,
00000100
00000000
00000000
00000000
,
00010000
00000000
00000000
00000000
,
00001000
00000000
00000000
00000000
,
00100000
00000000
00000000
00000000
,
00010000
00000000
00000000
00000000
,
10000000
00000000
01000000
00000000
,
00010000
00000000
00000000
00000000
,
00001000
00000000
00000100
00000000
,
00000001
00000000
00000000
00000000
,
00000001
00000000
00000010
00000000
,
00001000
00000000
00000000
00000000
,
00010000
00000000
00100000
00000000
,
10000000
00000000
00000000
00000000
,
01000000
00000000
00100000
00000000
,
00001000
00000000
00000000
00000000
,
00010000
00000000
00000010
00000000
,
00000100
00000000
00000000
00000000
,
00000001
00000000
00000100
00000000
,
00001000
00000000
00000000
00000000
,
00010000
00000000
01000000
00000000
,
01000000
00000000
00000000
00000000
,
20000000
00000000
00000000
30000000
,
00200000
00000000
00000000
00300000
,
00020000
00000000
00000000
00030000
,
00002000
00000000
00000000
00003000
,
00000200
00000000
00000000
00000300
,
00000002
00000000
00000000
00000003
,
00000020
00000000
00000000
00000030
,
00000100
00000000
00010000
00000000
,
00001000
00000000
00100000
00000000
,
00010000
00000000
10000000
00000000
,
01000000
00000000
00100000
00000000
,
00001000
00000000
00010000
00000000
,
00000100
00000000
00001000
00000000
,
00000010
00000000
00000100
00000000
,
00000001
00000000
00000010
00000000
,
00000200
00000000
00000000
00000000
,
00000300
00000000
00000000
00000000
;

//---------------dance-double - ----------------
#NOTES:
     dance-double:
     :
     Medium:
     6:
     :
00000000
00000000
00000000
00000000
,
00000000
00000000
00000000
00000000
,
00000000
00000000
00000000
00000000
,
00000000
00000000
00000000
00000000
,
00000000
00000000
00000000
00000000
,
00001000
00010000
00001000
00000000
00100000
00000000
01000000
00000000
,
10000000
00010000
10000000
00000000
01000000
00000000
00100000
00000000
,
00001000
00010000
00001000
00000000
00000100
00000010
00000100
00000000
,
00000001
00000010
00000100
00000000
00001010
00000000
00000100
00000001
,
00000100
00000010
00001000
00000000
00001000
00000010
00000100
00000000
,
00000100
00001000
00010000
00000000
01000000
10000000
00100000
00000000
,
10000000
01000000
00010000
00000000
00010000
00001000
00000100
00000000
,
00000010
00001000
00000001
00000100
00001000
00000000
00010000
00010000
,
00001000
00000000
01010000
00000000
01000000
00010000
00100000
00000000
,
01000000
00000000
10100000
00000000
00100000
10000000
01000000
00000000
,
10000000
00000000
10010000
00000000
00010000
00100000
00001000
00000000
,
00010000
00000000
00011000
00000000
00000100
00000001
00000010
00000000
,
00000100
00000000
00001100
00000000
00001000
00000100
00000001
00000100
,
00001000
00000000
00000110
00000000
00000100
00001000
00010000
00000000
,
00100000
01100000
00010000
11000000
,
10000000
01000000
00010000
00001000
,
00021000
00000000
00000000
00031000
00000010
00000000
00000001
00000000
,
00000100
00000000
00000000
00000000
00001001
00000000
00000000
00000000
00000100
00000000
00000100
00000000
00001000
00010000
00000000
00000000
,
01000000
00000000
10000000
00100000
00010000
00000000
00100000
10000000
,
01000000
00010000
00001000
00010000
00000020
00000000
00000000
00000000
,
00000031
00000000
00001100
00000000
00001000
00000100
00000001
00000000
,
00000100
00001100
00011000
00110000
,
00010000
00000000
01100000
00000000
10000000
01000000
00010000
00000000
,
01000000
10000000
00100000
00000000
01000000
00010000
10000000
00000000
,
00100000
00000000
00110000
00000000
00001000
00010000
00000100
00000000
,
00001010
00000101
00000011
00001100
,
00000100
00000001
00000100
00001000
00000010
00000100
00001000
00000000
,
00010000
00000000
00100000
00000000
10000000
00000000
00010000
01000000
,
10000000
00000000
11000000
00000000
00010000
00100000
10000000
00000000
,
00100000
00110000
00011000
00001100
,
00001000
00100000
00000110
00000000
00000001
00000010
00001000
00000000
,
00000010
00000001
00000100
00000000
00000010
00001000
00000001
00000000
,
00000100
00000000
00001100
00000000
00010000
00001000
00100000
00000000
,
01010000
10100000
11000000
00110000
,
00100000
10000000
00100000
00010000
01000000
00100000
00010000
00000000
,
00001000
00000100
00000002
00000000
,
00000013
00000100
00001000
00000010
,
00000100
00000000
00001000
00000000
00010000
00000000
01000000
10000000
,
01000000
00100000
00010000
10000000
,
01000000
00000000
00100000
00000000
00001000
00000000
00010000
00001000
,
00000010
00000000
00000100
00000000
00001000
00000000
00000001
00000100
,
00000010
00000000
00000100
00001000
00010000
00000000
00100000
10000000
,
01000000
00000000
01000000
00010000
00001000
00000000
00000010
00000000
,
00002200
00000000
00000000
00000000
00000000
00000000
00000000
00003300
,
00000011
00000000
00000101
00000000
00001010
00000000
00000100
00000010
,
00000100
00001100
00011000
00110000
,
01000000
10000000
00100000
00000000
01010000
00000000
10100000
00000000
,
10000000
01000000
00100000
00000000
01000000
00010000
00001000
00010000
,
00000100
00000000
00001010
00000000
00000101
00000000
00000001
00000100
,
00001000
00000000
00001010
00000000
00000110
00000000
00000100
00001000
,
00010000
00110000
10000000
01100000
,
00101000
00000000
00011000
00000000
00010100
00000000
00001000
00000010
,
00001010
00000000
00000000
00000000
;

//---------------dance-double - ----------------
#NOTES:
     dance-double:
     :
     Hard:
     7:
     :
00000000
00000000
00000000
00000000
,
00000000
00000000
00000000
00000000
,
00000000
00000000
00000000
00000000
,
00000000
00000000
00000000
00000000
,
00000000
00000000
00000000
00000000
,
00001000
00010000
00100000
00010000
00001000
00000000
00000110
00000000
,
00000001
00000010
00000100
00001000
00000100
00000000
00001010
00000000
,
00000100
00001000
00010000
00000000
01000000
10000000
00100000
00000000
,
01000000
00001000
00010000
01000000
10000000
00100000
00100000
00000000
,
10000000
01100000
00100000
00011000
,
00000010
00001100
00000001
00001010
,
00000101
00000001
00000010
00000000
00001100
00000100
00010000
00000000
,
00000000
00000000
00000000
00000000
00001000
00000000
00010000
00000000
00100000
00000000
20000000
00000000
00000000
00000000
30100000
10000000
,
01000000
00100000
00001000
00010000
00000100
00000000
00001000
00000001
,
00000010
00000000
00000100
00010000
00001000
00000000
00010000
01000000
,
10000000
00000000
10000000
00100000
00010000
00000000
00011000
00000000
,
00110000
00000000
01000000
00100000
00001000
00010000
00000010
00000100
,
00000101
00000000
00000001
00000010
00000100
00000000
00001000
00000010
,
00000100
00000000
00000100
00001000
00010000
01000000
10000000
00100000
,
01100000
00000000
01000000
00010000
10000000
00000000
01000000
00010000
,
00001000
00000200
00000302
00000023
,
00002030
00000000
00013000
00000000
00001000
00100000
01000000
00000000
,
10000000
00000000
00100000
01000000
00010000
01000000
00100000
00100000
,
10000000
01000000
00000000
00000000
00010000
00000000
00000000
00000000
00001000
00000000
00000010
00000000
00000100
00000000
00000000
00000000
,
00000100
00000001
00001100
00000000
00000011
00000000
00002020
00000000
,
00000000
00003030
00000010
00000100
00001000
00010000
01000000
00100000
,
00010000
10100000
01010000
11000000
,
00110000
00000000
10000000
01000000
00100000
00000000
01000000
00010000
,
00001000
00000000
00001000
00000010
00000100
00001000
00000010
00000100
,
00000110
00000000
00000001
00000000
00001100
00000000
00000100
00000010
,
00000001
00000000
00001000
00000000
00000101
00000000
00000100
00001000
,
00010000
00000000
01000000
00100000
00010000
00000000
01100000
00000000
,
11000000
00000000
00000000
00000000
01000000
00000000
00010000
00000000
00001000
00000000
00000100
00000000
00000010
00000000
00001000
00000010
,
00001000
00000001
00000100
00000010
00001000
00000001
00000100
00000000
,
00001001
00000100
00010100
00011000
,
01001000
00000000
00110000
00000000
11000000
00000000
00100000
01000000
,
00010000
00000000
00011000
00000000
00001010
00000000
00000100
00000001
,
00000010
00000100
00001000
00000000
00001010
00000000
00000100
00000010
,
00000100
00001000
00010000
01000000
10000000
01000000
00010000
01000000
,
00100000
10010000
01100000
01010000
,
00101000
00022000
00000000
00000000
,
00033000
00010000
01000000
00010000
,
00001000
00000100
00000001
00000010
,
00000100
00001000
00000010
00000000
00000001
00000000
00000010
00000000
,
00000100
00001000
00010000
01000000
,
10000000
10000000
10000000
00000000
01000000
00000000
00100000
00000000
,
00001000
00010000
00000100
00000000
00000100
00001000
00000010
00000000
,
00000001
00000010
00000100
00000000
00000100
00001000
00010000
00000000
,
00010000
00100000
10100000
00000000
01010000
00000000
01100000
00000000
,
10010000
00000000
00000000
00000000
10000000
00000000
01000000
00000000
10000000
00000000
00000000
11000000
00000000
00000000
01000000
00000000
,
00010000
00000000
00001000
00000000
00010000
00000000
00001000
00000000
00000100
00000000
00000000
00000110
00000000
00000000
00000010
00000000
,
00000100
00000000
00000001
00000000
00000010
00000000
00000100
00000000
00001000
00000000
00000000
00001100
00000000
00000000
00000100
00000000
,
00000010
00000000
00000001
00000000
00000100
00000000
00001000
00000000
00010000
00000000
00000000
00011000
00000000
00000000
01000000
00000000
,
10000000
00010000
10000000
00010000
00100000
00010000
10000000
01000000
,
00010000
00001000
00000100
00000010
00000100
00000001
00000010
00000100
,
00010000
00001000
00000100
00000010
00010000
00000000
00001000
00010000
,
01000000
01010000
00011000
00001010
,
00000011
00001001
00000000
00000000
;
