#TITLE:Moving Higher;
#ARTIST:Contour;
#BANNER:Moving Higher.png;
#BACKGROUND:Moving Higher-bg.png;
#CDTITLE:./CDTITLES/DanceDanceRevolution UNIVERSE2.png;
#MUSIC:Moving Higher.ogg;
#SAMPLESTART:23.45;
#SAMPLELENGTH:15;
#BPMS:0=173.99;

//---------------dance-single - ----------------
#NOTES:
     dance-single:
     :
     Beginner:
     1:
     :
0000
0000
0000
0000
,
0000
0000
0000
0000
,
0000
0000
0000
0000
,
0000
0000
0000
0000
,
0000
0000
0000
0000
,
0010
0010
0000
0000
,
1000
0000
0100
0000
,
0001
0001
0000
0000
,
0100
0000
1000
0000
,
0010
0010
0000
0000
,
0001
0000
0010
0000
,
0100
0000
1000
0000
,
0001
0000
1000
0000
,
0001
0001
0000
0000
,
1000
1000
0000
0000
,
0100
0000
0100
0000
,
0220
0000
0000
0330
,
0001
0000
0001
0000
,
2000
0000
0000
3000
,
0010
0000
0010
0000
,
0200
0000
0000
0300
,
1000
0000
1000
0000
,
0002
0000
0000
0003
,
0100
0000
0100
0000
,
0020
0000
0000
0030
,
1000
0000
1000
0000
,
0002
0000
0000
0003
,
0100
0000
0100
0000
,
0020
0000
0000
0030
,
0001
0000
0001
0000
,
2000
0000
0000
3000
,
0010
0000
0010
0000
,
0200
0000
0000
0300
,
0001
0000
0000
0000
,
1000
0000
0000
0000
,
0010
0000
0000
0000
,
0100
0100
0100
0000
,
1000
0000
0000
0000
,
0010
0000
0000
0000
,
0100
0000
0000
0000
,
0001
0001
0001
0000
,
1000
0000
0100
0000
,
0010
0000
0001
0000
,
0001
0000
1000
0000
,
0010
0000
0100
0000
,
0001
0000
0010
0000
,
0100
0000
1000
0000
,
1000
0000
0001
0000
,
0100
0000
0010
0000
,
0001
0001
0001
0000
,
0100
0000
0000
0000
,
0010
0000
1000
0000
,
0100
0000
0000
0000
,
1000
1000
1000
0000
,
0010
0000
0000
0000
,
0100
0000
0001
0000
,
0010
0000
0000
0000
,
1000
0000
1000
0000
,
0002
0000
0000
0003
,
0100
0000
0100
0000
,
0020
0000
0000
0030
,
0001
0000
0001
0000
,
2000
0000
0000
3000
,
0010
0000
0010
0000
,
0200
0000
0000
0300
,
0001
0000
0001
0000
,
1000
0000
0100
0000
,
0010
0000
0010
0000
,
0100
0000
0001
0000
,
1000
0000
1000
0000
,
0001
0000
0010
0000
,
0100
0000
1000
0000
,
0001
0000
0000
0000
,
1001
0000
0000
0000
;

//---------------dance-single - ----------------
#NOTES:
     dance-single:
     :
     Easy:
     4:
     :
0000
0000
0000
0000
,
0000
0000
0000
0000
,
0000
0000
0000
0000
,
0000
0000
0000
0000
,
0000
0000
0000
0000
,
1000
0000
0001
0000
,
0010
0000
1000
0000
,
0010
0100
0001
0000
,
0010
0000
0100
0000
,
1000
0000
0001
0000
,
0100
0000
1000
0000
,
0010
0100
0001
0000
,
1000
0000
0001
0000
,
0100
0000
1000
0000
,
0010
1000
0100
0000
,
0001
0000
0001
0000
,
1000
0001
1001
0000
,
0100
0000
0000
0001
,
0010
0000
0000
1000
,
0100
0000
0000
0010
,
0001
1000
0000
0100
,
1000
0010
0000
0100
,
0001
0000
0000
0010
,
1000
0000
0000
0010
,
0100
0000
0110
0000
,
0010
0000
0000
1000
,
0100
0000
0000
0001
,
0010
0000
0000
0100
,
1000
0001
0000
0010
,
0001
0100
0000
0010
,
1000
0000
0000
0100
,
0001
0000
0000
0100
,
0010
0000
0110
0000
,
0000
1000
0001
0000
,
1001
0000
0000
0000
,
0000
0100
0010
0000
,
0110
0000
0000
0000
,
0000
0010
1000
0000
,
0002
0000
0000
0003
,
0000
0100
0001
0000
,
2000
0000
0000
3000
,
0010
0000
0100
0000
,
0001
0000
0000
0000
,
1000
0000
0010
0000
,
0110
0000
0000
0000
,
0100
0000
0001
0000
,
1000
0000
0000
0000
,
0001
0000
1000
0000
,
1001
0000
0000
0000
,
0001
0000
0010
0000
,
0100
1000
0100
0000
,
1000
0000
0010
0000
,
0100
0001
0100
0000
,
0010
0000
1000
0000
,
0100
0000
0010
0000
,
0001
0000
0100
0000
,
1000
0000
0100
0000
,
1000
0010
0000
0000
,
1000
0100
0000
0000
,
0001
0010
0000
0000
,
0100
1000
0001
0000
,
0010
0001
0100
0000
,
0010
1000
0000
0000
,
0100
0001
0000
0000
,
0100
0010
0000
0110
,
0002
0000
0000
0003
,
2000
0000
0000
3000
,
0010
0000
0100
0000
,
0020
0000
0000
0030
,
2000
0000
0000
3000
,
0002
0000
0000
0003
,
0100
0010
0100
0001
,
1000
0010
0100
0000
,
1001
0000
0000
0000
;

//---------------dance-single - ----------------
#NOTES:
     dance-single:
     :
     Medium:
     7:
     :
0000
0000
0000
0000
,
0000
0000
0000
0000
,
0000
0000
0000
0000
,
0000
0000
0000
0000
,
0000
0000
0000
0000
,
0100
0000
0001
0000
0000
1000
0010
0100
,
0001
0000
1000
0000
0000
0100
1000
0000
,
0010
0000
0100
0000
0000
1000
0100
0010
,
0100
0000
1000
0000
0000
0100
0001
0000
,
0010
0000
1000
0000
0000
0001
0100
0010
,
1000
0000
0001
0000
0000
0010
0001
0000
,
0100
0000
0010
0000
0000
0001
0010
0100
,
0010
0000
0001
0000
0000
0010
1000
0000
,
0001
0000
1000
0000
0010
0100
0001
0000
,
1000
0000
0001
0000
0010
0100
1000
0000
,
0100
0011
0010
1100
,
0001
0100
0010
0000
1000
0000
0101
0000
,
1000
0100
0000
0011
0000
0000
0100
0000
,
0010
1000
0000
0101
0000
0000
0001
0000
,
1000
0010
0000
0100
0000
0000
0001
0000
,
1000
0100
0001
0000
0001
0100
1000
0000
,
0001
0010
0000
1100
0000
0000
0010
0000
,
0100
0001
0000
1010
0000
0000
1000
0000
,
0001
0100
0000
0010
0000
0000
1000
0000
,
0001
0010
1000
0000
1000
0010
0001
0000
,
1000
0100
0000
0010
0000
0100
0001
0000
,
0100
0010
0000
1000
0000
0010
0100
0000
,
0001
0100
0010
0000
1000
0001
0100
0010
,
0000
1001
0000
0100
0010
0000
1010
0000
,
0001
0010
0000
0100
0000
0010
1000
0000
,
0010
0100
0000
0001
0000
0100
0010
0000
,
1000
0010
0100
0000
0001
1000
0010
0100
,
0000
1001
0000
0010
0100
0000
0001
0000
,
0120
0000
0000
0001
0000
0000
1000
0000
,
0100
0000
0000
1000
0000
0000
0001
0000
,
0230
0000
0000
0001
0000
0000
1000
0000
,
0001
0010
0001
0010
,
0301
1000
0000
1000
0000
0000
0010
0000
,
0100
0001
0000
0001
0000
0000
0010
0000
,
1000
0100
0000
0100
0000
0000
0001
0000
,
0020
0000
0032
0000
1003
0100
0010
0000
,
0001
0000
0100
0000
0000
0010
1000
0000
,
0001
0010
0100
0000
1000
0000
1100
0000
,
0100
0000
0010
0000
0000
0001
0010
0000
,
1000
0010
0100
0000
0001
0000
1010
0000
,
1000
0000
0010
0000
0000
0100
0001
0000
,
1000
0100
0010
0000
0001
0000
0011
0000
,
0010
0000
0100
0000
0000
1000
0100
0000
,
0001
0100
0010
0000
1000
0000
0101
0000
,
0100
0010
0000
0010
1000
0000
1010
0000
,
0001
0010
0000
0010
0100
0000
0101
0000
,
1000
0010
0000
0100
0010
1000
0000
0001
,
0100
1000
0100
0001
,
0010
0100
0000
0100
0001
0000
0101
0000
,
1000
0100
0000
0100
0010
0000
1010
0000
,
0001
0100
0000
0010
0100
0001
0000
1000
,
0010
0001
0010
1000
,
1000
0100
0000
0011
0000
0000
0100
0000
,
0010
1000
0000
0101
0000
0000
0001
0000
,
1000
0010
0000
0100
0000
0000
0001
0000
,
1000
0100
0001
0000
0001
0100
1000
0000
,
0001
0010
0000
1100
0000
0000
0010
0000
,
0100
0001
0000
1010
0000
0000
1000
0000
,
0001
0100
0000
0010
0000
0000
1000
0000
,
0001
0010
1000
0000
1000
0010
0001
0000
,
0001
0010
0000
0100
0000
0010
1000
0000
,
0010
0100
0000
0001
0000
0100
0010
0000
,
1000
0010
0100
0000
0001
1000
0010
0100
,
0000
1001
0000
0010
0100
0000
0101
0000
,
1000
0100
0000
0010
0000
0100
0001
0000
,
0100
0010
0000
1000
0000
0010
0100
0000
,
0001
0100
0010
0000
1000
0001
0100
0010
,
0000
1001
0000
0100
0010
0010
1000
0000
,
0101
0000
0000
0000
;

//---------------dance-single - ----------------
#NOTES:
     dance-single:
     :
     Hard:
     9:
     :
0000
0000
0000
0000
,
0000
0000
0000
0000
,
0000
0000
0000
0000
,
0000
0000
0000
0000
,
0000
0000
0000
0000
,
0001
1000
0010
0000
0000
1000
1100
0000
,
1000
0001
0100
0000
0000
0100
0101
0000
,
0010
1000
0100
0000
1001
0000
0110
0000
,
0001
1000
0100
0001
0100
1000
1010
0000
,
1000
0001
0100
0001
0010
0000
0011
0000
,
0001
1000
0010
0000
0000
0010
1010
0000
,
0100
0001
0010
0100
1000
0001
1000
0000
,
0100
0000
1010
0000
0100
0001
0101
0000
,
0010
1000
0100
0000
0011
0000
0100
1000
,
0001
0000
1010
0000
0100
0001
0010
0000
,
0011
0000
1100
0000
0100
0010
0001
1000
,
0100
0000
0000
0000
0011
0000
0000
0000
1000
0100
1000
0100
2000
0000
0000
0000
,
3001
1000
0100
0010
0000
0100
0001
0000
,
0100
1000
0010
0001
0000
0010
1000
0000
,
0001
0100
1000
0100
0000
0001
0010
0000
,
0100
1000
0001
0010
1000
0010
1001
0000
,
1000
0010
0100
0001
0010
0100
1000
0000
,
0100
1000
0010
0100
0001
1000
0010
0000
,
0100
0001
0101
0000
0010
1000
1010
0000
,
1100
0000
0000
0000
0011
0000
0000
0000
0001
0000
1000
0001
1000
0000
0010
0000
,
1000
0001
0010
0100
0000
0010
1000
0000
,
0010
0001
0100
1000
0000
0100
0001
0000
,
1000
0010
0001
0010
0000
1000
0100
0000
,
0010
0001
1000
0100
0001
0100
1001
0000
,
0001
0100
0010
1000
0100
0010
0001
0001
,
0010
0001
0100
0010
1000
0001
0100
0100
,
1010
0000
0110
0000
1001
0010
0000
0010
,
1000
0000
0010
0100
0001
0000
0000
0000
1001
0000
0001
0000
0101
0000
0100
0000
,
0020
0001
1000
0000
,
0100
0000
0000
1000
0000
0000
0100
0000
,
0230
0001
0010
0000
,
1000
0000
0000
0001
0000
0000
0010
0000
,
0302
0000
0000
1000
0000
0000
0010
0000
,
0000
0100
0000
0000
1000
0000
0100
0000
,
0203
0000
0000
1000
0000
0000
0010
0000
,
0000
0010
1000
0301
,
0100
0000
0000
0001
0000
0000
0010
0000
,
0000
0100
0000
0000
1000
0000
0010
0000
,
0010
0000
0000
1000
0000
0000
0100
0000
,
0000
0010
0000
0000
0001
0000
0100
0000
,
1000
0000
0020
0000
0030
0100
0001
0000
,
0010
0000
0002
0000
0003
1000
0100
1000
,
0001
0000
0200
0000
0300
0010
1000
0000
,
0100
0000
0020
0000
0130
1000
0001
0000
,
1100
0000
0010
0001
0000
0100
0011
0000
,
0010
0100
0001
0000
1000
1000
0110
0000
,
0011
0000
0100
1000
0000
0010
1100
0000
,
0100
0010
0010
0000
0100
1000
1001
0000
,
0011
0000
0100
1000
0000
0010
1100
0000
,
0100
0010
1000
0000
0001
0001
0110
0000
,
1100
0000
0010
0001
0000
0100
0011
0000
,
0010
0100
0100
0000
0010
0001
1001
0000
,
0010
0001
0100
0010
0000
0100
1000
0000
,
0100
0001
0010
1000
0010
0010
0001
0000
,
1000
0100
0001
0100
0000
1000
0010
0000
,
0100
0001
1000
0010
0001
0010
1010
0000
,
0100
1000
0010
0100
0000
0010
0001
0000
,
0010
1000
0100
0001
0100
1000
0010
0000
,
0001
0010
1000
0010
0000
0001
0100
0000
,
0010
1000
0001
0100
1000
0100
0101
0000
,
0001
1000
0100
1100
0000
0000
1010
0000
,
0100
0001
0010
0011
0000
0000
0101
0000
,
0010
0100
0000
1001
0000
0000
0110
0000
,
0002
2003
3020
0230
,
0301
0010
0100
1000
0010
0001
0010
0100
,
1000
0100
0001
0010
1000
0010
0100
0001
,
0101
0100
1100
1000
1010
0010
0011
0001
,
0010
0100
0001
0100
1000
0100
0001
0010
,
1100
0000
0000
0000
;

//---------------dance-double - ----------------
#NOTES:
     dance-double:
     :
     Beginner:
     1:
     :
00000000
00000000
00000000
00000000
,
00000000
00000000
00000000
00000000
,
00000000
00000000
00000000
00000000
,
00000000
00000000
00000000
00000000
,
00000000
00000000
00000000
00000000
,
00000001
00000000
00000100
00000000
,
00001000
00000000
00000000
00000000
,
00010000
00000000
01000000
00000000
,
10000000
00000000
00000000
00000000
,
10000000
00000000
00100000
00000000
,
00010000
00000000
00000000
00000000
,
00001000
00000000
00000010
00000000
,
00000001
00000000
00000000
00000000
,
00000010
00000000
00000100
00000000
,
00000001
00000000
00000000
00000000
,
00000010
00000000
00001000
00000000
,
00010000
00010000
00010000
00000000
,
01000000
00000000
10000000
00000000
,
00100000
00000000
00000000
00000000
,
10000000
00000000
01000000
00000000
,
00010000
00000000
00000000
00000000
,
00001000
00000000
00000100
00000000
,
00000001
00000000
00000000
00000000
,
00000010
00000000
00000100
00000000
,
00001000
00000000
00000010
00000000
,
00000100
00000000
00001000
00000000
,
00010000
00000000
00010000
00000000
,
01000000
00000000
00000000
00000000
,
10000000
00000000
00000000
00000000
,
00100000
00000000
00010000
00000000
,
00001000
00000000
00001000
00000000
,
00000010
00000000
00000000
00000000
,
00000110
00000000
00000000
00000000
,
00000001
00000000
00000000
00000000
,
00000100
00000000
00000000
00000000
,
00001000
00000000
00000000
00000000
,
00010000
00000000
00000000
00000000
,
00100000
00000000
00000000
00000000
,
10000000
00000000
00000000
00000000
,
01000000
00000000
00000000
00000000
,
00010000
00000000
00000000
00000000
,
00001000
00000000
00001000
00000000
,
00000100
00000000
00000000
00000000
,
00000001
00000000
00000000
00000000
,
00000010
00000000
00000000
00000000
,
00000100
00000000
00000100
00000000
,
00010000
00000000
00001000
00000000
,
01000000
00000000
00000000
00000000
,
00100000
00000000
00000000
00000000
,
10000000
00000000
00000000
00000000
,
01000000
00000000
00000000
00000000
,
00100000
00000000
00000000
00000000
,
00010000
00000000
00100000
00000000
,
00001000
00000000
00000000
00000000
,
00010000
00000000
00000000
00000000
,
00000010
00000000
00000100
00000000
,
00000001
00000000
00000001
00000000
,
00001000
00000000
00000001
00000000
,
00000100
00000000
00000000
00000000
,
00000001
00000000
00000010
00000000
,
00001000
00000000
00000000
00000000
,
00010000
00000000
00100000
00000000
,
10000000
00000000
00000000
00000000
,
01000000
00000000
00100000
00000000
,
10000000
00000000
01000000
00000000
,
10000000
00000000
00000000
00000000
,
01000000
00000000
00000000
00000000
,
00010000
00000000
00000000
00000000
,
00001000
00000000
00000000
00000000
,
00000100
00000000
00000000
00000000
,
00000001
00000000
00000000
00000000
,
00000010
00000000
00000000
00000000
,
00001000
00000000
00000000
00000000
,
00011000
00000000
00000000
00000000
;

//---------------dance-double - ----------------
#NOTES:
     dance-double:
     :
     Easy:
     3:
     :
00000000
00000000
00000000
00000000
,
00000000
00000000
00000000
00000000
,
00000000
00000000
00000000
00000000
,
00000000
00000000
00000000
00000000
,
00000000
00000000
00000000
00000000
,
00000001
00000000
00000100
00000000
,
00000010
00000000
00000000
00000000
,
00000100
00000000
00001000
00000000
,
00010000
00000000
00000000
00000000
,
01000000
00000000
10000000
00000000
,
00100000
00000000
00000000
00000000
,
01000000
00000000
00001000
00000000
,
00010000
00000000
00000000
00000000
,
00001000
00000000
00000100
00000000
,
00000001
00000000
00000000
00000000
,
00000010
00000000
00001000
00000000
,
00010000
00000000
01000000
00000000
,
01100000
00000000
00000000
00000000
,
10000000
00000000
01000000
00000000
,
00010000
00000000
00000000
00000000
,
00001000
00000000
00000100
00000000
,
00000110
00000000
00000000
00000000
,
00000001
00000000
00000100
00000000
,
00001000
00000000
00000000
00000000
,
00010000
00000000
00100000
00000000
,
10000000
10000000
01000000
00000000
,
00100000
00000000
00001000
00000000
,
00010000
00010000
00000010
00000000
,
00000100
00000000
00001000
00000000
,
00000001
00000001
00000100
00000000
,
00000010
00000000
00010000
00000000
,
00001000
00001000
00100000
00000000
,
01000000
00000000
00010000
00000000
,
20000000
00000000
00000000
30000000
,
00200000
00000000
00000000
00300000
,
02000000
00000000
00000000
03000000
,
00002000
00000000
00000000
00003000
,
00010000
00000000
00000100
00000000
,
00001000
00000000
00000001
00000000
,
00000100
00000000
00001000
00000000
,
00010000
00000000
01000000
00000000
,
10000000
00100000
00000000
10000000
,
01000000
00000000
00000000
00000000
,
00010000
00001000
00000000
00000010
,
00000001
00000000
00000000
00000000
,
00000001
00000010
00000000
00000001
,
00000100
00000000
00000000
00000000
,
00001000
00010000
00000000
00100000
,
10000000
00000000
00000000
00000000
,
02000000
00000000
03010000
00001000
,
00000010
00000000
00000001
00000000
,
00000200
00000000
00000000
00000300
,
00002000
00000000
00000000
00003000
,
00100000
00000000
10000000
00100000
,
01000000
00000000
00010000
00000000
,
00001000
00000000
00000100
00000000
,
00000001
00000001
00001001
00000000
,
00000110
00000000
00000000
00000000
,
00000001
00000000
00000010
00000000
,
00001000
00000000
00000000
00000000
,
00010000
00000000
00100000
00000000
,
01100000
00000000
00000000
00000000
,
10000000
00000000
00100000
00000000
,
00010000
00000000
00000000
00000000
,
00001000
00000000
00000100
00000000
,
00000001
00000000
00000100
00000000
,
00000010
00000000
00000100
00000000
,
00001000
00000000
00010000
00000000
,
00100000
00000000
10000000
10000000
,
01000000
00000000
00010000
00000000
,
00001000
00000000
00010000
00000000
,
00001000
00000000
00000010
00000000
,
00000100
00000100
00000001
00000000
,
00000110
00000000
00000000
00000000
;

//---------------dance-double - ----------------
#NOTES:
     dance-double:
     :
     Medium:
     8:
     :
00000000
00000000
00000000
00000000
,
00000000
00000000
00000000
00000000
,
00000000
00000000
00000000
00000000
,
00000000
00000000
00000000
00000000
,
00000000
00000000
00000000
00000000
,
00000100
00000000
00000010
00000000
00000000
00001000
00000100
00000000
,
00000001
00000000
00000100
00000000
00001000
00000010
00000100
00000000
,
00000001
00000100
00001000
00010000
,
00100000
10000000
10000000
00000000
02000000
00000000
00000000
00000000
,
03100000
00000000
10000000
00000000
00000000
00100000
00010000
10000000
,
01000000
00010000
00001000
00000100
,
00000001
00000000
00000010
00000000
00000100
00001000
00000010
00000000
,
00000100
00000001
00000100
00000000
00001000
00000000
00010000
00000000
,
01010000
00000000
01000000
00000000
10000000
00100000
01000000
00000000
,
00010000
00100000
01000000
00000000
10000000
00000000
01000000
00000000
,
00010000
00011000
00001000
00001010
,
00000001
00000000
00000100
00000000
00001000
00000100
00000100
00000000
,
00000010
00000000
00000100
00000000
00000000
00000001
00000010
00000100
,
00001000
00000000
00000010
00000000
00000100
00000001
00000010
00000000
,
00000001
00000000
00000100
00000000
00001000
00010000
00000000
00010000
,
01000000
10000000
00100000
00000000
01000000
00010000
00010000
00000000
,
01000000
00000000
00100000
00000000
00000000
10000000
01000000
00100000
,
00010000
00000000
01000000
00000000
00100000
10000000
01000000
00000000
,
10000000
00000000
00100000
00000000
00010000
00001000
00000000
00001000
,
00000010
00000001
00000100
00000000
00000010
00001000
00001000
00000000
,
00000001
00000000
00000100
00000000
00000010
00001000
00000100
00000000
,
00001000
00000001
00000100
00000000
00001000
00000000
00010000
00000000
,
01000000
10000000
00010000
00000000
00100000
00010000
01000000
00000000
,
00100000
10000000
01000000
00000000
00010000
00000000
00001000
00000000
,
00000100
00000001
00000000
00000001
00000010
00000000
00000101
00000000
,
00000100
00001000
00000000
00001000
00010000
00000000
01100000
00000000
,
10000000
01000000
00000000
01000000
00100000
00000000
11000000
00000000
,
01000000
00010000
00001000
00000000
00010000
00001000
00000100
00000001
,
00000010
00000000
00000000
00000100
00000000
00000000
00001000
00000000
,
00000000
00000001
00000000
00000000
00000100
00000000
00001000
00000000
,
00010000
00000000
00000000
01000000
00000000
00000000
10000000
00000000
,
00000000
00100000
00000000
00000000
10000000
00000000
01000000
00000000
,
01100000
00000000
00000000
00010000
00000000
00000000
10000000
00000000
,
00000000
01000000
00000000
00000000
00010000
00000000
00001000
00000000
,
00000110
00000000
00000000
00000001
00000000
00000000
00000010
00000000
,
00000000
00001000
00000000
00000000
00000010
00000000
00000001
00000000
,
00000100
00000000
00000001
00000000
00000000
00001000
00000010
00000000
,
00000100
00001000
00010000
00100000
,
10000000
00000000
00010000
00000000
00000000
10000000
01000000
00000000
,
00010000
00001000
00000100
00000001
,
00000010
00000001
00000100
00000000
00000001
00000000
00000100
00000000
,
00001000
00010000
00001000
00100000
,
10000000
00100000
00010000
00000000
00100000
00000000
01000000
00000000
,
10000000
01000000
00010000
00001000
,
00000100
00001000
00000010
00000000
00000100
00000001
00000010
00000000
,
00000001
00000000
00000100
00001000
00010000
00000000
01000000
00000000
,
00100000
10000000
00100000
00000000
10000000
00100000
01000000
00000000
,
00010000
00001000
00000010
00000001
,
00000100
00000000
00000011
00000000
00000100
00001000
00000010
00000000
,
00000011
00000000
00000101
00000000
00000100
00001000
00010000
00000000
,
00100000
00000000
11000000
00000000
01000000
10000000
00100000
00000000
,
10100000
11000000
01010000
00011000
,
00000100
00000000
00000010
00000000
00000000
00000001
00000010
00000100
,
00001000
00000000
00000010
00000000
00000100
00000001
00000010
00000000
,
00000001
00000100
00001000
00000000
00001000
00010000
00000000
00010000
,
01000000
10000000
00100000
00000000
01010000
00000000
10100000
00000000
,
01000000
00000000
01100000
00000000
10000000
00000000
01000000
00100000
,
00001000
00000000
00010000
00000000
00100000
10000000
01000000
00000000
,
10000000
00000000
01000000
00000000
00010000
00001000
00000000
00001000
,
00000010
00000001
00000100
00000000
00000010
00000000
00001001
00000000
,
00000001
00000100
00000000
00000100
00000010
00000000
00000110
00000000
,
00000100
00000000
00001000
00000000
00010000
00100000
10000000
00000000
,
10000000
01000000
00000000
01000000
00100000
00000000
01100000
00000000
,
00010000
01000000
10000000
00000000
10000000
01000000
00010000
00000000
,
00001000
00000100
00000000
00000100
00000001
00000000
00000001
00000010
,
00000000
00000010
00000100
00000000
00000100
00001000
00000010
00000000
,
00000100
00000001
00000110
00000101
,
00000100
00000000
00001000
00000000
00010000
00001000
00010000
00000000
,
00011000
00000000
00000000
00000000
;

//---------------dance-double - ----------------
#NOTES:
     dance-double:
     :
     Hard:
     9:
     :
00000000
00000000
00000000
00000000
,
00000000
00000000
00000000
00000000
,
00000000
00000000
00000000
00000000
,
00000000
00000000
00000000
00000000
,
00000000
00000000
00000000
00000000
,
00000001
00000000
00000100
00000000
00000000
00000010
00000100
00001000
,
00010000
00000000
01000000
00000000
10000000
00100000
01000000
00000000
,
00010000
00000000
00100000
00000000
00000000
10000000
01000000
00100000
,
01000000
00000000
00010000
00000000
00001000
00000100
00000001
00000000
,
00000010
00000000
00000001
00000000
00000000
00000100
00001000
00010000
,
00100000
00000000
10000000
00000000
01000000
00010000
00001000
00000000
,
00011000
00000000
00000100
00000001
00000010
00000000
00000100
00001000
,
00000010
00000000
00000100
00001000
00010000
00000000
00011000
00000000
,
00010000
00100000
00010000
00001000
00010000
01000000
10000000
00100000
,
01000000
00000000
01100000
00000000
10010000
00000000
10000000
01000000
,
00100000
00101000
00011000
00001100
,
00000001
00000000
00000100
00000000
00000001
00000000
00001000
00000010
00001000
00000000
00000001
00000000
00001001
00000000
00000000
00000000
,
00000010
00001000
00000000
00000010
00000001
00000000
00000100
00001000
,
00000000
00000100
00000001
00000000
00000010
00000000
00001000
00000000
,
00010000
01000000
00000000
10000000
00100000
00000000
01000000
00010000
,
00100000
01000000
10000000
00000000
01000000
10000000
00100000
10000000
,
01000000
00010000
00000000
00001000
00000010
00000000
00000100
00001000
,
00000000
00000100
00000001
00000000
00000010
00000000
00001000
00000000
,
00010000
00100000
00000000
10000000
01000000
00000000
00100000
00001000
,
01000000
00100000
00010000
00000000
00001000
00000100
00000010
00000000
,
00001000
00000100
00000001
00000100
00001000
00000010
00000100
00000001
,
00000010
00000100
00000000
00001000
00000010
00000000
00000101
00000000
,
00000001
00000100
00001000
00000100
00001000
00010000
00001000
00010000
,
00100000
00010000
00000000
00100000
10000000
00000000
11000000
00000000
,
00100000
00010000
01000000
00000000
01000000
10000000
00000000
01000000
,
00010000
00100000
01000000
10000000
01000000
00000000
00010000
00001000
,
00000100
00000000
00000110
00000000
00001001
00000000
00000100
00000010
,
00000000
00000000
00001000
00000000
00000001
00000000
00000100
00000000
00000010
00001000
00000010
00000000
00000100
00000001
00000100
00000000
,
00000020
00000000
00000000
00020030
00000000
00000000
00032000
00000000
,
00000000
02003000
00000000
00000000
23000000
00000000
32000000
00000000
,
03020000
00000000
00000000
00230000
00000000
00000000
02300000
00000000
,
13000000
00100000
10000000
00000000
20100000
00000000
01000000
00000000
,
30100000
00000000
00000000
10000000
00000000
00000000
00010000
00000000
,
01000000
00001000
00000000
00001000
00000000
00000000
00010000
00000000
,
00000010
00000100
00000000
00000100
00000000
00000000
00000001
00000000
,
00001000
00000000
00000100
00000000
00000010
00000001
00000100
00000000
,
00000010
00000100
00000000
00001010
00000000
00000000
00000001
00000000
,
00000100
00001100
00000000
00001000
00010000
00000000
01010000
00000000
,
01000000
10000000
00000000
10100000
00000000
00000000
01000000
00010000
,
00100000
01001000
00011000
00010100
,
00000100
00000001
00000000
00000110
00000000
00000000
00000100
00000000
,
00001000
00001100
00000000
00000010
00001000
00000000
00011000
00000000
,
01000000
00010000
00000000
00110000
00000000
00000000
01000000
10000000
,
00010000
01010000
00011000
00001010
,
00000100
00000001
00000010
00000000
00000100
00001000
00000000
00000010
,
00000100
00000001
00000100
00000000
00001000
00010000
01000000
00000000
,
10000000
01000000
00010000
00000000
01000000
10000000
00100000
01000000
,
00010000
00000000
00011000
00000000
00000010
00001000
00000001
00000000
,
00000010
00000000
00000100
00001000
00000000
00000001
00000001
00000010
,
00000000
00000010
00001000
00000000
00001000
00010000
00100000
00000000
,
10000000
01000000
00100000
00000000
01000000
00010000
00000000
00011000
,
00000000
00000000
00001000
00000000
00000010
00000000
00000000
00000001
00001000
00000000
00000010
00000000
00000100
00000000
00000000
00000000
,
00000100
00000000
00000010
00000010
00000001
00000000
00000100
00001000
,
00000000
00000100
00000001
00000000
00000010
00000010
00001000
00000000
,
00010000
01000000
00000000
10000000
00100000
00000000
01000000
00010000
,
00100000
01000000
10000000
00000000
01000000
01000000
10000000
10000000
,
01000000
00010000
00000000
00001000
00000010
00000000
00000100
00001000
,
00000000
00000100
00000001
00000001
00000100
00000000
00010000
00000000
,
00001000
00100000
00000000
10000000
00100000
00010000
00000000
10000000
,
01000000
00010000
00001000
00000000
00000020
00000000
00000000
00000000
,
00000031
00000100
00000010
00001000
00000100
00000001
00000100
00001000
,
00000010
00000100
00001000
00010000
00001000
00000000
00010000
00100000
,
10000000
00100000
00010000
00100000
10000000
01000000
00100000
00010000
,
00000000
10000000
00100000
01000000
00010000
00000000
02010000
00000000
,
13000000
01000000
00010000
00100000
10000000
00100000
01000000
00010000
,
00001000
00000000
00011000
00000000
00000100
00000001
00000010
00000100
,
00001000
00000010
00000100
00000001
00000000
00001000
00000010
00000000
,
00000101
00000100
00000110
00000010
00010010
00010000
00011000
00001000
,
00101000
00000000
00000000
00000000
;
