#TITLE:Love In Motion;
#ARTIST:Alien Six;
#BANNER:Love In Motion.png;
#BACKGROUND:Love In Motion-bg.png;
#CDTITLE:./CDTITLES/DanceDanceRevolution UNIVERSE2.png;
#MUSIC:Love In Motion.ogg;
#SAMPLESTART:32.771;
#SAMPLELENGTH:15;
#DISPLAYBPM:124;
#BPMS:0=124.5;

//---------------dance-single - ----------------
#NOTES:
     dance-single:
     :
     Beginner:
     1:
     :
0000
0000
0000
0000
,
0000
0000
0000
0000
,
0000
0000
0000
0000
,
0000
0000
0000
0000
,
0000
0000
0000
0000
,
0010
0000
0100
0000
,
0002
0000
0003
0000
,
0100
0000
0010
0000
,
1000
0000
0001
0001
,
0001
0000
1000
0000
,
0001
0000
1000
0000
,
0100
0000
0010
0000
,
0200
0000
0300
0000
,
1000
0000
0000
0000
,
0001
0000
0000
0000
,
1000
0000
0000
0000
,
0100
0100
0100
0000
,
0010
0000
1000
1000
,
1000
0000
0001
0000
,
0100
0000
0010
0010
,
0010
0000
1000
0000
,
0001
0000
0010
0010
,
0010
0000
0100
0000
,
1000
0000
0010
0010
,
0010
0000
0100
0100
,
0100
0000
0001
0000
,
1000
1000
1000
0000
,
0001
0000
0100
0000
,
1000
1000
1000
0000
,
0010
0000
0100
0000
,
0001
0001
0001
0000
,
0100
0000
1000
0000
,
0100
0100
0100
0100
,
0100
0000
0000
0000
,
0010
0000
0000
0000
,
0001
0000
0000
0000
,
1000
0000
0000
0001
,
0001
0000
0000
0000
,
0100
0000
0000
0000
,
0010
0000
0000
0000
,
1000
0000
0000
0000
,
0001
0000
0000
0000
,
0100
0100
0100
0000
,
1000
0000
0000
0000
,
0010
0010
0010
0000
,
0100
0000
0000
0000
,
0001
0001
0001
0000
,
1000
0000
0000
0000
,
0100
0100
0100
0000
,
1001
0000
0000
0000
,
0010
0000
0100
0000
,
0110
0000
0000
0000
,
1000
0000
0001
0000
,
0110
0000
0000
0000
,
1000
0000
0100
0000
,
0010
0000
0001
0000
,
0100
0100
0100
0000
;

//---------------dance-single - ----------------
#NOTES:
     dance-single:
     :
     Easy:
     3:
     :
0000
0000
0000
0000
,
0000
0000
0000
0000
,
0000
0000
0000
0000
,
0000
0000
0000
0000
,
0000
0000
0000
0000
,
0001
0010
0100
0000
,
1000
0000
0001
1000
,
0010
0100
0001
0000
,
1001
0000
0000
0000
,
0010
1000
0100
0000
,
0010
0001
0100
0000
,
0010
0010
1000
0001
,
1001
0000
0000
0000
,
0110
1000
1000
0000
,
0110
0001
0001
0000
,
0110
1000
1000
0000
,
0110
0001
1000
0100
,
0010
0010
0000
1000
,
0001
0100
0000
0100
,
0010
0010
0000
1000
,
0001
0100
0000
0100
,
0010
0010
0000
0001
,
1000
0100
0100
0000
,
0010
0010
0000
1000
,
0010
0100
0001
1000
,
0001
0001
0100
1000
,
0100
0010
0010
0000
,
1000
1000
0100
0001
,
0100
0010
0010
0000
,
1000
1000
0010
0100
,
0001
0001
1000
0001
,
1000
1000
0100
0010
,
0001
0000
1000
0001
,
1000
0000
0100
0100
,
1000
0000
0010
0010
,
0100
0000
0001
0001
,
0000
0000
0000
0000
,
1001
0000
0100
0010
,
1001
0000
0100
0010
,
1001
0000
0100
0010
,
1001
0000
0010
0100
,
2000
0000
0000
3000
,
1000
1000
0001
0001
,
0200
0000
0000
0300
,
0100
0100
0010
0010
,
0001
0000
0000
0000
,
0001
0001
0100
0100
,
0020
0000
0000
0030
,
1000
0001
1000
0001
,
1001
0000
0000
0010
,
1000
0100
1000
0001
,
0110
0000
0000
1000
,
0001
0100
0010
1000
,
1001
0000
0000
0100
,
0010
0001
1000
0010
,
0110
0000
0100
0001
,
1000
0100
0001
0010
;

//---------------dance-single - ----------------
#NOTES:
     dance-single:
     :
     Medium:
     5:
     :
0000
0000
0000
0000
,
0000
0000
0000
0000
,
0000
0000
0000
0000
,
0000
0000
0000
0000
,
0000
0000
0000
0000
,
0001
0200
1300
0000
,
0100
0000
0010
0000
0001
0000
1000
0001
,
1000
0200
0301
0000
,
0010
0000
0100
0000
1000
0000
0010
0010
,
0020
0130
0020
0130
,
0001
0101
1000
1100
,
1000
0100
1000
0000
0001
0100
0001
0000
,
0010
0000
0010
0000
0010
0000
0010
1000
,
0100
0000
0100
0000
0100
0000
1000
0010
,
0001
0000
0001
0000
0001
0000
0001
0100
,
1000
0000
1000
0000
1000
0000
0001
0010
,
0100
0100
0100
0100
,
0110
2000
3001
0100
,
0010
0010
0010
0000
0100
0000
0010
0000
,
1000
0002
1003
0100
,
0010
0010
0010
0000
0100
0000
0010
0000
,
1000
0200
1300
0010
,
0100
0100
0100
0000
0010
0000
0001
0000
,
1000
0002
0013
0011
,
1010
1001
0110
0000
,
0100
0010
0002
0000
1003
0000
0010
0000
,
0100
0100
0100
0000
0010
0000
0100
0000
,
0001
0010
0200
0000
1300
0000
0010
0000
,
0100
0100
0100
0000
0010
0000
0100
0000
,
0001
1000
0020
0000
0031
0000
0100
0000
,
0010
0010
0010
0000
0100
0000
0001
0000
,
0010
0001
2000
0000
3100
0000
1100
0000
,
2000
3020
0230
0301
,
1002
0000
0000
0103
,
2001
0000
0000
3010
,
1000
0010
0100
0001
,
1000
0000
1000
0000
0001
1000
0100
0000
,
0020
0130
0020
0130
,
0020
0130
0020
0130
,
0020
0130
0020
0130
,
1000
0010
0001
0110
,
2000
0000
3001
0100
,
0020
0030
0200
0300
,
0001
0100
1000
0100
,
0001
0010
0001
0010
,
0002
0000
0103
1000
,
0020
0030
0200
0300
,
1000
0010
0001
0010
,
1000
0000
0001
0000
1000
0001
1000
0001
,
0010
0100
2000
0000
3001
0000
0100
0000
,
0010
0010
0010
0000
0100
0000
0010
0000
,
1000
0100
0020
0000
0031
0000
0100
0000
,
0010
0010
0010
0000
0100
0000
0010
0000
,
1000
0001
0200
0000
1300
0000
0010
0000
,
0100
0100
0100
0000
0010
0000
1000
0000
,
0100
1000
0002
0000
0013
0000
0011
0000
,
2001
3100
1002
0103
;

//---------------dance-single - ----------------
#NOTES:
     dance-single:
     :
     Hard:
     7:
     :
0000
0000
0000
0000
,
0000
0000
0000
0000
,
0000
0000
0000
0000
,
0000
0000
0000
0000
,
0000
0000
0000
0000
,
1000
0100
0010
0001
1000
0020
0000
1030
,
0000
0001
1000
0001
0000
1100
0000
0010
,
0100
0001
0010
0000
0100
1000
0001
0000
,
0100
0000
0000
0010
0000
0000
0100
0000
0000
0000
0001
0000
0100
0000
0000
0000
,
2000
0010
3001
0000
1010
0000
0011
0000
,
0100
1000
0010
0000
0100
0001
1000
0000
,
0001
0010
0100
0010
0001
0100
0010
1000
,
0100
0000
0000
1000
0000
0000
0001
0000
0000
0000
0100
0000
0100
0000
0002
0000
,
0000
1000
0100
1000
0003
0010
1000
0200
,
0000
0010
1000
0010
0300
0001
1000
0020
,
0000
1000
0100
1000
0030
0100
0001
1000
,
0000
0010
0100
0001
1001
0000
0110
0000
,
1000
0000
0000
0001
1000
0000
0100
0000
0000
0000
0100
0000
1000
0000
0010
0000
,
0000
0010
0100
0001
0000
0001
1000
0100
,
0010
0000
0000
0100
1000
0000
0001
0000
0000
0000
0001
0000
1000
0000
0100
0000
,
0000
0100
1000
0010
0000
0010
0100
0001
,
1000
0000
0000
0010
0100
0000
0001
0000
0000
0000
0001
0000
0100
0000
0010
0000
,
0000
0010
1000
0100
0000
0100
0010
0001
,
0100
0000
0000
0001
0100
0000
0010
0000
0000
0000
0010
0000
1000
0000
0100
0000
,
0000
0110
0000
1001
0100
0000
0010
1000
,
0100
0000
0000
1000
0100
0000
0010
0000
0001
0000
0010
0000
0100
0000
1000
0000
,
0010
1000
0100
0010
0001
0010
0001
0000
,
0100
0000
0000
0010
0100
0000
0001
0000
0100
0000
0010
0000
1000
0000
0100
0000
,
1000
0010
0100
0001
0000
1000
0000
0001
,
1000
0000
0000
0010
1000
0000
0001
0000
1000
0000
0010
0000
0100
0000
0010
0000
,
0100
0001
0010
0100
1000
0100
1000
0000
,
0010
0000
0000
1000
0010
0000
0100
0000
0010
0000
1000
0000
0100
0000
0010
0000
,
0000
0011
0000
0101
0000
1001
0000
0110
,
1000
0001
1000
0001
,
0200
0000
1000
0000
0010
0000
0301
0010
,
0100
0010
0100
0010
,
2000
0010
0001
3100
,
2010
3100
0012
0103
,
2010
3100
0012
0103
,
2010
3100
0012
0103
,
0010
0010
0010
0200
,
0301
0000
0001
0100
0001
0000
1000
0000
,
0010
0000
0010
1000
0010
0000
0100
0000
,
0001
0000
0001
1000
0001
0000
0010
0000
,
1100
0000
0101
0000
1100
0000
1000
0001
,
1000
0001
1000
0001
,
0001
1000
0001
0000
0001
0010
0001
0000
,
0010
0100
1000
0001
,
0100
0000
0100
0000
1001
0010
1001
0100
,
0010
0000
0000
0001
0010
0000
0100
0000
1000
0000
0001
0000
0100
0000
0010
0000
,
1000
0100
0010
0110
0000
1001
0000
0100
,
1000
0000
0000
0001
1000
0000
0010
0000
0100
0000
0001
0000
0010
0000
0001
0000
,
0100
0010
1000
0200
0000
0010
0300
0001
,
1000
0000
0000
0100
1000
0000
0001
0000
1000
0000
0100
0000
0010
0000
0100
0000
,
1000
0001
0100
0101
0000
1100
0000
0000
,
0100
0000
0000
0010
0100
0000
0001
0000
0010
0000
0100
0000
1000
0000
0100
0000
,
1000
0001
0000
0001
0100
1000
0100
0000
;

//---------------dance-double - ----------------
#NOTES:
     dance-double:
     :
     Beginner:
     1:
     :
00000000
00000000
00000000
00000000
,
00000000
00000000
00000000
00000000
,
00000000
00000000
00000000
00000000
,
00000000
00000000
00000000
00000000
,
00000000
00000000
00000000
00000000
,
00000010
00000000
00001000
00000000
,
00000002
00000000
00000003
00000000
,
00000100
00000000
00000010
00000000
,
00010000
00000000
00001000
00001000
,
00001000
00000000
00100000
00000000
,
00010000
00000000
01000000
00000000
,
00010000
00000000
01000000
00000000
,
00200000
00000000
00300000
00000000
,
10000000
00000000
00000000
00000000
,
01000000
00000000
00000000
00000000
,
00100000
00000000
00000000
00000000
,
00001000
00001000
00001000
00000000
,
00010000
00000000
00000100
00000100
,
00000100
00000000
00001000
00000000
,
00000001
00000000
00000010
00000010
,
00000010
00000000
00001000
00000000
,
00000100
00000000
00010000
00010000
,
00010000
00000000
00001000
00000000
,
00100000
00000000
00010000
00010000
,
00010000
00000000
00100000
00100000
,
00100000
00000000
00010000
00000000
,
10000000
10000000
10000000
00000000
,
00100000
00000000
01000000
00000000
,
00010000
00010000
00010000
00000000
,
01000000
00000000
00001000
00000000
,
00010000
00010000
00010000
00000000
,
00000100
00000000
00001000
00000000
,
00000010
00000010
00000010
00000010
,
00000010
00000000
00000000
00000000
,
00000001
00000000
00000000
00000000
,
00001000
00000000
00000010
00000000
,
00010000
00000000
00000000
00001000
,
00001000
00000000
00000000
00000000
,
00100000
00000000
00000000
00000000
,
00010000
00000000
00000000
00000000
,
01000000
00000000
00000000
00000000
,
10000000
00000000
00000000
00000000
,
00010000
00010000
00010000
00000000
,
00100000
00000000
00000000
00000000
,
00001000
00001000
00001000
00000000
,
00010000
00000000
00000000
00000000
,
00000010
00000010
00000010
00000000
,
00001000
00000000
00000000
00000000
,
00000001
00000001
00000001
00000000
,
00001001
00000000
00000000
00000000
,
00000100
00000000
00000010
00000000
,
00000110
00000000
00000000
00000000
,
00001000
00000000
00010000
00000000
,
00011000
00000000
00000000
00000000
,
00100000
00000000
00010000
00000000
,
00100000
00000000
10000000
00000000
,
00010000
00010000
00010000
00000000
;

//---------------dance-double - ----------------
#NOTES:
     dance-double:
     :
     Easy:
     3:
     :
00000000
00000000
00000000
00000000
,
00000000
00000000
00000000
00000000
,
00000000
00000000
00000000
00000000
,
00000000
00000000
00000000
00000000
,
00000000
00000000
00000000
00000000
,
00000001
00000010
00000100
00000000
,
00000010
00000000
00010000
00001000
,
00010000
01000000
00100000
00000000
,
01100000
00000000
00000000
00000000
,
10000000
01000000
00010000
00000000
,
00001000
00000010
00000001
00000000
,
00000100
00000100
00000010
00001000
,
00001001
00000000
00000000
00000000
,
00011000
00001000
00001000
00000000
,
01100000
00100000
00100000
00000000
,
10010000
00010000
00010000
00000000
,
01100000
10000000
01000000
00010000
,
00001000
00000100
00000000
00000010
,
00000100
00000001
00000000
00001000
,
00000100
00000100
00000000
00000010
,
00010000
00001000
00000000
01000000
,
00010000
00010000
00000000
00100000
,
01000000
10000000
10000000
00000000
,
00010000
00010000
00000000
00100000
,
00001000
00000100
00010000
00001000
,
00010000
00010000
00000100
00000010
,
00000001
00001000
00001000
00000000
,
00000010
00000010
00000100
00001000
,
00010000
00100000
00100000
00000000
,
10000000
10000000
00010000
00100000
,
01000000
01000000
00010000
00100000
,
00001000
00001000
00000100
00000010
,
00001000
00000000
00000001
00001000
,
00000100
00000000
00010000
00010000
,
00001000
00000000
01000000
01000000
,
00100000
00000000
10000000
10000000
,
00000000
00000000
00000000
00000000
,
01100000
00000000
01000000
00001000
,
00011000
00000000
00000100
00000010
,
00000110
00000000
00000001
00001000
,
00001001
00000000
00000100
00010000
,
00002000
00000000
00000000
00003000
,
00100000
00100000
00010000
00010000
,
20000000
00000000
00000000
30000000
,
01000000
01000000
00010000
00010000
,
00100000
00000000
00000000
00000000
,
00001000
00001000
00000100
00000100
,
00000020
00000000
00000000
00000030
,
00001000
00000001
00000100
00000010
,
00000110
00000000
00000000
00010000
,
00001000
00100000
00010000
00000000
,
00011000
00000000
00000000
00100000
,
00010000
01000000
10000000
00010000
,
10010000
00000000
00000000
00010000
,
00100000
00001000
00010000
00001000
,
00011000
00000000
00000100
00000010
,
00001000
00000100
00000010
00000001
;

//---------------dance-double - ----------------
#NOTES:
     dance-double:
     :
     Medium:
     6:
     :
00000000
00000000
00000000
00000000
,
00000000
00000000
00000000
00000000
,
00000000
00000000
00000000
00000000
,
00000000
00000000
00000000
00000000
,
00000000
00000000
00000000
00000000
,
00010000
00002000
00003100
00000000
,
00001000
00000000
00000100
00000000
00000010
00000000
00000001
00001000
,
00000001
00000200
00000310
00000000
,
00000100
00000000
00001000
00000000
00010000
00000000
00100000
00100000
,
00200000
10300000
00200000
00310000
,
10000000
01100000
00010000
00110000
,
00001000
00010000
00001000
00000000
00000100
00000010
00000100
00000000
,
00000001
00000000
00000001
00000000
00000001
00000000
00000001
00000010
,
00000100
00000000
00000100
00000000
00000100
00000000
00010000
00001000
,
01000000
00000000
01000000
00000000
01000000
00000000
00100000
10000000
,
01000000
00000000
01000000
00000000
01000000
00000000
10000000
00010000
,
00100000
00100000
00100000
00100000
,
00011000
00002000
00013000
00000100
,
00001000
00001000
00001000
00000000
00000100
00000000
00000010
00000000
,
00000001
00000020
00000130
00000001
,
00001000
00001000
00001000
00000000
00000010
00000000
00000100
00000000
,
00010000
02000000
03100000
00010000
,
10000000
10000000
10000000
00000000
00100000
00000000
01000000
00000000
,
10000000
00020000
00130000
00011000
,
00001100
00001010
00000110
00000000
,
00000100
00000001
00002000
00000000
00003010
00000000
00000100
00000000
,
00010000
00010000
00010000
00000000
00001000
00000000
00000100
00000000
,
00000010
00000100
00020000
00000000
01030000
00000000
00100000
00000000
,
00010000
00010000
00010000
00000000
00100000
00000000
10000000
00000000
,
01000000
10000000
00200000
00000000
01300000
00000000
00010000
00000000
,
00100000
00100000
00100000
00000000
00001000
00000000
00010000
00000000
,
00001000
00000100
00000002
00000000
00000013
00000000
00000011
00000000
,
00000200
00000320
00002030
00003100
,
00012000
00000000
00000000
01003000
,
02100000
00000000
00000000
03010000
,
10000000
01000000
00010000
00001000
,
00000010
00000000
00000010
00000000
00000100
00001000
00000010
00000000
,
00000002
00001003
00002000
00003001
,
00000200
00000310
00000020
00000130
,
00020000
00031000
00002000
00013000
,
01000000
00100000
10000000
10010000
,
00200000
00000000
10300000
00010000
,
20000000
30000000
00200000
00300000
,
01000000
00001000
00010000
00000010
,
00000100
00000001
00000100
00000001
,
00002000
00000000
00003010
00010000
,
00002000
00003000
00020000
00030000
,
01000000
00100000
00010000
01000000
,
00001000
00000000
00010000
00000000
00001000
00010000
00001000
00010000
,
01000000
10000000
00200000
00000000
01300000
00000000
00010000
00000000
,
01000000
01000000
01000000
00000000
00010000
00000000
00100000
00000000
,
00001000
00010000
00000200
00000000
00001300
00000000
00000010
00000000
,
00000100
00000100
00000100
00000000
00000001
00000000
00001000
00000000
,
00000010
00000100
00000002
00000000
00000013
00000000
00001000
00000000
,
00000100
00000100
00000100
00000000
00010000
00000000
00001000
00000000
,
00100000
00010000
02000000
00000000
03100000
00000000
01100000
00000000
,
00020000
01030000
00200000
10300000
;

//---------------dance-double - ----------------
#NOTES:
     dance-double:
     :
     Hard:
     8:
     :
00000000
00000000
00000000
00000000
,
00000000
00000000
00000000
00000000
,
00000000
00000000
00000000
00000000
,
00000000
00000000
00000000
00000000
,
00000000
00000000
00000000
00000000
,
00100000
10000000
01000000
00100000
00001000
00010000
00000000
00001000
,
00000000
00000010
00000000
00000001
00000000
00000100
00000010
00000000
,
00010000
00000010
00001000
00000100
00000010
00000001
00000000
00000100
,
00000010
00001000
00000100
00010000
,
00001000
00100000
00010000
01000000
00001000
00100000
00000000
01000000
,
00000000
10000000
00000000
00100000
00000000
00010000
00001000
00000000
,
00100000
01000000
10000000
00100000
01000000
00001000
00010000
00000100
,
00000010
00000001
00001000
00000100
,
00001000
00000010
00000000
00000100
00000000
00000000
00000000
00000000
00000001
00000000
00000010
00000000
00000100
00000000
00000000
00000000
,
00000010
00000001
00000000
00000100
00000000
00000000
00000010
00000000
00010000
00000000
00001000
00000000
00010000
00000000
00000000
00000000
,
00001000
00100000
00000000
00010000
00000000
00000000
00000000
00000000
01000000
00000000
00100000
00000000
10000000
00000000
00000000
00000000
,
00010000
00100000
00000000
00001000
00000000
00000000
00010000
00000000
00000010
00000000
00000100
00000000
00000010
00000000
00000000
00000000
,
00021000
00000000
00000000
00000100
00000000
00000000
00031000
00000000
00000000
00000000
00000100
00000000
00000001
00000000
00000000
00000000
,
00000010
00000001
00001000
00000000
00000010
00001000
00000100
00000000
,
00012000
00000000
00000000
01000000
00000000
00000000
00013000
00000000
00000000
00000000
01000000
00000000
10000000
00000000
00000000
00000000
,
00100000
10000000
00010000
00000000
00100000
00010000
01000000
00000000
,
00021000
00000000
00000000
00000100
00000000
00000000
00031000
00000000
00000000
00000000
00000010
00000000
00000001
00000000
00000000
00000000
,
00001000
00000100
00000010
00000000
00000100
00001000
00000010
00000000
,
00012000
00000000
00000000
00100000
00000000
00000000
00013000
00000000
00000000
00000000
00100000
00000000
10000000
00000000
00000000
00000000
,
00010000
01000000
00100000
00000000
01000000
00010000
00100000
00000000
,
01100000
00000000
00000000
10000000
00000000
00000000
10100000
00000000
00000000
00000000
00100000
00000000
10000000
00000000
01000000
00000000
,
00010000
01000000
00100000
00001000
00010000
00000010
00010000
00001000
,
00001100
00000000
00000000
00000001
00000000
00000000
00001001
00000000
00000000
00000000
00001000
00000000
00000010
00000000
00000100
00000000
,
00001000
00000100
00000001
00000010
00000100
00000001
00000100
00000010
,
00000011
00000000
00000000
00000100
00000000
00000000
00000110
00000000
00000000
00000000
00000010
00000000
00010000
00000000
00001000
00000000
,
00100000
00001000
01000000
00100000
10000000
01000000
00100000
00001000
,
00011000
00000000
00000000
01000000
00000000
00000000
01100000
00000000
00000000
00000000
00100000
00000000
00010000
00000000
00001000
00000000
,
00100000
00000000
00010000
00000000
10000000
00100000
00000000
00000000
01000000
00000000
00100000
00000000
00010000
00000000
00001000
00000000
,
00020000
00000000
01000000
00000000
01000000
00000000
01030000
10000000
,
00200000
00000000
00010000
00000000
00010000
00000000
00310000
00001000
,
00000020
00000000
00000100
00000000
00000100
00000000
00000130
00010000
,
00002000
00000000
00000100
00000000
00000100
00000000
00003100
00000001
,
00000020
00000000
00001000
00000000
00000001
00000000
00001030
00010000
,
00002000
00000000
00000100
00000000
00010000
00000000
00003100
00000010
,
00020000
00000000
00100000
00000000
00001000
00000000
00130000
10000000
,
02000000
00010000
10000000
03010000
,
00000000
00000000
00000000
00000000
00000000
00001000
00010000
00001000
,
00000000
00000100
00000001
00000010
00000000
00000200
00000000
00000000
,
00000300
00000000
00000000
00000000
00000000
00010000
00001000
00010000
,
00000000
01000000
10000000
00200000
00000000
00000000
00300000
00000000
,
00000000
00000000
00000000
00000000
00000000
10000000
00010000
10000000
,
00000000
00100000
00010000
00001000
00000000
00000020
00000000
00000000
,
00000030
00000000
00000000
00000000
00000000
00000001
00001000
00000001
,
00000000
00000010
00000000
00000200
00000000
00000000
00000300
00000000
,
00000010
00000001
00001000
00000001
00000100
00000010
00001000
00000100
,
00000010
00000001
00000100
00001000
00010000
01000000
10000000
00000000
,
00100000
01000000
00001000
01000000
00010000
00100000
00001000
00010000
,
00100000
10000000
01000000
00010000
00001000
00000100
00000001
00000000
,
00000010
00000001
00001000
00000100
00010000
00000010
00001000
00000100
,
00010000
00001000
00000010
00000001
00000100
00001000
00010000
00000000
,
00100000
01000000
00010000
00100000
01000000
10000000
01000000
00100000
,
00001000
00010000
00100000
10000000
01000000
00010000
00001000
00000000
,
00011000
00000000
00000000
00000000
;
