
//----- song ID: isit -----//
#TITLE:Is It Any Wonder? (Tall Paul Remix);
#ARTIST:Keane;
#BANNER:Is It Any Wonder (Tall Paul Remix).png;
#BACKGROUND:Is It Any Wonder (Tall Paul Remix)-bg.png;
#CDTITLE:./CDTITLES/DanceDanceRevolution UNIVERSE2.png;
#MUSIC:Is It Any Wonder (Tall Paul Remix).ogg;
#SAMPLESTART:40.835;
#SAMPLELENGTH:15;
#DISPLAYBPM:129;
#BPMS:0=129.3;
#BGCHANGES:0=Is It Any Wonder (Tall Paul Remix)-bg.png=1=0=0=1,2.5=Is It Any Wonder (Tall Paul Remix).avi=1=0=0=0;

//---------------dance-single - ----------------
#NOTES:
     dance-single:
     :
     Beginner:
     1:
     :
0000
0000
0000
0000
,
0000
0000
0000
0000
,
0000
0000
0000
0000
,
1000
0000
0000
0000
,
0001
0000
0000
0000
,
0100
0000
0000
0000
,
0010
0000
0000
0000
,
0100
0000
0000
0000
,
0001
0000
0000
0000
,
0010
0000
0000
0000
,
0110
0000
0000
0000
,
0100
0000
0000
0000
,
1000
0000
0000
0000
,
0010
0000
0000
0000
,
0100
0000
0000
0000
,
0010
0000
0000
0000
,
1000
0000
0000
0000
,
0001
0000
0000
0000
,
1001
0000
0000
0000
,
1000
0000
0000
0000
,
0100
0000
0000
0000
,
0010
0000
0000
0000
,
1000
1000
1000
0000
,
0010
0000
0000
0000
,
0001
0001
0001
0000
,
0010
0000
0000
0000
,
0100
0100
0100
0000
,
1000
0000
0000
0000
,
0001
0000
0000
0000
,
0010
0000
0000
0000
,
0100
0000
0000
0000
,
0010
0000
0000
0000
,
0001
0000
0000
0000
,
1000
0000
0000
0000
,
1001
0000
0000
0000
,
0001
0000
0000
0000
,
0100
0000
0000
0000
,
0010
0000
0000
0000
,
0100
0100
0100
0000
,
0001
0000
0000
0000
,
1000
1000
1000
0000
,
0100
0000
0000
0000
,
0010
0010
0010
0000
,
0001
0000
0000
0000
,
1000
0000
0000
0000
,
0100
0000
0000
0000
,
0001
0001
0001
0000
,
0100
0000
0000
0000
,
0010
0010
0010
0000
,
0100
0000
0000
0000
,
1000
1000
1000
0000
,
0100
0000
0000
0000
,
0010
0000
0000
0000
,
0110
0000
0000
0000
;

//---------------dance-single - ----------------
#NOTES:
     dance-single:
     :
     Easy:
     4:
     :
0000
0000
0000
0000
,
0000
0000
0000
0000
,
0000
0000
0000
0000
,
1000
0000
0100
0000
,
0010
0000
0100
1001
,
1000
0100
0010
0001
,
0100
0010
1000
0001
,
0100
0001
0010
1000
,
0010
0100
1000
0010
,
0100
0001
0010
0100
,
0010
0110
0001
1001
,
0020
0032
0203
2300
,
3200
0001
0001
0301
,
1000
0100
0010
0001
,
0100
1000
0100
0001
,
0010
1000
0010
0001
,
1000
0010
0001
0010
,
1000
0100
0001
0100
,
1000
1001
0100
0110
,
0020
2030
3200
0302
,
0203
1000
1000
1300
,
0001
0010
0100
1000
,
0020
0031
0200
1300
,
0100
0010
0001
1000
,
0200
0301
0020
1030
,
0010
1000
0100
0001
,
0200
1300
0020
0031
,
0200
2300
3002
0023
,
0130
0010
0001
1000
,
0001
0100
1000
0100
,
0001
0010
1000
0010
,
0001
1000
0010
0001
,
0010
1000
0100
0001
,
0100
1000
0001
0010
,
1000
0110
0001
0110
,
2000
3002
0203
0320
,
1030
0001
0010
0100
,
0010
0001
1000
0010
,
2000
3100
0002
0013
,
1000
0100
0001
0100
,
0020
0031
0200
1300
,
0001
0100
1000
0001
,
0020
1030
0200
0301
,
0200
2300
3020
0032
,
0013
1000
0100
0001
,
0100
1000
0001
0010
,
0002
1003
0002
0103
,
1000
0100
0001
0100
,
2000
3001
2000
3010
,
0001
0010
1000
0010
,
0002
0103
2000
3010
,
0002
0203
2300
3020
,
0032
0203
2300
3020
,
0130
0000
0000
0000
;

//---------------dance-single - ----------------
#NOTES:
     dance-single:
     :
     Medium:
     6:
     :
0000
0000
0000
0000
,
0000
0000
0000
0000
,
0000
0000
0000
0000
,
1000
0000
0010
0010
1000
0000
0001
0000
,
0100
0000
0001
0001
0100
0000
1000
0000
,
0100
0000
0010
0010
1000
0000
0100
0000
,
0001
0000
0100
0100
1000
0000
0001
0000
,
0010
0000
0001
0001
0100
0000
0010
0000
,
1000
0000
0001
0001
0010
0000
1000
0000
,
0010
0000
0100
1000
0001
0000
0100
0000
,
0010
1000
0100
0000
0010
0001
0100
0000
,
2000
3200
0302
0023
,
0130
1000
0001
0010
,
1000
0000
0010
0010
0100
0000
0001
0000
,
0100
0000
1000
1000
0001
0000
0010
0000
,
0001
0000
0100
0100
0010
0000
1000
0000
,
0010
0000
0001
0001
0010
0000
1000
0000
,
0001
0000
1000
0100
0010
0000
0001
0000
,
1000
0100
0001
0000
1000
0010
0001
0000
,
0200
0302
0023
2030
,
3020
0000
0000
0230
0000
0000
1300
1000
,
1000
0001
0100
0010
,
1000
1000
0100
0100
0001
0000
0100
0000
,
1000
0010
0100
0001
,
0010
0010
0001
0001
0100
0000
1000
0000
,
0100
0010
1000
0001
,
0100
0100
0001
0001
0010
0000
1000
0000
,
0020
0032
2003
3200
,
0310
0100
1000
0001
,
0100
0000
0001
1000
0100
0000
0010
0000
,
0001
0000
1000
0100
0010
0000
0100
0000
,
0010
0000
0001
0100
0010
0000
0100
0000
,
1000
0000
0100
0001
1000
0000
0010
0000
,
0100
0000
0001
0010
1000
0000
0010
0000
,
0001
0100
0010
0000
1000
0100
0010
0000
,
0002
0023
0230
2300
,
3020
0000
0000
0230
0000
0000
0301
0001
,
0001
1100
0010
0101
,
1000
1000
0100
0100
0010
0000
0001
0000
,
0100
0010
1000
0001
,
0010
0010
0100
0100
1000
0000
0001
0000
,
0100
1000
0001
0010
,
1000
1000
0001
0001
0100
0000
0010
0000
,
0002
0023
2030
3200
,
0320
0032
2003
3200
,
0301
0100
1000
0010
,
0001
0001
0010
0010
0100
0000
0001
0000
,
0010
0001
0100
1000
,
0100
0100
0010
0010
1000
0000
0100
0000
,
0001
0100
1000
0010
,
1000
1000
0001
0001
0100
0000
0010
0000
,
0002
0023
2030
3200
,
0302
0023
2030
3200
,
0310
0000
0000
0000
;

//---------------dance-single - ----------------
#NOTES:
     dance-single:
     :
     Hard:
     7:
     :
0000
0000
0000
0000
,
0000
0000
0000
0000
,
0000
0000
0000
0000
,
0010
0000
1000
0001
0010
0000
0001
0010
,
0100
0000
0010
0100
1000
0000
0100
1000
,
0001
0000
0010
0100
0001
0000
0100
0000
,
1000
0000
0010
0001
1000
0000
0100
0000
,
0010
0000
1000
0100
0010
0000
0001
0000
,
0100
0000
0001
1000
0100
0000
0010
0000
,
0001
0000
0010
0100
0001
0000
1000
0000
,
0010
0010
0001
0001
0100
0100
1000
1000
,
0200
0302
0023
2030
,
3010
0100
1000
0001
,
0100
0000
0010
1000
0100
0000
0010
0000
,
0001
0000
1000
0100
0001
0000
0100
0000
,
0010
0000
0001
0100
0010
0000
0100
0000
,
1000
0000
0100
0010
1000
0000
0100
0000
,
1000
0000
0001
0010
0100
0000
1000
0000
,
0010
0010
1000
1000
0100
0100
0001
0001
,
0200
2300
3020
0032
,
0013
0100
0100
0010
0001
0001
0010
1000
,
0200
0320
0032
2003
,
3010
0010
0100
0100
0001
0001
2000
0000
,
3020
2030
3200
0302
,
0103
0100
1000
1000
0010
0010
0002
0000
,
0023
0230
0302
2003
,
3001
0001
0100
0100
0010
0010
2000
0000
,
3200
0302
0203
2300
,
3020
0032
0023
2030
,
3001
0100
0010
0000
0100
0010
1000
0000
,
0010
1000
0100
0000
1000
0100
0001
0000
,
0100
0001
1000
0000
0001
1000
0010
0000
,
1000
0010
0001
0000
0010
0001
0100
0000
,
0001
0100
0010
0000
0100
0010
0001
0000
,
0010
0010
1000
1000
0100
0100
0001
0001
,
0200
2300
3020
0032
,
0013
1000
1000
0010
0001
0001
0010
0100
,
0002
0023
0230
2300
,
3100
0100
0010
0010
0001
0001
2000
0000
,
3020
0230
0302
2003
,
3001
0001
0100
0100
0010
0010
2000
0000
,
3002
0203
0320
2030
,
3010
0010
0100
0100
0001
0001
2000
0000
,
3020
0032
0023
2030
,
3200
0302
0203
2300
,
3002
0023
2030
3002
,
0103
0100
1000
1000
0010
0010
0002
0000
,
2003
3200
0302
2003
,
3100
0100
0010
0010
1000
1000
0002
0000
,
0203
2300
3020
0032
,
1003
1000
0100
0100
0010
0010
2000
0000
,
3200
0302
0023
2030
,
3002
0023
0230
0310
,
0110
0000
0000
0000
;

//---------------dance-double - ----------------
#NOTES:
     dance-double:
     :
     Beginner:
     1:
     :
00000000
00000000
00000000
00000000
,
00000000
00000000
00000000
00000000
,
00000000
00000000
00000000
00000000
,
10000000
00000000
00000000
00000000
,
00010000
00000000
00000000
00000000
,
00100000
00000000
00000000
00000000
,
01000000
00000000
00000000
00000000
,
00010000
00000000
00000000
00000000
,
00001000
00000000
00000000
00000000
,
00000100
00000000
00000000
00000000
,
00000110
00000000
00000000
00000000
,
00000010
00000000
00000000
00000000
,
00001000
00000000
00000000
00000000
,
00000001
00000000
00000000
00000000
,
00000010
00000000
00000000
00000000
,
00000100
00000000
00000000
00000000
,
00010000
00000000
00000000
00000000
,
00001000
00000000
00000000
00000000
,
00011000
00000000
00000000
00000000
,
00010000
00000000
00000000
00000000
,
00001000
00000000
00000000
00000000
,
00100000
00000000
00000000
00000000
,
01000000
01000000
01000000
00000000
,
10000000
00000000
00000000
00000000
,
00010000
00010000
00010000
00000000
,
01000000
00000000
00000000
00000000
,
00100000
00100000
00100000
00000000
,
10000000
00000000
00000000
00000000
,
00010000
00000000
00000000
00000000
,
00100000
00000000
00000000
00000000
,
00001000
00000000
00000000
00000000
,
00010000
00000000
00000000
00000000
,
00000010
00000000
00000000
00000000
,
00001000
00000000
00000000
00000000
,
00001001
00000000
00000000
00000000
,
00000001
00000000
00000000
00000000
,
00001000
00000000
00000000
00000000
,
00000010
00000000
00000000
00000000
,
00000100
00000100
00000100
00000000
,
00001000
00000000
00000000
00000000
,
00010000
00010000
00010000
00000000
,
01000000
00000000
00000000
00000000
,
00100000
00100000
00100000
00000000
,
00010000
00000000
00000000
00000000
,
10000000
00000000
00000000
00000000
,
00100000
00000000
00000000
00000000
,
01000000
01000000
01000000
00000000
,
00010000
00000000
00000000
00000000
,
00100000
00100000
00100000
00000000
,
00001000
00000000
00000000
00000000
,
00010000
00010000
00010000
00000000
,
00000100
00000000
00000000
00000000
,
00001000
00000000
00000000
00000000
,
00001001
00000000
00000000
00000000
;

//---------------dance-double - ----------------
#NOTES:
     dance-double:
     :
     Easy:
     4:
     :
00000000
00000000
00000000
00000000
,
00000000
00000000
00000000
00000000
,
00000000
00000000
00000000
00000000
,
10000000
00000000
01000000
00000000
,
00100000
00000000
01000000
10010000
,
10000000
01000000
00100000
00010000
,
01000000
00100000
10000000
00010000
,
01000000
00010000
00100000
00001000
,
00010000
00000010
00001000
00000100
,
00000010
00000001
00001000
00000100
,
00000010
00000110
00000001
00001001
,
00000020
00000032
00000203
00002300
,
00023000
00001000
00001000
00031000
,
00010000
00100000
01000000
10000000
,
01000000
00010000
00100000
10000000
,
00100000
00010000
10000000
01000000
,
00010000
00001000
00000100
00000010
,
00001000
00000100
00000010
00000001
,
00000100
00000110
00001000
00001001
,
00000002
00000023
00002030
00023000
,
00032000
00010000
00010000
00013000
,
00010000
01000000
00100000
10000000
,
00200000
00310000
02000000
13000000
,
01000000
00100000
00010000
10000000
,
02000000
03010000
00200000
10300000
,
00100000
00010000
01000000
00001000
,
00020000
00130000
00002000
00003100
,
00002000
00023000
00030200
00002300
,
00003010
00000100
00000001
00000010
,
00000001
00000100
00001000
00000100
,
00000001
00000010
00001000
00000010
,
00001000
00010000
00100000
00010000
,
00100000
10000000
01000000
10000000
,
00010000
00100000
10000000
00100000
,
00010000
01100000
10000000
01100000
,
00020000
02030000
03200000
00320000
,
00032000
00010000
00010000
00013000
,
00001000
00000010
00000001
00001000
,
00000002
00000103
00002000
00003010
,
00000001
00000100
00001000
00010000
,
00002000
00003010
00020000
01030000
,
00001000
00010000
00100000
10000000
,
02000000
03010000
00200000
10300000
,
02000000
23000000
30200000
00320000
,
00130000
10000000
01000000
00010000
,
00001000
00000100
00000001
00001000
,
00000002
00000013
00000002
00001003
,
00000010
00001000
00010000
00100000
,
20000000
30010000
20000000
30100000
,
01000000
00010000
00001000
00000100
,
00000020
00000031
00000200
00001300
,
00020000
02030000
23000000
30200000
,
00320000
02030000
23000000
30200000
,
01300000
00000000
00000000
00000000
;

//---------------dance-double - ----------------
#NOTES:
     dance-double:
     :
     Medium:
     6:
     :
00000000
00000000
00000000
00000000
,
00000000
00000000
00000000
00000000
,
00000000
00000000
00000000
00000000
,
00001000
00000000
00010000
00010000
00001000
00000000
00010000
00000000
,
00100000
00000000
01000000
01000000
00100000
00000000
01000000
00000000
,
00010000
00000000
01000000
01000000
00010000
00000000
10100000
00000000
,
10000000
00000000
00100000
00100000
10000000
00000000
00110000
00000000
,
00010000
00000000
00100000
00100000
00010000
00000000
00011000
00000000
,
00001000
00000000
00010000
00010000
00001000
00000000
00001100
00000000
,
00001000
00000000
00000100
00000100
00001000
00000000
00000110
00000000
,
00000010
00000001
00000100
00000000
00000010
00001000
00000100
00000000
,
00000020
00000032
00000203
00002300
,
00003100
00000001
00001000
00000010
,
00000100
00000000
00000001
00000001
00000100
00000000
00001010
00000000
,
00000010
00000000
00001000
00001000
00000010
00000000
00001100
00000000
,
00001000
00000000
00000100
00000100
00001000
00000000
00011000
00000000
,
00010000
00000000
00001000
00001000
00010000
00000000
00110000
00000000
,
00010000
00000000
00100000
00100000
00010000
00000000
10010000
00000000
,
10000000
00010000
01000000
00000000
00100000
10000000
00010000
00000000
,
02000000
03200000
20300000
30020000
,
00230000
00000000
00000000
00320000
00000000
00000000
01030000
01000000
,
01000000
00010000
00100000
00001000
,
00010000
00010000
00001000
00001000
00010000
00000000
00000100
00000000
,
00001000
00000010
00000100
00000001
,
00000010
00000010
00000001
00000001
00000010
00000000
00000100
00000000
,
00010000
00001000
01000000
00010000
,
10000000
10000000
01000000
01000000
10000000
00000000
00010000
00000000
,
00200000
00320000
02030000
23000000
,
31000000
00100000
10000000
01000000
,
00100000
00000000
00010000
01000000
00100000
00000000
10000000
00000000
,
01000000
00000000
00100000
00010000
01000000
00000000
10000000
00000000
,
01000000
00000000
00100000
10000000
00010000
00000000
01000000
00000000
,
00001000
00000000
00010000
00001000
00000100
00000000
00001000
00000000
,
00000100
00000000
00000001
00001000
00000100
00000000
00000010
00000000
,
00000001
00000100
00000010
00000000
00001000
00000100
00000010
00000000
,
00002000
00023000
00230000
02300000
,
03020000
00000000
00000000
20030000
00000000
00000000
31000000
01000000
,
00010000
11000000
00100000
01010000
,
10000000
10000000
00100000
00100000
01000000
00000000
00010000
00000000
,
00100000
00001000
00010000
00000010
,
00001000
00001000
00000100
00000100
00000001
00000000
00000100
00000000
,
00001000
00000010
00000100
00000001
,
00000010
00000010
00000100
00000100
00001000
00000000
00000010
00000000
,
00002000
00003200
00020300
00032000
,
02003000
03020000
20030000
30200000
,
10300000
01000000
00010000
00001000
,
00000100
00000100
00000001
00000001
00000010
00000000
00001000
00000000
,
00000010
00000001
00000100
00001000
,
00010000
00010000
01000000
01000000
10000000
00000000
00100000
00000000
,
10000000
01000000
00010000
00001000
,
00010000
00010000
00001000
00001000
00010000
00000000
00001000
00000000
,
00000200
00000302
00000023
00002030
,
00023000
00230000
20300000
32000000
,
03100000
00000000
00000000
00000000
;

//---------------dance-double - ----------------
#NOTES:
     dance-double:
     :
     Hard:
     7:
     :
00000000
00000000
00000000
00000000
,
00000000
00000000
00000000
00000000
,
00000000
00000000
00000000
00000000
,
00000001
00000000
00000100
00000001
00001000
00000000
00000001
00001000
,
00000010
00000000
00001000
00000010
00010000
00000000
00000010
00010000
,
00001000
00000000
00001000
00100000
01000000
00000000
00010000
00000000
,
01000000
00000000
01000000
10000000
00010000
00000000
00100000
00000000
,
00010000
00000000
00010000
01000000
00100000
00000000
10000000
00000000
,
00100000
00000000
00100000
00010000
00001000
00000000
00000010
00000000
,
00001000
00000000
00001000
00000010
00000100
00000000
00000001
00000001
,
00000100
00000100
00001000
00001000
00000010
00000010
00000001
00000001
,
00000020
00002030
00003200
00000302
,
00000103
00001000
00000010
00010000
,
00001000
00000000
00001000
00010000
00100000
00000000
01000000
00000000
,
00100000
00000000
00100000
10000000
01000000
00000000
00010000
00000000
,
01000000
00000000
01000000
00010000
00001000
00000000
00100000
00000000
,
00001000
00000000
00001000
00010000
01000000
00000000
00100000
00000000
,
01000000
00000000
00010000
00001000
00000100
00000000
00000010
00000000
,
00001000
00001000
00000001
00000001
00000010
00000010
00000100
00000100
,
00000020
00000032
00002003
00003020
,
00000130
00000001
00000001
00000100
00000010
00000010
00000100
00001000
,
00020000
02030000
23000000
30200000
,
00310000
00010000
00001000
00001000
00000010
00000010
00000200
00000000
,
00002300
00003020
00000230
00000302
,
00000013
00000010
00000100
00000100
00010000
00010000
00002000
00000000
,
02003000
03200000
20300000
30020000
,
01030000
01000000
00001000
00001000
00010000
00010000
00000020
00000000
,
00002030
00003200
00000302
00000203
,
00001300
00000010
00000100
00001000
,
00010000
00001000
00000100
00000000
00001000
00000100
00000010
00000000
,
00000100
00000010
00001000
00000000
00000010
00001000
00000100
00000000
,
00000010
00000001
00000100
00000000
00000001
00000100
00001000
00000000
,
00000100
00001000
00010000
00000000
00001000
00010000
01000000
00000000
,
00010000
01000000
10000000
00000000
01000000
10000000
00100000
00000000
,
00100000
00100000
10000000
10000000
00010000
00010000
01000000
01000000
,
00020000
20030000
30200000
02300000
,
03010000
00100000
00100000
00010000
10000000
10000000
00010000
01000000
,
00002000
00003200
00000302
00000023
,
00001030
00001000
00010000
00010000
00000100
00000100
00002000
00000000
,
00003020
00020030
00032000
00203000
,
00310000
00010000
01000000
01000000
00001000
00001000
00020000
00000000
,
00032000
00003020
00000230
00000302
,
00000103
00000100
00001000
00001000
00000010
00000010
00000002
00000000
,
00000023
00002030
00003200
00000302
,
00000103
00000010
00000001
00000100
,
00002000
00023000
00230000
20300000
,
31000000
01000000
00010000
00010000
00001000
00001000
00000020
00000000
,
00000230
00002300
00003020
00000032
,
00000013
00000010
00000100
00000100
00001000
00001000
00020000
00000000
,
00230000
20300000
32000000
03200000
,
00301000
00001000
00010000
00010000
00000100
00000100
00000020
00000000
,
00000032
00000203
00002300
00023000
,
00130000
10000000
10000000
00100000
01000000
01000000
00100000
00010000
,
00100000
00000000
00000000
00000000
;
