#TITLE:In Different Things (USA Club Mix);
#ARTIST:ReName;
#BANNER:In Different Things (USA Club Mix).png;
#BACKGROUND:In Different Things (USA Club Mix)-bg.png;
#CDTITLE:./CDTITLES/DanceDanceRevolution UNIVERSE2.png;
#MUSIC:In Different Things (USA Club Mix).ogg;
#SAMPLESTART:10;
#SAMPLELENGTH:15;
#BPMS:0=120;

//---------------dance-single - ----------------
#NOTES:
     dance-single:
     :
     Beginner:
     1:
     :
0000
0000
0000
0000
,
0000
0000
0000
0000
,
0000
0000
0000
0000
,
1000
0000
0000
0000
,
0001
0000
0000
0000
,
1000
0000
0000
0000
,
0010
0000
0000
0000
,
0010
0000
0000
0000
,
1000
0000
0000
0000
,
0001
0000
0000
0000
,
0100
0000
0000
0000
,
0100
0000
0000
0000
,
0001
0001
0001
0000
,
0100
0000
0001
0000
,
1000
0000
2002
3003
,
0010
0000
0000
0000
,
0001
0000
0000
0000
,
0001
0000
0000
0000
,
0010
0000
0000
0000
,
0100
0000
0000
0000
,
1000
0000
0000
0000
,
1000
0000
0000
0000
,
0100
0100
0100
0000
,
1000
0000
0000
0000
,
0100
0000
0000
0000
,
0001
0000
0000
0000
,
0010
0000
0000
0000
,
0010
0000
0000
0000
,
0100
0000
0000
0000
,
0001
0000
0000
0000
,
1000
0000
0000
0000
,
0010
0000
0000
0000
,
0100
0000
0000
0000
,
0001
0000
0000
0000
,
1000
0000
0000
0000
,
1001
0000
0000
0000
,
0010
0000
0000
0000
,
0001
0000
0000
0000
,
0010
0000
0000
0000
,
0100
0000
0000
0000
,
1000
0000
0000
0000
,
0001
0000
0000
0000
,
2002
0000
0000
3003
,
1001
0000
0000
0000
,
0010
0000
0000
0000
,
1000
0000
0000
0000
,
0010
0000
0000
0000
,
0100
0000
0000
0000
,
0001
0000
0000
0000
,
1000
0000
0000
0000
,
0001
0000
0000
0000
,
1001
0000
0000
0000
;

//---------------dance-single - ----------------
#NOTES:
     dance-single:
     :
     Easy:
     2:
     :
0000
0000
0000
0000
,
0000
0000
0000
0000
,
0000
0000
0000
0000
,
0001
0000
1000
0000
,
1000
0000
0001
0000
,
0010
0000
0100
0000
,
0100
0000
0010
0000
,
0001
0000
0100
0000
,
0010
0000
1000
0000
,
0001
0000
0100
0000
,
0100
0000
0001
0000
,
1000
0000
0100
0000
,
0010
0000
0001
0000
,
0100
0100
0001
0001
,
1000
1000
0020
0030
,
1001
0000
0100
0000
,
0010
0000
0001
0000
,
0100
0000
0010
0000
,
1000
0000
0100
0000
,
0001
0000
0100
0000
,
0010
0000
0001
0000
,
1000
0000
0001
0000
,
0010
0000
0100
0000
,
1000
0001
0100
0000
,
0010
0100
0001
0000
,
0100
0010
0001
0000
,
0010
1000
0001
0000
,
1000
0100
0000
0010
,
0000
0001
0000
1000
,
0010
0100
0000
0001
,
0000
0010
0000
0100
,
1000
0001
0000
0100
,
0000
0010
0000
1000
,
0001
0100
0000
0010
,
0000
1000
0000
0001
,
0010
0100
0000
1000
,
0000
0001
0000
0100
,
0010
1000
0000
0001
,
0000
0010
0000
0001
,
0100
0010
0000
1000
,
0000
0001
0000
0010
,
0000
0100
0000
1000
,
2002
0000
0000
3003
,
1001
0100
0000
0001
,
0000
0010
0000
0001
,
1000
0010
0000
1000
,
0000
0100
0000
1000
,
0001
0100
0000
0010
,
0000
1000
0000
0001
,
0010
0100
0000
1000
,
0000
0001
0000
0100
,
1001
0000
0000
0000
;

//---------------dance-single - ----------------
#NOTES:
     dance-single:
     :
     Medium:
     5:
     :
0000
0000
0000
0000
,
0000
0000
0000
0000
,
0000
0000
0000
0000
,
0010
1000
0001
0100
,
1000
0100
0010
0001
,
0220
0000
0330
0000
1000
0001
0100
0000
,
0010
1000
0100
0001
,
0100
0010
0001
1000
,
0010
0100
0001
1000
,
0100
0000
0010
0000
0001
1000
0100
0000
,
0010
0001
0100
1000
,
0100
0001
1000
0010
,
0100
0000
0000
0001
0000
0000
1000
0000
0000
0000
0000
0000
0110
0000
0000
0000
,
0100
0001
1000
0000
0010
0100
1000
0000
,
0100
0001
0010
0000
0100
0000
1000
0000
,
0011
0000
1000
0000
0100
0010
0001
0000
,
1000
0000
0010
0000
0100
0001
1000
0000
,
0100
0000
0010
0000
0001
0100
1000
0000
,
0100
0000
0001
0000
1000
0010
0001
0000
,
1000
0000
0100
0000
0001
0010
0100
0000
,
1000
0000
0001
0000
1000
0100
0001
0000
,
0100
1000
0001
0000
0100
0001
0010
0000
,
0100
0000
0000
1000
0000
0000
0010
0000
0100
0000
0000
0001
0000
0000
0010
0000
,
0100
0100
1000
1000
,
0010
0001
0100
1000
,
0010
0010
0001
0001
,
0100
1000
0010
0001
,
0100
0000
0001
1000
1000
0000
0010
0000
,
1000
0000
0100
0010
0010
0000
0001
0000
,
0100
0000
1000
0100
0100
0000
0001
0000
,
1000
0000
0010
0001
0001
0000
0010
0000
,
1001
0000
0010
0001
0001
0000
0100
0000
,
1000
0000
0100
0010
0010
0000
0001
0000
,
0010
0000
1000
0100
0100
0000
0001
0000
,
0100
0000
0010
1000
1000
0000
0010
0000
,
1000
0100
0001
0100
,
1000
0010
0001
0100
,
1000
0100
0010
0001
,
0100
0010
1000
0100
,
0010
0001
0010
1000
,
0100
0001
0010
1000
,
0100
0010
0001
0100
,
0010
0000
0000
2000
0000
0000
0002
0000
0000
0000
0000
0000
3003
0000
0000
0000
,
1001
0000
0100
0000
0001
0010
0001
0000
,
1000
0000
0010
0000
0100
0001
0100
0000
,
1000
0000
0100
0000
0010
1000
0010
0000
,
0001
0000
0010
0000
1000
0100
1000
0000
,
0001
0000
1000
0000
0010
0100
0010
0000
,
1000
0000
0100
0000
0010
0001
0100
0000
,
0010
0000
1000
0000
0001
0100
0010
0000
,
2000
0000
0000
3200
0000
0000
0302
0000
0000
0000
0000
0000
1003
0000
0000
0000
,
0110
0000
0000
0000
;

//---------------dance-single - ----------------
#NOTES:
     dance-single:
     :
     Hard:
     7:
     :
0000
0000
0000
0000
,
0000
0000
0000
0000
,
0000
0000
0000
0000
,
0010
0000
0000
0000
1000
0000
0000
0100
0000
0000
1000
0000
0001
0000
0100
0000
,
0010
0000
0000
0000
0100
0000
0000
0001
0000
0000
0010
0000
0001
0000
1000
0000
,
0100
0000
0000
0000
0010
0000
0000
0001
0000
0000
1000
0000
0010
0000
1000
0000
,
0001
0000
0000
0000
1000
0000
0000
0100
0000
0000
0010
0000
1000
0000
0010
0000
,
0100
0000
0000
0000
1000
0000
0000
0001
0000
0000
0010
0000
0001
0000
1000
0000
,
0010
0000
0000
0000
1000
0000
0000
0001
0000
0000
0100
0000
0001
0000
1000
0000
,
0100
0000
0000
0000
1000
0000
0000
0010
0000
0000
0001
0000
0010
0000
1000
0000
,
0001
0000
0000
0000
0100
0000
0000
1000
0000
0000
0100
0000
0001
0000
0010
0000
,
0100
0000
0000
0000
1000
0000
0000
0000
0010
0000
1000
0010
0000
0000
1000
0000
,
0100
0000
0000
0100
0000
0000
0200
0000
0000
0000
0010
0000
0310
0000
0000
0000
,
0001
0100
0020
0000
1030
0001
0200
0000
,
0310
1000
0001
1000
0200
0000
0300
0000
,
1001
0000
0000
0000
0001
0000
0000
1000
0000
0000
0100
0000
0001
0000
0100
0000
,
0010
0000
0000
0000
1000
0000
0000
0010
0000
0000
0001
0000
1000
0000
0001
0000
,
0100
0000
0000
0000
0010
0000
0000
0001
0000
0000
0010
0000
0100
0000
0010
0000
,
1000
0000
0000
0000
0100
0000
0000
0001
0000
0000
0100
0000
1000
0000
0010
0000
,
0010
0000
0000
0000
1000
0000
0000
0100
0000
0000
1000
0000
0001
0000
1000
0000
,
0010
0000
0000
0000
0100
0000
0000
0001
0000
0000
0100
0000
0010
0000
0100
0000
,
1000
0000
0000
0000
0100
0000
0000
0000
0001
0000
0100
0001
0000
0000
0100
0000
,
0001
0000
0000
0001
0000
0000
0001
0000
1000
0000
0000
1000
0000
0000
1000
0000
,
0000
0010
0000
0100
0000
0001
0000
1000
,
0000
0100
0000
0010
0000
1000
0000
0001
,
0000
0010
0000
1000
0000
0001
0000
0100
,
0000
1000
0000
0010
0000
0001
0000
0100
,
0100
0000
0000
0000
0001
0100
0000
0000
0001
0000
0000
0000
1000
0000
0000
0000
,
0010
0000
1000
0100
1000
0000
0001
0000
,
0010
0000
0000
0000
0001
0100
0000
0000
0001
0000
0000
0000
0100
0000
0000
0000
,
1000
0000
0100
1000
0100
0000
0010
0000
,
1000
0000
0000
0000
0100
0001
0000
0000
0100
0000
0000
0000
1000
0000
0000
0000
,
0010
0000
0001
0010
0001
0000
0010
0000
,
0100
0000
0000
0000
0001
1000
0000
0000
0001
0000
0000
0000
0010
0000
0000
0000
,
0100
0000
1000
0010
1000
0000
0001
0000
,
1000
0100
0010
0000
0001
1000
0100
0000
,
1000
0010
0001
0000
0010
1000
0100
0000
,
0010
0001
1000
0000
0001
0010
0100
0000
,
1000
0100
0001
0000
0100
1000
0010
0000
,
0001
0010
0100
0000
0001
0100
1000
0000
,
0100
0010
1000
0000
0001
0010
1000
0000
,
0010
0000
0000
0000
0110
0000
0000
0000
1000
0000
0001
0000
0000
0010
0000
0000
,
0100
0000
0000
1000
0000
0000
0010
0000
0100
0000
0000
0001
0000
0000
0010
0000
,
0100
0000
0000
0000
1000
0000
0000
0001
0000
0000
0100
0000
0100
0000
1000
0000
,
1000
0000
0000
0000
0100
0000
0000
0001
0000
0000
0010
0000
0010
0000
0100
0000
,
0100
0000
0000
0000
0001
0000
0000
0100
0000
0000
1000
0000
1000
0000
0010
0000
,
0010
0000
0000
0000
0001
0000
0000
0010
0000
0000
0100
0000
0100
0000
0001
0000
,
0001
0000
0000
0000
1000
0000
0000
0010
0000
0000
0100
0000
0100
0000
0001
0000
,
0001
0000
0000
0000
0010
0000
0000
0100
0000
0000
1000
0000
1000
0000
0001
0000
,
0001
0000
0000
0000
0100
0000
0000
0010
0000
0000
1000
0000
1000
0000
0100
0000
,
0100
0000
0000
0010
0000
0000
0100
0000
0000
0000
0000
0000
0010
0000
0000
0000
,
1001
0000
0000
0000
;

//---------------dance-double - ----------------
#NOTES:
     dance-double:
     :
     Beginner:
     1:
     :
00000000
00000000
00000000
00000000
,
00000000
00000000
00000000
00000000
,
00000000
00000000
00000000
00000000
,
00001000
00000000
00000000
00000000
,
00010000
00000000
00000000
00000000
,
00001000
00000000
00000000
00000000
,
00000010
00000000
00000000
00000000
,
00000010
00000000
00000000
00000000
,
00001000
00000000
00000000
00000000
,
00000001
00000000
00000000
00000000
,
00000100
00000000
00000000
00000000
,
00000100
00000000
00000000
00000000
,
00000001
00000001
00000001
00000000
,
00000100
00000000
00001000
00000000
,
00001000
00000000
00022000
00033000
,
00100000
00000000
00000000
00000000
,
00010000
00000000
00000000
00000000
,
00010000
00000000
00000000
00000000
,
00100000
00000000
00000000
00000000
,
01000000
00000000
00000000
00000000
,
10000000
00000000
00000000
00000000
,
10000000
00000000
00000000
00000000
,
01000000
01000000
01000000
00000000
,
10000000
00000000
00000000
00000000
,
01000000
00000000
00000000
00000000
,
00010000
00000000
00000000
00000000
,
00001000
00000000
00000000
00000000
,
00000010
00000000
00000000
00000000
,
00000100
00000000
00000000
00000000
,
00010000
00000000
00000000
00000000
,
00001000
00000000
00000000
00000000
,
00100000
00000000
00000000
00000000
,
01000000
00000000
00000000
00000000
,
00010000
00000000
00000000
00000000
,
00001000
00000000
00000000
00000000
,
00011000
00000000
00000000
00000000
,
00000010
00000000
00000000
00000000
,
00000001
00000000
00000000
00000000
,
00000010
00000000
00000000
00000000
,
00000100
00000000
00000000
00000000
,
00010000
00000000
00000000
00000000
,
00001000
00000000
00000000
00000000
,
00022000
00000000
00000000
00033000
,
00011000
00000000
00000000
00000000
,
00100000
00000000
00000000
00000000
,
10000000
00000000
00000000
00000000
,
00100000
00000000
00000000
00000000
,
01000000
00000000
00000000
00000000
,
00001000
00000000
00000000
00000000
,
00010000
00000000
00000000
00000000
,
00001000
00000000
00000000
00000000
,
00011000
00000000
00000000
00000000
;

//---------------dance-double - ----------------
#NOTES:
     dance-double:
     :
     Easy:
     2:
     :
00000000
00000000
00000000
00000000
,
00000000
00000000
00000000
00000000
,
00000000
00000000
00000000
00000000
,
00010000
00000000
10000000
00000000
,
10000000
00000000
00010000
00000000
,
00100000
00000000
01000000
00000000
,
01000000
00000000
00100000
00000000
,
00001000
00000000
00010000
00000000
,
00000010
00000000
00001000
00000000
,
00000001
00000000
00000100
00000000
,
00000100
00000000
00000001
00000000
,
00001000
00000000
00000100
00000000
,
00010000
00000000
00001000
00000000
,
01000000
01000000
00010000
00010000
,
10000000
10000000
00200000
00300000
,
10010000
00000000
01000000
00000000
,
00100000
00000000
00010000
00000000
,
01000000
00000000
00100000
00000000
,
10000000
00000000
01000000
00000000
,
00010000
00000000
00001000
00000000
,
00000100
00000000
00000010
00000000
,
00001000
00000000
00000001
00000000
,
00000010
00000000
00000100
00000000
,
00001000
00000001
00000100
00000000
,
00000010
00000100
00000001
00000000
,
00000100
00001000
00010000
00000000
,
00001000
00010000
00100000
00000000
,
10000000
01000000
00000000
00100000
,
00000000
00001000
00000000
00010000
,
00000010
00000100
00000000
00000001
,
00000000
00000010
00000000
00000100
,
00010000
00001000
00000000
01000000
,
00000000
00100000
00000000
10000000
,
00010000
01000000
00000000
00100000
,
00000000
00010000
00000000
00001000
,
00000010
00000100
00000000
00000001
,
00000000
00001000
00000000
00000100
,
00000010
00001000
00000000
00010000
,
00000000
00100000
00000000
10000000
,
01000000
00100000
00000000
00001000
,
00000000
00010000
00000000
00000010
,
00000000
00000100
00000000
00001000
,
00022000
00000000
00000000
00033000
,
00011000
01000000
00000000
00010000
,
00000000
00100000
00000000
00001000
,
00010000
00000010
00000000
00001000
,
00000000
00000100
00000000
00010000
,
00001000
01000000
00000000
00100000
,
00000000
00010000
00000000
00001000
,
00000010
00000100
00000000
00010000
,
00000000
00001000
00000000
00010000
,
00011000
00000000
00000000
00000000
;

//---------------dance-double - ----------------
#NOTES:
     dance-double:
     :
     Medium:
     5:
     :
00000000
00000000
00000000
00000000
,
00000000
00000000
00000000
00000000
,
00000000
00000000
00000000
00000000
,
00100000
10000000
00010000
01000000
,
00001000
00010000
00000010
00000100
,
00002002
00000000
00003003
00000000
00001000
00000001
00000010
00000000
,
00000100
00001000
00000010
00000100
,
00000001
00000010
00000100
00010000
,
00001000
01000000
00010000
00100000
,
00010000
00000000
10000000
00000000
00010000
10000000
01000000
00000000
,
00100000
00010000
01000000
10000000
,
01000000
00001000
00010000
00000100
,
00001000
00000000
00000000
00000010
00000000
00000000
00000100
00000000
00000000
00000000
00000000
00000000
00001001
00000000
00000000
00000000
,
00000001
00000100
00001000
00000000
00010000
00000100
00001000
00000000
,
00000010
00010000
00001000
00000000
00010000
00000000
00001000
00000000
,
00011000
00000000
00010000
00000000
01000000
10000000
00010000
00000000
,
00100000
00000000
00010000
00000000
10000000
01000000
00100000
00000000
,
00001000
00000000
00010000
00000000
00000100
00001000
00000010
00000000
,
00000001
00000000
00000010
00000000
00001000
00000100
00000001
00000000
,
00000100
00000000
00001000
00000000
00000001
00000010
00000100
00000000
,
00001000
00000000
00000010
00000000
00010000
00001000
00100000
00000000
,
01000000
00000000
10000000
00000000
00010000
00100000
10000000
00000000
,
00100000
00000000
00000000
00010000
00000000
00000000
01000000
00000000
00100000
00000000
00000000
10000000
00000000
00000000
01000000
00000000
,
00100000
00010000
10000000
01000000
,
00010000
00001000
00000100
00000010
,
00001000
00000100
00000010
00000001
,
00000010
00001000
00010000
00100000
,
10000000
00000000
01000000
00100000
00100000
00000000
01000000
00000000
,
00010000
00000000
00001000
00000010
00000010
00000000
00000001
00000000
,
00000100
00000000
00001000
00010000
00010000
00000000
00001000
00000000
,
00010000
00000000
00100000
01000000
01000000
00000000
10000000
00000000
,
01000000
00000000
00010000
00100000
01000000
00000000
10000000
00000000
,
00010000
00000000
00100000
01000000
00010000
00000000
00001000
00000000
,
00000100
00000000
00000010
00001000
00000100
00000000
00000001
00000000
,
00000100
00000000
00010000
00001000
00000100
00000000
00000001
00000000
,
00001000
00000100
00000001
00000100
,
00001000
00000010
00000001
00000100
,
00001000
00010000
00100000
10000000
,
00010000
01000000
00100000
10000000
,
00010000
01000000
10000000
01000000
,
00010000
00100000
10000000
01000000
,
00010000
01000000
00001000
00010000
,
00001000
00000000
00000000
00020000
00000000
00000000
00002000
00000000
00000000
00000000
00000000
00000000
00033000
00000000
00000000
00000000
,
00011000
00000000
00001000
00000000
00000100
00000010
00000100
00000000
,
00000001
00000000
00000010
00000000
00000100
00001000
00000100
00000000
,
00010000
00000000
00001000
00000000
00100000
00010000
00100000
00000000
,
01000000
00000000
10000000
00000000
00010000
10000000
00010000
00000000
,
00100000
00000000
01000000
00000000
10000000
00100000
01000000
00000000
,
00001000
00000000
00010000
00000000
00000010
00001000
00000100
00000000
,
00000010
00000000
00000100
00000000
00010000
00001000
00010000
00000000
,
00001000
00000000
00000000
00020000
00000000
00000000
00032000
00000000
00000000
00000000
00000000
00000000
00013000
00000000
00000000
00000000
,
00011000
00000000
00000000
00000000
;

//---------------dance-double - ----------------
#NOTES:
     dance-double:
     :
     Hard:
     7:
     :
00000000
00000000
00000000
00000000
,
00000000
00000000
00000000
00000000
,
00000000
00000000
00000000
00000000
,
00010000
01000000
00100000
01000000
,
00001000
00010000
00000010
00000100
,
00000001
00000000
00000000
00000000
00001000
00000000
00000000
00000100
00000000
00000000
00001000
00000000
00000010
00000000
00000001
00000000
,
00000010
00000000
00000000
00000000
00001000
00000000
00000000
00000100
00000000
00000000
00000010
00000000
00000001
00000000
00000100
00000000
,
00001000
00000000
00000000
00000000
00010000
00000000
00000000
00001000
00000000
00000000
00010000
00000000
01000000
00000000
10000000
00000000
,
00100000
00000000
00000000
00000000
10000000
00000000
00000000
00010000
00000000
00000000
01000000
00000000
00100000
00000000
10000000
00000000
,
00010000
00000000
00000000
00000000
01000000
00000000
00000000
10000000
00000000
00000000
01000000
00000000
00010000
00000000
00100000
00000000
,
01000000
00000000
00000000
00000000
10000000
00000000
00000000
00010000
00000000
00000000
01000000
00000000
00100000
00000000
00010000
00000000
,
00001000
00000000
00000000
00000000
00010000
00000000
00000000
00000000
00001000
00000000
00010000
00001000
00000000
00000000
00000100
00000000
,
00000100
00000000
00000000
00000010
00000000
00000000
00000200
00000000
00000000
00000000
00000000
00000000
00000301
00000000
00000000
00000000
,
00000001
00000100
00000020
00000000
00001030
00000100
00000020
00000000
,
00001030
00010000
00002000
00000000
00013000
00001000
00011000
00000000
,
00001000
00000000
00000000
00000000
00010000
00000000
00000000
00100000
00000000
00000000
01000000
00000000
00010000
00000000
00100000
00000000
,
00001000
00000000
00000000
00000000
00010000
00000000
00000000
00000100
00000000
00000000
00001000
00000000
00000010
00000000
00000100
00000000
,
00001000
00000000
00000000
00000000
00010000
00000000
00000000
00000010
00000000
00000000
00001000
00000000
00000100
00000000
00000010
00000000
,
00001000
00000000
00000000
00000000
00010000
00000000
00000000
01000000
00000000
00000000
00100000
00000000
00010000
00000000
10000000
00000000
,
00010000
00000000
00000000
00000000
01000000
00000000
00000000
00100000
00000000
00000000
00010000
00000000
00100000
00000000
10000000
00000000
,
01000000
00000000
00000000
00000000
00010000
00000000
00000000
01000000
00000000
00000000
10000000
00000000
00100000
00000000
00010000
00000000
,
00001000
00000000
00000000
00000000
00010000
00000000
00000000
00000000
00001000
00000000
00010000
00001000
00000000
00000000
00000100
00000000
,
00000200
00000000
00000000
00000302
00000000
00000000
00000013
00000000
00000200
00000000
00000000
00002300
00000000
00000000
00003010
00000000
,
00000000
00001000
00000000
00000001
00000000
00000010
00000000
00001000
,
00000000
00000010
00000000
00000100
00000000
00010000
00000000
00001000
,
00000000
00100000
00000000
00010000
00000000
10000000
00000000
00100000
,
00000000
00010000
00000000
00100000
00000000
01000000
00000000
00010000
,
10000000
00000000
00000000
00000000
00010000
10000000
00000000
00000000
00010000
00000000
00000000
00000000
00100000
00000000
00000000
00000000
,
00001000
00000000
00010000
00001000
00001000
00000000
00000100
00000000
,
00000001
00000000
00000000
00000000
00001000
00000001
00000000
00000000
00001000
00000000
00000000
00000000
00000010
00000000
00000000
00000000
,
00010000
00000000
00001000
00010000
00010000
00000000
00001000
00000000
,
00100000
00000000
00000000
00000000
00010000
00100000
00000000
00000000
00010000
00000000
00000000
00000000
10000000
00000000
00000000
00000000
,
00010000
00000000
01000000
00001000
00001000
00000000
00010000
00000000
,
00000100
00000000
00000000
00000000
00001000
00000100
00000000
00000000
00001000
00000000
00000000
00000000
00000001
00000000
00000000
00000000
,
00001000
00000000
00000100
00010000
00010000
00000000
00001000
00000000
,
00010000
00100000
01000000
00000000
00010000
10000000
01000000
00000000
,
10000000
01000000
00010000
00000000
01000000
10000000
00100000
00000000
,
00010000
00001000
01000000
00000000
00001000
00010000
00000010
00000000
,
00010000
00001000
00000100
00000000
00001000
00000100
00000001
00000000
,
00000010
00000001
00001000
00000000
00000010
00000100
00000001
00000000
,
00000010
00000001
00000100
00000000
00000001
00000100
00001000
00000000
,
00010000
00000000
00000000
00000000
00011000
00000000
00000000
00000000
00001000
00000000
00010000
00000000
00000000
00001000
00000000
00000000
,
00010000
00000000
00000000
00100000
00000000
00000000
00010000
00000000
00100000
00000000
00000000
10000000
00000000
00000000
00100000
00000000
,
10000000
00000000
00000000
00000000
01000000
00000000
00000000
10000000
00000000
00000000
01000000
00000000
01000000
00000000
00100000
00000000
,
00100000
00000000
00000000
00000000
00001000
00000000
00000000
00010000
00000000
00000000
00001000
00000000
00001000
00000000
00000100
00000000
,
00000100
00000000
00000000
00000000
00000010
00000000
00000000
00000001
00000000
00000000
00000010
00000000
00000010
00000000
00000100
00000000
,
00000100
00000000
00000000
00000000
00001000
00000000
00000000
00010000
00000000
00000000
00001000
00000000
00001000
00000000
00010000
00000000
,
00010000
00000000
00000000
00000000
00100000
00000000
00000000
00010000
00000000
00000000
00100000
00000000
00100000
00000000
01000000
00000000
,
01000000
00000000
00000000
00000000
00001000
00000000
00000000
01000000
00000000
00000000
00001000
00000000
00001000
00000000
00010000
00000000
,
00010000
00000000
00000000
00000000
00000100
00000000
00000000
00010000
00000000
00000000
00000100
00000000
00000100
00000000
00010000
00000000
,
00010000
00000000
00000000
00001000
00000000
00000000
00010000
00000000
00000000
00000000
00000000
00000000
00001000
00000000
00000000
00000000
,
00011000
00000000
00000000
00000000
;
