#TITLE:I Wish I Could Be Beautiful;
#ARTIST:Rithma;
#BANNER:I Wish I Could Be Beautiful.png;
#BACKGROUND:I Wish I Could Be Beautiful-bg.png;
#CDTITLE:./CDTITLES/DanceDanceRevolution UNIVERSE2.png;
#MUSIC:I Wish I Could Be Beautiful.ogg;
#SAMPLESTART:9.836;
#SAMPLELENGTH:15;
#BPMS:0=122;

//---------------dance-single - ----------------
#NOTES:
     dance-single:
     :
     Beginner:
     1:
     :
0000
0000
0000
0000
,
0000
0000
0000
0000
,
0000
0000
0000
0000
,
1000
0000
0000
0000
,
1001
0000
0000
0000
,
0001
0000
0000
0000
,
1000
0000
0000
0000
,
0010
0000
0000
0000
,
0100
0000
0000
0000
,
0001
0000
0000
0000
,
0100
0000
0000
0000
,
1000
0000
0000
0000
,
0010
0000
0000
0000
,
1000
0000
0000
0000
,
0010
0000
0000
0000
,
0100
0000
0000
0000
,
0001
0000
0000
0000
,
1000
1000
0000
0000
,
0001
0001
0000
0000
,
0010
0010
0000
0000
,
0100
0100
0000
0000
,
1001
0000
0000
0000
,
0010
0000
0000
0000
,
1001
0000
0000
0000
,
0100
0000
0000
0000
,
0010
0000
0000
0000
,
0100
0000
0000
0000
,
1000
0000
0000
0000
,
0001
0000
0000
0000
,
0100
0100
0000
0000
,
0010
0010
0000
0000
,
0001
0000
1000
0000
,
0001
0000
0000
0100
,
0100
0000
0010
0000
,
1000
0000
0001
0000
,
1001
0000
0000
0000
,
1001
0000
0000
0000
,
0001
0000
1000
0000
,
0001
0000
0010
0000
,
0100
0000
0000
0000
,
0100
0000
0000
0000
,
1000
0000
1000
0000
,
0001
0000
0001
0000
,
0100
0000
0000
0000
,
0010
0000
0000
0000
,
0010
0000
0010
0000
,
0100
0000
1000
0000
,
0001
0000
0000
0000
,
1000
0000
0000
0000
,
1000
0000
0000
0000
,
0100
0000
0000
0000
,
0001
0000
0000
0000
,
0001
0000
0000
0000
,
0010
0000
0000
0000
;

//---------------dance-single - ----------------
#NOTES:
     dance-single:
     :
     Easy:
     3:
     :
0000
0000
0000
0000
,
0000
0000
0000
0000
,
0000
0000
0000
0000
,
1000
0000
1000
0000
,
0010
0001
0000
0100
,
1000
0100
0001
0000
,
0001
0010
1000
0000
,
1000
0010
0001
0000
,
1000
0100
0001
0000
,
1000
0010
1000
0000
,
0100
0001
0100
0000
,
0010
1000
0001
0000
,
0001
0010
0000
1000
,
0200
0000
0000
0300
,
2000
0000
0000
3000
,
0002
0000
0000
0003
,
0020
0000
0000
0030
,
1000
1000
0100
0000
,
0010
0010
0001
0000
,
0100
0100
0001
0000
,
0010
0010
0000
0000
,
0010
0000
0010
0000
,
0100
0000
0100
0000
,
1000
0000
1000
0000
,
0001
0000
0001
0000
,
1000
0001
1000
0000
,
0010
0001
0100
0000
,
0001
1000
0010
0000
,
0001
1000
0001
0000
,
0001
1000
0001
0000
,
0100
1000
0010
0000
,
1000
0001
0100
0000
,
1000
0001
1001
0000
,
0000
0000
0010
0100
,
0001
2000
0000
3000
,
1001
0000
0100
0010
,
0110
0000
1000
0001
,
1000
0010
0100
0001
,
0001
1000
0100
0001
,
2002
0000
3003
0000
,
0220
0000
0330
0000
,
0100
0010
1000
0001
,
0001
1000
0010
0100
,
0001
0010
0100
1000
,
1000
0100
0010
0001
,
1000
1000
0010
0100
,
0001
0001
0100
0010
,
1000
0001
1001
0000
,
0100
0010
0110
0000
,
0200
0000
0000
0300
,
0002
0000
0000
0003
,
0020
0000
0000
0030
,
2000
0000
0000
0000
,
3000
0000
0000
0000
;

//---------------dance-single - ----------------
#NOTES:
     dance-single:
     :
     Medium:
     5:
     :
0000
0000
0000
0000
,
0000
0000
0000
0000
,
0000
0000
0000
0000
,
0100
0000
0000
0010
0001
0000
0000
0000
,
0110
0000
1001
0000
0001
0000
0100
0010
,
0001
0000
0010
0001
0010
0000
0100
0001
,
0100
0001
0010
1000
,
0010
1001
0100
1001
,
0001
0010
1000
0000
0000
0000
0110
0000
,
1000
0001
0100
0000
0001
0000
1000
0000
,
0010
0100
1000
0000
0100
0000
0001
0000
,
0011
0000
1100
0000
,
0001
0010
0100
1000
,
0020
0000
0100
0030
,
0002
0000
1000
0003
,
2000
0000
0010
3000
,
0200
0000
0001
0300
,
1000
0000
0001
0000
0100
0000
0010
0001
,
1000
0000
0100
0000
0001
0000
0010
1000
,
0001
0000
1000
0000
0010
0000
0100
1000
,
0001
0000
0010
0000
1000
0000
0100
0001
,
0200
0310
2000
3100
,
0020
0031
0200
0320
,
2030
3001
0002
0013
,
0200
0301
0200
1300
,
1000
0000
0010
0000
0100
0010
0001
0000
,
0001
0000
1000
0000
0001
0010
0100
0000
,
0001
0000
0100
0000
0010
0100
1000
0000
,
1000
0000
0001
0000
1000
0100
0010
0000
,
1000
0100
0001
0010
,
0100
1000
0100
0000
0001
0000
0010
0000
,
1000
0001
0100
0010
,
0100
1000
0100
0001
0000
0010
0010
0000
,
1000
0000
0100
0000
0010
0001
0100
0000
,
1000
0000
0100
0000
0001
0010
1000
0000
,
0100
0001
1000
0000
0100
1000
0001
0000
,
0010
0000
0001
1000
0010
0100
0001
0000
,
0001
0000
0010
0000
0100
1000
0010
0000
,
0001
0000
0010
0000
1000
0100
0001
0000
,
0010
1000
0001
0000
0010
0001
1000
0000
,
0100
0000
1000
0001
0100
0010
1000
0000
,
1000
0100
0010
0001
1000
0000
0101
0000
,
0010
0100
0000
1000
0001
0000
0010
0000
,
0010
0001
0100
0010
1000
0000
0100
0000
,
0010
0001
1000
0000
0220
0000
0330
0000
,
0001
0010
0100
1000
0001
0000
1010
0000
,
0100
0010
0000
0001
1000
0000
0100
0000
,
0100
1000
0010
0100
0001
0000
0010
0000
,
0100
1000
0001
0000
2002
0000
3003
0000
,
0200
0000
0302
0000
,
0023
0000
0230
0000
,
2300
0000
3002
0000
,
2000
0003
3020
0000
,
0030
0000
0000
0000
;

//---------------dance-single - ----------------
#NOTES:
     dance-single:
     :
     Hard:
     7:
     :
0000
0000
0000
0000
,
0000
0000
0000
0000
,
0000
0000
0000
0000
,
0010
0000
0000
0001
1000
0000
0000
0000
,
1010
0000
0000
0000
0101
0000
0000
0000
0100
0010
0000
1000
0100
0000
0010
0000
,
0001
1000
0010
0001
0010
1000
0100
0001
,
0100
1000
0001
0000
0010
1000
0000
0100
,
0010
1100
0100
0011
,
1000
0010
0100
0001
0010
0000
1100
0000
,
1000
0001
0100
1000
0100
0001
0010
1000
,
0010
0001
1000
0000
0100
0001
0000
0010
,
0100
0011
0010
1100
,
0001
0100
0010
1000
0100
0000
0011
0000
,
2010
0001
0100
3010
,
0102
0010
1000
0103
,
0021
0100
1000
0031
,
1200
0010
0001
1300
,
0020
0000
0000
0000
0130
0000
0001
0000
1000
0000
0000
0001
0000
0000
0200
0000
,
0000
0000
0000
0000
0000
0000
0310
0000
1000
0000
0000
0001
0000
0000
2000
0000
,
0000
0000
0000
0000
0000
0000
3100
0000
0010
0000
0000
1000
0000
0000
0002
0000
,
0000
0000
0000
0000
0000
0000
0013
0000
0100
0000
0000
1000
0000
0000
0010
0000
,
0002
0000
1000
1003
0020
0000
0100
0130
,
0002
0000
0010
0013
0200
0000
0310
0000
,
2000
0000
0001
3001
0200
0000
0010
0310
,
2000
0000
0100
3100
0020
0000
0130
0000
,
0100
0000
0000
0000
0000
1000
0000
0000
0000
0100
0000
0000
0000
0000
0000
0000
0010
0000
0000
0000
0000
0001
0000
0000
0000
0000
0002
0000
0000
0000
0000
0000
0000
0000
0000
0000
0000
0000
0000
0000
0000
0000
0000
0000
0000
0000
0000
0000
0003
0000
0000
0000
0000
0000
0000
0000
0000
0000
0000
0000
0000
0000
0000
0000
,
0100
0000
0000
0000
0000
0001
0000
0000
0000
0100
0000
0000
0000
0000
0000
0000
0010
0000
0000
0000
0000
1000
0000
0000
0000
0000
2000
0000
0000
0000
0000
0000
0000
0000
0000
0000
0000
0000
0000
0000
0000
0000
0000
0000
0000
0000
0000
0000
3000
0000
0000
0000
0000
0000
0000
0000
0000
0000
0000
0000
0000
0000
0000
0000
,
0010
0000
0000
0000
0000
0001
0000
0000
0000
0010
0000
0000
0000
0000
0000
0000
0100
0000
0000
0000
0000
1000
0000
0000
0000
0000
2000
0000
0000
0000
0000
0000
0000
0000
0000
0000
0000
0000
0000
0000
0000
0000
0000
0000
0000
0000
0000
0000
3000
0000
0000
0000
0000
0000
0000
0000
0000
0000
0000
0000
0000
0000
0000
0000
,
0010
0000
0000
0000
0000
1000
0000
0000
0000
0010
0000
0000
0000
0000
0000
0000
0100
0000
0000
0000
0000
0001
0000
0000
0000
0000
0002
0000
0000
0000
0000
0000
0000
0000
0000
0000
0000
0000
0000
0000
0000
0000
0000
0000
0000
0000
0000
0000
0003
0000
0000
0000
0000
0000
0000
0000
0000
0000
0000
0000
0000
0000
0000
0000
,
1000
0010
0100
0000
0000
0100
0001
1000
,
0010
1000
0100
0000
0000
0010
0001
0100
,
0010
1000
0100
0000
1000
0100
0001
0000
,
0001
0000
0000
0100
0001
0000
0000
0100
0001
0000
0000
0000
0001
0000
0000
0000
0000
0000
0000
0000
1000
0000
0000
0000
0010
0000
0000
0000
0000
0000
0000
0000
,
0100
0001
0010
1000
0010
0001
0100
1000
,
0100
0010
0100
0001
0100
0010
1000
0100
,
0010
1000
0100
0001
0100
1000
0010
0001
,
0010
0100
0010
1000
0010
0100
0001
0000
,
0010
0000
1000
0000
0100
0001
0010
1000
,
0010
0100
0010
0000
0010
0100
1000
0010
,
0200
0001
0001
0301
,
0010
0000
0000
0000
0000
1000
0000
0000
0000
0010
0000
0000
0000
0000
0000
0000
0100
0000
0000
0000
0000
0001
0000
0000
0000
0000
0001
0000
0000
0000
0000
0000
0000
0000
0000
0000
0000
0000
0000
0000
0000
0000
0000
0000
0000
0000
0000
0000
0000
0000
0000
0000
0000
0000
0000
0000
0000
0000
0000
0000
0000
0000
0000
0000
,
0010
1000
0001
0100
0010
1000
0100
0001
,
0100
1000
0010
0100
0001
0010
0100
0000
,
1000
0000
0000
0000
0000
0001
0000
0000
0000
0100
0000
0000
0000
0000
0000
0000
0010
0000
0000
0000
0000
1000
0000
0000
0000
0000
1000
0000
0000
0000
0000
0000
0100
0000
0000
0000
0000
0000
0000
0000
0010
0000
0000
0000
0000
0000
0000
0000
0001
0000
0000
0000
0000
0000
0000
0000
1000
0000
0000
0000
0000
0000
0000
0000
,
0001
0000
0000
0000
0000
1000
0000
0000
0000
0100
0000
0000
0000
0000
0000
0000
0010
0000
0000
0000
0000
0001
0000
0000
0000
0000
0001
0000
0000
0000
0000
0000
2000
0000
0000
0000
0000
0000
0000
0000
0000
0000
0000
0000
0000
0000
0000
0000
3010
0000
0000
0000
0000
0000
0000
0000
0100
0000
0000
0000
0000
0000
0000
0000
,
1000
0000
0000
0000
0000
0001
0000
0000
0000
0010
0000
0000
0000
0000
0000
0000
0100
0000
0000
0000
0000
1000
0000
0000
0000
0000
1000
0000
0000
0000
0000
0000
0001
0000
0000
0000
0000
0000
0000
0000
0100
0000
0000
0000
0000
0000
0000
0000
0010
0000
0000
0000
0000
0000
0000
0000
0100
0000
0000
0000
0000
0000
0000
0000
,
0001
0000
0000
0000
0000
1000
0000
0000
0000
0100
0000
0000
0000
0000
0000
0000
0010
0000
0000
0000
0000
0001
0000
0000
0000
0000
0001
0000
0000
0000
0000
0000
0000
0000
0000
0000
0000
0000
0000
0000
0100
0000
0000
0000
0000
0000
0000
0000
1000
0000
0000
0000
0000
0000
0000
0000
0000
0000
0000
0000
0000
0000
0000
0000
,
0001
0000
0000
0000
0000
1000
0000
0000
0000
0100
0000
0000
0000
0000
0000
0000
0010
0000
0000
0000
0000
0001
0000
0000
0000
0000
0001
0000
0000
0000
0000
0000
1000
0000
0000
0000
0000
0000
0000
0000
0010
0000
0000
0000
0000
0000
0000
0000
0100
0000
0000
0000
0000
0000
0000
0000
0010
0000
0000
0000
0000
0000
0000
0000
,
1000
0000
0000
0000
0000
0001
0000
0000
0000
0010
0000
0000
0000
0000
0000
0000
0100
0000
0000
0000
0000
1000
0000
0000
0000
0000
1000
0000
0000
0000
0000
0000
0000
0000
0000
0000
0000
0000
0000
0000
0010
0000
0000
0000
0000
0000
0000
0000
0001
0000
0000
0000
0000
0000
0000
0000
0000
0000
0000
0000
0000
0000
0000
0000
,
0200
0000
0002
0300
,
0020
0003
2000
0030
,
0200
3000
0002
0300
,
2000
0003
0000
0000
,
3000
0000
0000
0000
;

//---------------dance-double - ----------------
#NOTES:
     dance-double:
     :
     Beginner:
     1:
     :
00000000
00000000
00000000
00000000
,
00000000
00000000
00000000
00000000
,
00000000
00000000
00000000
00000000
,
00000010
00000000
00000000
00000000
,
00001000
00000000
00000000
00000000
,
00010000
00000000
00000000
00000000
,
01000000
00000000
00000000
00000000
,
10000000
00000000
00000000
00000000
,
00010000
00000000
00000000
00000000
,
00100000
00000000
00000000
00000000
,
00001000
00000000
00000000
00000000
,
00010000
00000000
00000000
00000000
,
00000010
00000000
00000000
00000000
,
00000001
00000000
00000000
00000000
,
00000100
00000000
00000000
00000000
,
00010000
00000000
00000000
00000000
,
00001000
00000000
00000000
00000000
,
01000000
00000000
00000000
00000000
,
00010000
00000000
00000000
00000000
,
00100000
00100000
00000000
00000000
,
10000000
10000000
00000000
00000000
,
00010000
00010000
00000000
00000000
,
00001000
00001000
00000000
00000000
,
00000100
00000100
00000000
00000000
,
00000001
00000001
00000000
00000000
,
00000010
00000000
00000000
00000000
,
00000100
00000000
00000000
00000000
,
00010000
00000000
00000000
00000000
,
00001000
00000000
00000000
00000000
,
00100000
00000000
00000000
00000000
,
10000000
00000000
00000000
00000000
,
00010000
00000000
01000000
00000000
,
00001000
00000000
00000010
00000000
,
00000001
00000000
00000100
00000000
,
00000010
00000000
00010000
00000000
,
00011000
00000000
00000000
00000000
,
00011000
00000000
00000000
00000000
,
00010000
00000000
00000000
00000000
,
00100000
00000000
10000000
00000000
,
01000000
00000000
00000000
00000000
,
00010000
00000000
00000000
00000000
,
00001000
00000000
00000000
00000000
,
00000010
00000000
00000001
00000000
,
00000100
00000000
00000000
00000000
,
00001000
00000000
00000000
00000000
,
00010000
00000000
00010000
00000000
,
00001000
00000000
00100000
00000000
,
00010000
00000000
00000000
00000000
,
01000000
00000000
00000000
00000000
,
10000000
00000000
00000000
00000000
,
00010000
00000000
00000000
00000000
,
00010000
00000000
00000000
00000000
,
00001000
00000000
00000000
00000000
,
00011000
00000000
00000000
00000000
;

//---------------dance-double - ----------------
#NOTES:
     dance-double:
     :
     Easy:
     3:
     :
00000000
00000000
00000000
00000000
,
00000000
00000000
00000000
00000000
,
00000000
00000000
00000000
00000000
,
10000000
00000000
01000000
00000000
,
00010000
00010000
00000000
00001000
,
00001000
00000010
00001000
00000000
,
00001000
00000001
00000100
00000000
,
00000001
00000010
00000000
00000000
,
00001000
00010000
00000000
00000000
,
00100000
01000000
10000000
00000000
,
01000000
00001000
00010000
00000000
,
00000010
00010000
00001000
00000000
,
00001000
00000001
00000000
00000001
,
00000200
00000000
00000000
00000300
,
00020000
00000000
00000000
00030000
,
00002000
00000000
00000000
00003000
,
00200000
00000000
00000000
00300000
,
10000000
10000000
01000000
00000000
,
00010000
00010000
00100000
00000000
,
00001000
00000100
00000100
00000000
,
00000010
00000001
00000000
00000000
,
00000001
00000000
00000100
00000000
,
00001000
00000000
00010000
00000000
,
01000000
00000000
00100000
00000000
,
10000000
00000000
01000000
00000000
,
00100000
00001000
00010000
00000000
,
00010000
00001000
00001000
00000000
,
00000010
00000001
00000100
00000000
,
00010000
00001000
00000100
00000000
,
00000100
00001000
00010000
00000000
,
01000000
10000000
00100000
00000000
,
00010000
00001000
00000100
00000000
,
00000100
00000001
00000010
00000000
,
00000000
00000000
00001000
00010000
,
00000100
00020000
00000000
00030000
,
00011000
00000000
00100000
01000000
,
10000000
00000000
00010000
01000000
,
00001000
00010000
00000100
00000010
,
00010000
00001000
00001000
00000000
,
00011000
00000000
00000000
00000000
,
00011000
00000000
00000000
00000000
,
00010000
00100000
10000000
00100000
,
00100000
00000000
01000000
00000000
,
00010000
00001000
00000010
00000100
,
00000001
00000000
00000100
00000110
,
00011000
00000100
00000001
00000100
,
00000100
00000000
00000010
00000000
,
00001000
00010000
01000000
00100000
,
10000000
00000000
00100000
01100000
,
02000000
00000000
00000000
03000000
,
00002000
00000000
00000000
00003000
,
00020000
00000000
00000000
00030000
,
00000020
00000000
00000000
00000030
;

//---------------dance-double - ----------------
#NOTES:
     dance-double:
     :
     Medium:
     5:
     :
00000000
00000000
00000000
00000000
,
00000000
00000000
00000000
00000000
,
00000000
00000000
00000000
00000000
,
01000000
00000000
00000000
00000100
00001000
00000000
00000000
00000000
,
00000011
00000000
00001000
00000000
00000100
00000000
00000010
00000001
,
00000100
00000000
00010000
00001000
00010000
00000000
00001000
00010000
,
01000000
00000000
00001000
00010000
00100000
00000000
10000000
00000000
,
00100000
11000000
00100000
01010000
,
10000000
01000000
00010000
00022000
,
00000000
00000000
00033000
00000000
,
00001000
00000100
00000010
00000000
,
00000110
00000000
00000011
00000000
,
00000010
00000001
00001000
00010000
,
00200000
00000000
10000000
00300000
,
02000000
00000000
00100000
03000000
,
00002000
00000000
00010000
00003000
,
00000020
00000000
00001000
00000030
,
00000100
00000000
00000001
00000000
00000010
00000000
00001000
00000100
,
00000010
00000001
00000100
00001000
,
00010000
00001000
01000000
00000000
00100000
00000000
10000000
00010000
,
00100000
00000000
10000000
00000000
00100000
00000000
00010000
00001000
,
00200000
00300000
00020000
00030000
,
00000020
00000030
00020000
00030000
,
00002000
00003000
00000002
00000003
,
00000200
00000300
00020000
00030000
,
00100000
10000000
01000000
00010000
,
00010000
00000000
01000000
00000000
10000000
00100000
01000000
00000000
,
00001000
00000000
00100000
00000000
00001000
00010000
00001000
00000000
,
00010000
00000000
00000100
00000000
00000010
00000000
00000001
00001000
,
00000100
00000001
00000010
00001000
,
00001000
00000000
00000010
00000000
00001000
00000100
00000010
00000000
,
00010000
00000000
00000100
00000000
00010000
00001000
00010000
00000000
,
00001000
00000000
00100000
00000000
01000000
00000000
10000000
00100000
,
01000000
00010000
00100000
00000000
00001000
00000000
00010000
00000000
,
00001000
00010000
00000100
00000000
00001000
00000000
00000010
00000000
,
00010000
00000010
00001000
00000000
00001000
00000010
00000100
00000000
,
00000001
00000000
00001000
00000000
00000100
00000010
00000001
00000000
,
00000010
00001000
00000100
00000000
00010000
00000000
00001000
00000000
,
00010000
00001000
00100000
00000000
00010000
00000000
01000000
00000000
,
00001000
01000000
00010000
00000000
00010000
10000000
00100000
00000000
,
01000000
00000000
00001000
00000000
00100000
01000000
10000000
00000000
,
00100000
00000000
00001000
00000000
00010000
00001000
00010000
00000000
,
00000100
00000000
00010000
00000000
00000010
00001000
00000100
00000000
,
00000010
00000001
00000010
00000100
00001000
00000000
00000001
00000000
,
00000010
00000100
00001000
00000000
00000100
00001000
00010000
00000000
,
00000100
00000000
00010000
00000000
00001000
00010000
00001000
00000000
,
00100000
00000000
00001000
00000000
01000000
00010000
00100000
00000000
,
01000000
10000000
01000000
00100000
00010000
00000000
10000000
00000000
,
01000000
00100000
00010000
00000000
00100000
00010000
00001000
00000000
,
00020000
00000000
00032000
00000000
,
00003020
00000000
00002030
00000000
,
00003002
00000000
00000203
00000000
,
00020300
00000000
00032000
00000000
,
00003000
00000000
00000000
00000000
;

//---------------dance-double - ----------------
#NOTES:
     dance-double:
     :
     Hard:
     6:
     :
00000000
00000000
00000000
00000000
,
00000000
00000000
00000000
00000000
,
00000000
00000000
00000000
00000000
,
00000010
00000000
00000000
00001000
00000100
00000000
00000000
00000000
,
00010100
00011000
00000000
00001000
,
00100000
10000000
00100000
00000000
01000000
00010000
01000000
00000000
,
10000000
01000000
00010000
00000000
10000000
00100000
00010000
00000000
,
00100000
00010000
00001000
00000000
00010000
00001000
00000100
00000000
,
00000100
00001000
00000001
00000010
00000100
00000000
00001100
00000000
,
00000100
00000001
00000100
00000000
00000010
00001000
00000010
00000000
,
00010000
00001000
00010000
00000000
00001000
00100000
00010000
00000000
,
10000000
01000000
00100000
00010000
01000000
00010000
00100000
00000000
,
10000000
00010000
00100000
01000000
10000000
00000000
00110000
00000000
,
02000000
10000000
00000000
03010000
,
00020000
01000000
00000000
00031000
,
00002000
00000100
00000000
00003001
,
00000020
00000100
00000000
00001030
,
00000200
00000000
00000000
00000000
00010300
00000000
00001000
00000000
00010000
00000000
00000000
00001000
00000000
00000000
00020000
00000000
,
00000000
00000000
00000000
00000000
00000000
00000000
00031000
00000000
01000000
00000000
00000000
00010000
00000000
00000000
00200000
00000000
,
00000000
00000000
00000000
00000000
00000000
00000000
01300000
00000000
10000000
00000000
00000000
00100000
00000000
00000000
02000000
00000000
,
00000000
00000000
00000000
00000000
00000000
00000000
03010000
00000000
00100000
00000000
00000000
00001000
00000000
00000000
00010000
00000000
,
00001000
00000010
00000001
00000100
,
00001000
00000100
00000001
00000000
00000001
00000010
00001000
00000000
,
00010000
00001000
00010000
01000000
,
10000000
01000000
00100000
01000000
00010000
00000000
01010000
00000000
,
01000000
00000000
00000000
00000000
00000000
10000000
00000000
00000000
00000000
01000000
00000000
00000000
00000000
00000000
00000000
00000000
00100000
00000000
00000000
00000000
00000000
00010000
00000000
00000000
00000000
00000000
00100000
00000000
00000000
00000000
00000000
00000000
00000000
00000000
00000000
00000000
00000000
00000000
00000000
00000000
00000000
00000000
00000000
00000000
00000000
00000000
00000000
00000000
00000000
00000000
00000000
00000000
00000000
00000000
00000000
00000000
00000000
00000000
00000000
00000000
00000000
00000000
00000000
00000000
,
00001000
00000000
00000000
00000000
00000000
00010000
00000000
00000000
00000000
00000100
00000000
00000000
00000000
00000000
00000000
00000000
00001000
00000000
00000000
00000000
00000000
00000010
00000000
00000000
00000000
00000000
00000100
00000000
00000000
00000000
00000000
00000000
00000000
00000000
00000000
00000000
00000000
00000000
00000000
00000000
00000000
00000000
00000000
00000000
00000000
00000000
00000000
00000000
00000000
00000000
00000000
00000000
00000000
00000000
00000000
00000000
00000000
00000000
00000000
00000000
00000000
00000000
00000000
00000000
,
00000010
00000000
00000000
00000000
00000000
00000001
00000000
00000000
00000000
00000010
00000000
00000000
00000000
00000000
00000000
00000000
00000100
00000000
00000000
00000000
00000000
00010000
00000000
00000000
00000000
00000000
00001000
00000000
00000000
00000000
00000000
00000000
00000000
00000000
00000000
00000000
00000000
00000000
00000000
00000000
00000000
00000000
00000000
00000000
00000000
00000000
00000000
00000000
00000000
00000000
00000000
00000000
00000000
00000000
00000000
00000000
00000000
00000000
00000000
00000000
00000000
00000000
00000000
00000000
,
00100000
00000000
00000000
00000000
00000000
00010000
00000000
00000000
00000000
10000000
00000000
00000000
00000000
00000000
00000000
00000000
01000000
00000000
00000000
00000000
00000000
00100000
00000000
00000000
00000000
00000000
00010000
00000000
00000000
00000000
00000000
00000000
00000000
00000000
00000000
00000000
00000000
00000000
00000000
00000000
00000000
00000000
00000000
00000000
00000000
00000000
00000000
00000000
10010000
00000000
00000000
00000000
00000000
00000000
00000000
00000000
00000000
00000000
00000000
00000000
00000000
00000000
00000000
00000000
,
01000000
00010000
00100000
01000000
10000000
00000000
00100000
01000000
,
00001000
00000000
00010000
00001000
00010000
00000010
00010000
00000000
,
00000100
00000000
00001000
00000100
00000001
00000000
00001000
00000000
,
00000010
00000000
00000000
00000100
00001000
00000000
00000000
00000100
00001000
00000000
00000000
00000000
00001000
00000000
00000000
00000000
00000000
00000000
00000000
00000000
00010000
00000000
00000000
00000000
00001000
00000000
00000000
00000000
00000000
00000000
00000000
00000000
,
01000000
00010000
00100000
10000000
00100000
00000000
01000000
00000000
,
00100000
00010000
00001000
00010000
00001000
00000000
00011000
00000000
,
00010000
00001000
00000100
00000000
00001000
00000010
00000100
00000000
,
00000001
00000000
00000011
00000000
00000010
00000100
00000100
00000000
,
00000010
00001000
00000100
00000001
00000100
00000000
00000010
00000000
,
00000100
00001000
00010000
00001000
00010000
00000000
00011000
00000000
,
00001000
00010000
00100000
00000000
00010000
01000000
00100000
00000000
,
10000000
00000000
11000000
00000000
01000000
00100000
00100000
00000000
,
10000000
01000000
00100000
00000000
00001000
00100000
00001000
01000000
,
00001000
00010000
00001000
00000000
00010000
00010000
00000100
00000000
,
00000010
00000001
00000001
00001000
00000100
00000100
00000010
00000010
,
00001000
00001000
00010000
00010000
00001000
00100000
00010000
00000000
,
10000000
01000000
00100000
00000000
00001000
01000000
00000000
00100000
,
00001000
00010000
00001000
00000000
00020000
00000000
00030100
00000000
,
00000010
00000000
00000001
00001000
00000100
00000000
00000010
00000000
,
00001000
00001000
00010000
00000000
00001000
00010000
00010000
00100000
,
02000000
00000000
23000000
00000000
,
30200000
00000000
00002000
00300000
,
00023000
00000000
00030200
00000000
,
00000320
00000000
00000000
00000030
,
00000110
00000000
00000000
00000000
;
