
//----- song ID: wana -----//
#TITLE:I Wanna Be Your Star (Speedy Mix);
#ARTIST:Melody & Mezzo;
#BANNER:I Wanna Be Your Star (Speedy Mix).png;
#BACKGROUND:I Wanna Be Your Star (Speedy Mix)-bg.png;
#CDTITLE:./CDTITLES/DanceDanceRevolution UNIVERSE2.png;
#MUSIC:I Wanna Be Your Star (Speedy Mix).ogg;
#SAMPLESTART:45.257;
#SAMPLELENGTH:15;
#BPMS:0=175;
#BGCHANGES:0=I Wanna Be Your Star (Speedy Mix)-bg.png=1=0=0=1,4=I Wanna Be Your Star (Speedy Mix).avi=1=0=0=0;

//---------------dance-single - ----------------
#NOTES:
     dance-single:
     :
     Beginner:
     1:
     :
0000
0000
0000
0000
,
0000
0000
0000
0000
,
0000
0000
0000
0000
,
0000
0000
0000
0000
,
0000
0000
0000
0000
,
0001
0000
0000
0000
,
1000
0000
0000
0000
,
0001
0000
0010
0000
,
1000
0000
0000
0000
,
0010
0000
0100
0000
,
0001
0000
0000
0000
,
0010
0000
0100
0000
,
1000
0000
0000
0000
,
0001
0000
0100
0000
,
1000
0000
0000
0000
,
1000
0000
0100
0000
,
0001
0000
0001
0000
,
0010
0000
0000
0000
,
1000
0000
0000
0000
,
0100
0000
0001
0000
,
1000
0000
0000
0000
,
0100
0000
0000
0000
,
0001
0000
0000
0000
,
0010
0000
1000
0000
,
0100
0000
0000
0000
,
0001
0000
0100
0000
,
1000
0000
0000
0000
,
1000
0000
0010
0000
,
0001
0000
0000
0000
,
0100
0000
0000
0000
,
0001
0000
0000
0000
,
0001
0000
0100
0000
,
0010
0000
0010
0000
,
1000
0000
0000
0000
,
0001
0000
0000
0000
,
0100
0000
0010
0000
,
0010
0000
0000
0000
,
0001
0000
0000
0000
,
1000
0000
0000
0000
,
0010
0000
0100
0000
,
0100
0000
0000
0000
,
0001
0000
0000
0000
,
1000
0000
0000
0000
,
0010
0000
0100
0000
,
0100
0000
0000
0000
,
1000
0000
0000
0000
,
0001
0000
0000
0000
,
0100
0000
0010
0000
,
0010
0000
0000
0000
,
0100
0000
0010
0000
,
1000
0000
0000
0000
,
0100
0000
0010
0000
,
0001
0000
0000
0000
,
1000
0000
0010
0000
,
0001
0000
0000
0000
,
0001
0000
0010
0000
,
1000
0000
1000
0000
,
0001
0000
1000
0000
,
0010
0000
0000
0000
,
1000
0000
0001
0000
,
0100
0000
0000
0000
,
0010
0000
0100
0000
,
0001
0000
0000
0000
,
0100
0000
0010
0000
,
1000
0000
0000
0000
,
0001
0000
0000
0000
,
1000
0000
0000
0000
,
0010
0000
0100
0000
,
0100
0000
0000
0000
,
1000
0000
0000
0000
,
0001
0000
0000
0000
,
0100
0000
0000
0000
,
0010
0000
0000
0000
,
1000
0000
0000
0000
;

//---------------dance-single - ----------------
#NOTES:
     dance-single:
     :
     Easy:
     3:
     :
0000
0000
0000
0000
,
0000
0000
0000
0000
,
0000
0000
0000
0000
,
0000
0000
0000
0000
,
0000
0000
0000
0000
,
0002
0000
0000
0003
,
2000
0000
0000
3000
,
1001
0000
0110
0000
,
0010
0100
0001
1000
,
0010
0000
0100
0000
,
0001
0000
0000
0000
,
0010
0000
0001
0000
,
1000
0000
0010
0010
,
0010
0000
0100
0000
,
0001
1000
0010
0000
,
1000
0000
0001
0000
,
0110
0000
1001
0000
,
0100
0000
0010
0000
,
1000
0010
0010
0000
,
0100
0000
0001
0000
,
0010
0000
0001
0000
,
0010
0100
0001
0000
,
1000
0100
0100
0000
,
0010
0000
0001
0000
,
0200
0000
0000
0300
,
0010
0000
1000
0000
,
0010
0001
0010
0000
,
0100
0000
0010
0000
,
1000
0000
0010
0000
,
1000
0100
1000
0000
,
0001
0010
0001
0000
,
0100
0001
0100
0000
,
0010
0010
0010
0000
,
1000
0000
0001
0000
,
0100
0000
0010
0000
,
0100
0000
0001
0000
,
1000
0010
1000
0000
,
0100
0000
0010
0000
,
0001
0000
1000
0000
,
0100
0010
0100
0000
,
1000
1000
1000
0000
,
0001
0000
1000
0000
,
0010
0000
0100
0000
,
0010
0000
1000
0000
,
0001
0100
0001
0000
,
0010
0000
0100
0000
,
1000
0000
0001
0000
,
0010
0100
0010
0000
,
0001
0001
0001
0000
,
0100
0000
0010
0000
,
1000
0000
0000
0000
,
0100
0000
1000
0000
,
0001
0000
0100
0100
,
0100
0000
0010
0000
,
1000
0001
0100
0000
,
0001
0000
1000
0000
,
0110
0000
1001
0000
,
0001
0000
0010
0000
,
0200
0000
0000
0300
,
1000
0000
0001
0000
,
0020
0000
0000
0030
,
0001
0000
1000
0000
,
0200
0000
0000
0300
,
0010
0000
0001
0000
,
2000
0000
0000
3000
,
0001
0000
1000
0000
,
0010
0000
0100
0000
,
0010
0000
1000
0000
,
0001
0100
0001
0000
,
0020
0000
0000
0030
,
2000
0000
0000
3000
,
0010
0000
0100
0000
,
0001
1000
0001
0000
,
0110
0000
0000
0000
;

//---------------dance-single - ----------------
#NOTES:
     dance-single:
     :
     Medium:
     6:
     :
0000
0000
0000
0000
,
0000
0000
0000
0000
,
0000
0000
0000
0000
,
0000
0000
0000
0000
,
0000
0000
0000
0000
,
0101
0010
1000
0100
,
1100
0001
1000
0010
,
0202
0000
0000
0303
2020
0000
0000
3030
,
1100
0110
1001
0011
,
0001
0000
1000
0000
0010
0100
0001
0000
,
0010
0000
0100
0000
1000
0010
0100
0000
,
0001
0000
1000
0000
0001
0100
1000
0000
,
0100
0000
0001
0000
1000
0010
0001
0010
,
1000
0000
0001
0000
0100
0010
1000
0000
,
0100
0000
0010
0000
0001
0100
0010
0000
,
1000
0000
0001
0000
1000
0010
0001
0000
,
0010
0000
1000
0000
0001
0100
1000
0100
,
0001
0000
0010
0100
0000
1000
0000
0010
,
0000
0100
0000
0001
0000
0010
0100
1000
,
0010
1000
0001
0000
0100
0001
1000
0000
,
0010
1010
0110
0101
,
1000
0000
0100
0010
0000
0001
0000
0100
,
0000
0010
0000
1000
0000
0100
0010
0001
,
0100
0001
1000
0000
0010
1000
0001
0000
,
2020
0000
0000
3030
,
0100
0000
1000
0000
0001
0010
0001
0000
,
1000
0000
0010
0000
0100
0001
0100
0000
,
0010
1000
0010
0000
0100
0010
0100
0000
,
0101
0000
0011
0000
0100
1000
0010
0000
,
0010
0000
0001
0000
1000
0100
1000
0000
,
0001
0000
0100
0000
0010
1000
0010
0000
,
0100
0001
0100
0000
0010
0100
0010
0000
,
1010
0000
1100
0000
0010
0001
0001
0000
,
0100
0000
0010
0000
1000
0001
1000
0000
,
0100
0000
0010
0000
0001
0010
0001
0000
,
0010
0000
0100
0000
0001
1000
0001
0000
,
0010
0000
0100
1000
0100
1000
0010
0000
,
0100
0000
0001
0000
0010
0001
0010
0000
,
0100
0000
1000
0000
0001
0100
0001
0000
,
0010
0000
0100
0000
1000
0010
1000
0000
,
0001
0100
0001
0100
0001
0000
1001
0000
,
0010
0000
0100
0000
0001
1000
0001
0000
,
0010
0000
0100
0000
1000
0100
1000
0000
,
0100
0000
0010
0000
1000
0001
1000
0000
,
0100
0000
0010
0001
0010
0001
0100
0000
,
0010
0000
1000
0000
0100
1000
0100
0000
,
0010
0000
0001
0000
1000
0010
1000
0000
,
0100
0000
0010
0000
0001
0100
0001
0000
,
1010
0101
0011
1100
,
1000
0000
0001
0000
0100
0010
1000
0000
,
0100
0000
0010
0000
0001
0100
0010
0000
,
1000
0000
0001
0000
1000
0010
0001
0000
,
0010
0000
1000
0000
0001
0100
1000
0100
,
0001
0000
1000
0000
0010
0100
0001
0000
,
0010
0000
0100
0000
1000
0010
0100
0000
,
0001
0000
1000
0000
0001
0100
1000
0000
,
0100
0000
0001
0000
1000
0010
0001
0010
,
0200
0001
1000
0010
,
0320
0001
0100
1000
,
2030
0100
0010
0001
,
3001
0000
0010
0000
0100
1000
0100
0010
,
0001
0011
0100
0110
,
1000
0000
1010
0000
0010
0100
0010
0000
,
0100
0101
0010
0011
,
0100
0000
1100
0000
0010
1000
0010
1000
,
0010
0000
0100
0000
0001
1000
0001
0000
,
0010
0000
0100
0000
1000
0100
1000
0000
,
0100
0000
0010
0000
1000
0001
1000
0000
,
0100
0000
0010
0001
0010
0001
0100
0000
,
0010
1100
0010
0101
,
0010
1001
0100
1001
,
0100
0010
0001
1000
,
0001
0010
0100
1000
0010
0000
0100
0000
,
1100
0000
0000
0000
;

//---------------dance-single - ----------------
#NOTES:
     dance-single:
     :
     Hard:
     8:
     :
0000
0000
0000
0000
,
0000
0000
0000
0000
,
0000
0000
0000
0000
,
0000
0000
0000
0000
,
0000
0000
0000
0000
,
0011
0000
0100
0000
0010
0000
1000
0010
,
1010
0000
1000
0000
0100
0000
0100
0010
,
0220
0330
2200
3300
,
1001
0000
1010
0000
0101
0100
0010
1000
,
0001
0010
0100
0000
1000
0010
0100
0101
,
0000
1010
0000
0010
1000
0001
0100
0001
,
0010
0000
0011
0000
1100
0100
1000
0010
,
0000
1000
0100
0010
0001
0010
0100
1000
,
1000
0100
0010
0000
0001
0100
0010
1010
,
0000
0101
0000
0100
0001
1000
0010
1000
,
0100
0000
1100
0000
0011
0010
0001
0100
,
0000
0001
0010
0100
1000
0100
0010
0001
,
0001
0100
1000
0000
1000
0100
0001
0000
,
0010
0100
1000
0000
1000
0100
0010
0000
,
0001
1000
0010
0100
0001
0000
0101
0000
,
1000
0001
0011
0000
1010
0000
1001
0000
,
0010
0100
0001
0000
1000
0010
0100
0000
,
0010
1000
0010
0000
0100
0001
0100
0000
,
0001
1000
0100
0010
0001
0000
1100
0000
,
2002
0000
0000
3003
,
0001
1000
0010
0100
0001
0010
1000
0000
,
0010
0001
0100
0010
1000
0010
0001
0000
,
0010
1000
0100
0000
0010
0001
0100
0000
,
0010
1000
1100
0000
0011
0000
0110
0000
,
0100
0010
0001
0100
0010
1000
0010
0000
,
0100
0010
1000
0001
0010
0100
1000
0000
,
0010
0100
0001
1000
0010
0100
0001
1000
,
0001
1000
0001
0000
0100
0000
0010
0000
1000
0000
0000
0000
0011
0000
0000
0000
,
0110
0000
1001
0000
0100
1000
0010
0000
,
1001
0000
0110
0000
0100
0001
0010
0000
,
0011
0000
1100
0000
0100
1000
0010
0000
,
1010
0000
0101
0000
0100
0001
0010
0100
,
1100
0000
0011
0000
0001
1000
0010
0000
,
0110
0000
1001
0000
0100
0010
1000
0000
,
0010
1000
0100
0001
0100
1000
0010
0000
,
1001
0000
0000
0000
0011
0000
0000
0000
1100
0000
0000
0010
1000
0000
1000
0000
,
0001
0010
1000
0010
0001
0100
1000
0100
,
0001
0010
0100
0000
1010
0000
0100
0100
,
0010
1000
0001
0100
0001
0010
0100
1000
,
0010
1000
0100
0000
0110
0000
0010
0010
,
0001
1000
0010
0100
0001
0010
0100
1000
,
0010
0100
0001
0000
0101
0000
0010
0010
,
0100
1000
0001
0000
0100
0010
1000
0000
,
0011
0110
1100
1001
,
1000
0100
0010
0000
0001
0100
0010
1000
,
0000
1010
0000
0101
0000
0100
0010
1000
,
0100
0000
1100
0000
0011
0010
0001
0100
,
0000
0001
0010
0100
1000
0100
0010
0001
,
0001
0010
0100
0000
1000
0010
0100
0001
,
0000
0101
0000
1010
0000
0010
0100
0001
,
0010
0000
0011
0000
1100
0100
1000
0010
,
0011
1100
0110
1001
,
0210
0301
1002
0103
,
0001
0100
1000
0100
0001
0010
1000
0000
,
0012
0103
2010
3100
,
0010
0001
1000
0100
0010
0100
1000
0000
,
0120
1030
2001
3010
,
1000
0010
0001
0010
1000
0100
0001
0000
,
2100
3010
0102
0013
,
0100
1000
0100
0000
0010
0000
0001
0000
0100
0000
0010
0000
1000
0001
1000
0000
,
0110
0000
1001
0000
0010
0001
0100
0000
,
1001
0000
0110
0000
0010
1000
0100
0000
,
1100
0000
0011
0000
0010
0001
0100
0000
,
0101
0000
1010
0000
0010
1000
0100
0010
,
0001
0101
1000
1010
,
0100
1100
0010
0011
,
0000
0001
0000
0100
0000
0010
0000
1000
,
0000
0100
0000
0010
0000
0001
0000
1000
,
2200
0000
0000
0000
,
0000
0000
3300
0000
;

//---------------dance-double - ----------------
#NOTES:
     dance-double:
     :
     Beginner:
     1:
     :
00000000
00000000
00000000
00000000
,
00000000
00000000
00000000
00000000
,
00000000
00000000
00000000
00000000
,
00000000
00000000
00000000
00000000
,
00000000
00000000
00000000
00000000
,
00000001
00000000
00000000
00000000
,
00000100
00000000
00000000
00000000
,
00001000
00000000
00010000
00000000
,
01000000
00000000
00000000
00000000
,
10000000
00000000
00000000
00000000
,
00100000
00000000
00000000
00000000
,
01000000
00000000
00000000
00000000
,
00001000
00000000
00010000
00000000
,
00001000
00000000
00000000
00000000
,
00000010
00000000
00000000
00000000
,
00000001
00000000
00000000
00000000
,
00000100
00000000
00000010
00000000
,
00010000
00000000
00000000
00000000
,
00001000
00000000
00000000
00000000
,
01000000
00000000
00000000
00000000
,
00100000
00000000
00000000
00000000
,
10000000
00000000
00000000
00000000
,
00100000
00000000
00000000
00000000
,
10000000
00000000
01000000
00000000
,
00010000
00000000
00000000
00000000
,
00001000
00000000
00000000
00000000
,
00000100
00000000
00000000
00000000
,
00000001
00000000
00000010
00000000
,
00000100
00000000
00000000
00000000
,
00001000
00000000
00000000
00000000
,
00000001
00000000
00000000
00000000
,
00000100
00000000
00001000
00000000
,
00010000
00000000
00000000
00000000
,
01000000
00000000
10000000
00000000
,
00100000
00000000
00000000
00000000
,
01000000
00000000
00000000
00000000
,
00001000
00000000
00000000
00000000
,
00010000
00000000
00001000
00000000
,
00000010
00000000
00000000
00000000
,
00000001
00000000
00000000
00000000
,
00000100
00000000
00000000
00000000
,
00000100
00000000
00000001
00000000
,
00000010
00000000
00000000
00000000
,
00000100
00000000
00000000
00000000
,
00010000
00000000
00000000
00000000
,
00001000
00000000
00010000
00000000
,
00100000
00000000
00000000
00000000
,
10000000
00000000
00000000
00000000
,
01000000
00000000
00000000
00000000
,
10000000
00000000
00000000
00000000
,
01000000
00000000
00000000
00000000
,
00010000
00000000
00000000
00000000
,
00001000
00000000
00000010
00000000
,
00000010
00000000
00000000
00000000
,
00000001
00000000
00000000
00000000
,
00000100
00000000
00000000
00000000
,
00001000
00000000
00000000
00000000
,
00010000
00000000
00100000
00000000
,
10000000
00000000
00000000
00000000
,
01000000
00000000
00000000
00000000
,
10000000
00000000
00000000
00000000
,
01000000
00000000
00000000
00000000
,
00010000
00000000
00001000
00000000
,
00001000
00000000
00000000
00000000
,
00000010
00000000
00000000
00000000
,
00000100
00000000
00001000
00000000
,
00000001
00000000
00000000
00000000
,
00000100
00000000
00001000
00000000
,
00010000
00000000
00000000
00000000
,
01000000
00000000
00000000
00000000
,
10000000
00000000
00000000
00000000
,
00100000
00000000
00000000
00000000
,
01000000
00000000
00000000
00000000
,
00001000
00000000
00000000
00000000
;

//---------------dance-double - ----------------
#NOTES:
     dance-double:
     :
     Easy:
     4:
     :
00000000
00000000
00000000
00000000
,
00000000
00000000
00000000
00000000
,
00000000
00000000
00000000
00000000
,
00000000
00000000
00000000
00000000
,
00000000
00000000
00000000
00000000
,
00000020
00000000
00000000
00000030
,
00000200
00000000
00000000
00000300
,
00002000
00000000
00000000
00003000
00020000
00000000
00000000
00030000
,
01000000
10000000
00100000
01000000
,
00010000
10000000
10000000
00000000
,
01000000
00000000
00010000
00000000
,
00001000
00000100
00000010
00000000
,
00001000
00000100
00000001
00000000
,
00000100
00000100
00001000
00000000
,
00000010
00000100
00001000
00000000
,
00010000
00000000
00100000
00000000
,
10000000
10000000
01000000
00000000
,
00001000
00000000
00010000
00000000
,
00000010
00000100
00000001
00000000
,
00000100
00000000
00001000
00000000
,
00010000
01000000
10000000
10000000
,
00100000
00000000
10000000
00000000
,
01000000
00000000
00010000
00000000
,
00001000
00001000
00000010
00000000
,
00000002
00000000
00000000
00000003
,
00000100
00001000
00010000
00000000
,
00100000
10000000
01000000
00000000
,
00010000
00001000
00000100
00000000
,
00000001
00000000
00000110
00000000
,
00001000
00000010
00000100
00000000
,
00001000
00010000
01000000
00000000
,
10000000
00100000
01000000
00000000
,
00010000
00010000
00010000
00000000
,
10000000
00000000
10010000
00000000
,
00100000
10000000
01000000
00000000
,
00010000
00000000
00011000
00000000
,
00000100
00000001
00000010
00000000
,
00000100
00000000
00001000
00000000
,
00000010
00000010
00000010
00000000
,
00000100
00000000
00000001
00000000
,
00001000
00000001
00001001
00000000
,
00000010
00000000
00000100
00000000
,
00001000
00010000
00100000
00000000
,
10000000
00000000
01000000
00000000
,
00100000
00010000
10000000
00000000
,
01000000
00000000
00010000
00000000
,
00001000
00000100
00000010
00000000
,
00000100
00000000
00000001
00000000
,
00000010
00000100
00000110
00000000
,
00001000
00000001
00000001
00000000
,
00000010
00000000
00001000
00000000
,
00010000
00100000
01000000
00000000
,
00010000
00100000
10000000
00000000
,
00100000
00100000
00010000
00000000
,
01000000
00100000
00010000
00000000
,
00001000
00000000
00000100
00000000
,
00000001
00000001
00000010
00000000
,
00000001
00000100
00001000
00000000
,
00000100
00000000
00000010
00000000
,
00010000
00001000
00100000
00000000
,
02000000
00000000
00000000
03000000
,
10000000
00100000
00010000
00000000
,
00100000
00000000
10000000
00000000
,
01000000
00000000
00100000
00000000
,
00001000
00010000
00000010
00000000
,
00000001
00000000
00001001
00000000
,
00000100
00000001
00000010
00000000
,
00001000
00000000
00011000
00000000
,
00100000
10000000
01000000
00000000
,
00100000
00010000
00010000
00000000
,
10000000
10000000
01000000
00000000
,
00010000
00000000
00001000
00000000
,
00100000
00000000
00001000
00000000
,
00011000
00000000
00000000
00000000
;

//---------------dance-double - ----------------
#NOTES:
     dance-double:
     :
     Medium:
     6:
     :
00000000
00000000
00000000
00000000
,
00000000
00000000
00000000
00000000
,
00000000
00000000
00000000
00000000
,
00000000
00000000
00000000
00000000
,
00000000
00000000
00000000
00000000
,
00000100
00000000
00000010
00000000
00000001
00000000
00000100
00001000
,
00010000
00000000
01000000
00000000
10000000
00000000
00100000
00010000
,
00022000
00000000
00000000
00033000
00002020
00000000
00000000
00003030
,
00000002
00000203
00002300
00023000
,
01030000
10000000
00100000
00000000
00100000
01000000
00010000
00100000
,
00001000
00000000
00010000
00000000
00001000
00000000
00000010
00000001
,
00001000
00000000
00001000
00000000
00000001
00000100
00001000
00000000
,
00010000
00000000
00100000
00000000
10000000
01000000
00010000
00000000
,
00001000
00000000
00100000
00000000
01000000
10000000
00100000
00000000
,
01000000
00000000
00010000
00000000
00100000
00000000
01000000
00010000
,
00001000
00000000
00000100
00000000
00000001
00000010
00000100
00000000
,
00001010
00000000
00011000
00000000
01010000
00000000
01000000
00010000
,
00100000
00000000
11000000
00000000
00100000
10000000
01000000
00000000
,
00100000
00000000
01100000
00000000
01000000
00010000
00001000
00000000
,
00010000
00001000
00000100
00000000
00000100
00000001
00000010
00000000
,
00000100
00000110
00001010
00011000
,
00100000
00000000
01000000
00000000
00010000
00100000
10000000
00000000
,
10000000
00000000
00100000
00000000
00010000
01000000
10000000
00000000
,
01000000
00000000
00100000
00000000
10000000
01000000
00010000
00000000
,
00022000
00000000
00000000
00033000
,
00010000
00000000
00100000
00000000
10000000
01000000
00100000
00010000
,
10000000
00000000
01000000
00000000
00010000
00001000
00000010
00000001
,
00000100
00000000
00000010
00000000
00000100
00000001
00000010
00000100
,
00001000
00000011
00000101
00001001
,
00000001
00000000
00000010
00000000
00001000
00010000
00100000
10000000
,
01000000
00000000
00100000
00000000
00010000
10000000
01000000
00010000
,
00001000
00000000
00010000
00000000
00000010
00001000
00000100
00001000
,
00000001
00001100
00001010
00001001
,
00000001
00000000
00000010
00000000
00000100
00001000
00000010
00000100
,
00000001
00000000
00000100
00000000
00001000
00010000
00001000
00010000
,
01000000
00000000
10000000
00000000
00010000
00100000
00010000
00100000
,
01000000
11000000
00100000
00110000
,
00001000
00000000
00010000
00000000
00001000
00000010
00001000
00000010
,
00000001
00000000
00001000
00000000
00000010
00000100
00000010
00000100
,
00000001
00000100
00001000
00000000
00000100
00001000
00010000
00000000
,
00001000
00010000
00100000
10000000
01000000
00000000
10010000
00000000
,
10000000
00000000
01000000
00000000
00100000
00010000
01000000
00100000
,
10000000
00000000
00100000
00000000
00010000
00001000
00010000
00001000
,
00000010
00000000
00000001
00000000
00001000
00000100
00001000
00000100
,
00000010
00000011
00000100
00001100
,
00010000
00000000
00001000
00000000
00010000
01000000
00010000
01000000
,
10000000
00000000
00010000
00000000
01000000
00100000
01000000
00100000
,
10000000
00100000
00010000
00000000
00100000
00010000
00001000
00000000
,
00010000
00001000
00000100
00000001
00000010
00000000
00001001
00000000
,
00000010
00000001
00000100
00000000
00000100
00000010
00001000
00000100
,
00010000
00000000
00001000
00000000
00010000
00000000
01000000
10000000
,
00010000
00000000
00010000
00000000
10000000
00100000
00010000
00000000
,
00001000
00000000
00000100
00000000
00000001
00000010
00001000
00000000
,
00010000
00000000
00000100
00000000
00000010
00000001
00000100
00000000
,
00000010
00000000
00001000
00000000
00000100
00000000
00000010
00001000
,
00010000
00000000
00100000
00000000
10000000
01000000
00100000
00000000
,
01010000
00000000
00011000
00000000
00001010
00000000
00000010
00001000
,
00000002
00000000
00000103
00000000
00000010
00000010
00001000
00000000
,
00000200
00000000
00010300
00000000
00001000
00001000
01000000
00000000
,
00010000
00000000
01000000
00000000
10000000
10000000
01000000
00010000
,
00100000
00000000
00100000
00000000
01000000
00010000
00001000
00000000
,
00000010
00000000
00000101
00000000
00000001
00000100
00001000
00000000
,
00000010
00000000
00001100
00000000
00001000
00000100
00000010
00000000
,
00000001
00000100
00001000
00000000
00000100
00001000
00010000
00000000
,
00100000
01000000
00010000
10000000
01000000
00000000
00110000
00000000
,
10000000
00000000
01000000
00000000
00100000
00010000
01000000
00100000
,
10000000
00000000
00100000
00000000
00010000
00001000
00010000
00001000
,
00000010
00000000
00000001
00000000
00001000
00000100
00001000
00000100
,
00000020
00000032
00000203
00002300
,
00013000
00110000
01000000
11000000
,
00100000
01100000
00010000
00011000
,
00000010
00000100
00000001
00000010
,
00000001
00000100
00001000
00010000
,
00022000
00000000
00000000
00000000
,
00033000
00000000
00000000
00000000
;

//---------------dance-double - ----------------
#NOTES:
     dance-double:
     :
     Hard:
     8:
     :
00000000
00000000
00000000
00000000
,
00000000
00000000
00000000
00000000
,
00000000
00000000
00000000
00000000
,
00000000
00000000
00000000
00000000
,
00000000
00000000
00000000
00000000
,
00000011
00000000
00000100
00000000
00001000
00000000
00000010
00000100
,
00000110
00000000
00000100
00000000
00001000
00000000
00010000
00001000
,
00202000
00303000
02020000
03030000
,
00010000
00000000
00000000
00000000
01000000
00000000
00000000
00000000
10000000
00000000
00000000
01000000
00010000
00000000
00100000
00000000
,
10000000
00100000
00010000
00100000
01000000
00010000
00001000
00010000
,
01000000
10000000
00100000
01000000
00010000
00100000
01000000
00000000
,
10000000
01000000
00010000
01000000
10000000
00100000
00010000
00001000
,
00010000
00011000
00001100
00000110
,
00000001
00000010
00000100
00001000
00000010
00000100
00001000
00000100
,
00000001
00000010
00001000
00010000
00001000
00000010
00000001
00000000
,
00000010
00000100
00001000
00000001
00000100
00001000
00000100
00001000
,
00010000
00011000
01010000
11000000
,
00100000
10000000
01000000
00000000
01000000
00100000
00010000
00000000
,
10000000
01000000
00010000
00000000
00010000
01000000
10000000
00000000
,
00100000
10000000
01000000
00010000
00001000
00010000
00000010
00000000
,
00001000
00001100
00000110
00001001
,
00000001
00000100
00000010
00000000
00001000
00000100
00000001
00000000
,
00000100
00001000
00000010
00000000
00000100
00001000
00010000
00000000
,
00001000
00010000
00100000
00000000
10000000
01000000
00100000
00000000
,
22000000
00000000
00000000
33000000
,
01000000
10000000
01000000
00100000
00001000
00010000
00001000
00000000
,
00010000
00001000
00100000
01000000
10000000
00010000
00100000
00000000
,
01000000
00010000
00001000
00000000
00010000
00001000
00000010
00000000
,
00000001
00000010
00000100
00001000
00000001
00000000
00000110
00000000
,
00000100
00000001
00000100
00001000
00000100
00000001
00000100
00000000
,
00001000
00010000
00001000
00010000
00100000
10000000
01000000
00000000
,
00100000
00010000
10000000
00000000
01000000
10000000
00010000
00000000
,
01100000
00000000
00101000
00000000
00010100
00000000
00000100
00001000
,
00000010
00000100
00000001
00000010
00000100
00001000
00000100
00000001
,
00000100
00000000
00001100
00000000
00011000
00000000
00010000
00100000
,
10000000
01000000
00100000
00010000
10000000
00100000
01000000
00000000
,
00010000
00110000
00011000
00001010
,
00000001
00000010
00000100
00001000
00000010
00000100
00000001
00000100
,
00001000
00000000
00011000
00000000
00101000
00000000
00100000
01000000
,
10000000
00100000
00010000
00100000
10000000
01000000
00100000
00000000
,
00110000
00000000
00000000
00000000
00011000
00000000
00000000
00000000
00001010
00000000
00000000
00000100
00000010
00000000
00000100
00000000
,
00000001
00000100
00001000
00000100
00000001
00000010
00000100
00001000
,
00000010
00000000
00001100
00000000
00011000
00000000
00010000
01000000
,
10000000
00100000
10000000
01000000
00100000
00010000
10000000
00000000
,
01000000
00000000
00110000
00000000
00011000
00000000
00001000
00000010
,
00000001
00000100
00001000
00000100
00000001
00000100
00000001
00000010
,
00001000
00000000
00011000
00000000
00101000
00000000
01000000
10000000
,
00100000
00010000
00100000
10000000
01000000
00010000
01000000
00000000
,
00110000
00000000
00011000
00000000
00001010
00000000
00001000
00000100
,
00000001
00000100
00001000
00000100
00000010
00001000
00010000
00100000
,
10000000
01000000
00010000
01000000
10000000
01000000
00010000
00000000
,
01000000
10000000
00100000
00010000
00100000
01000000
00100000
00010000
,
00001000
00011000
00001100
00000110
,
00001000
00000100
00000010
00000001
00000100
00000010
00000001
00000010
,
00001000
00000100
00010000
00001000
00010000
01000000
10000000
00000000
,
01000000
00100000
00010000
10000000
00100000
00010000
00100000
00010000
,
00002000
00023000
00030020
00000032
,
00000013
00000000
00000101
00000000
00000001
00000100
00001000
00000000
,
00010000
00000000
00011000
00000000
00010000
01000000
10000000
00000000
,
00100000
00000000
11000000
00000000
10000000
01000000
00010000
00000000
,
01000000
00000000
11000000
00000000
10000000
00100000
00010000
00000000
,
00001000
00000000
00011000
00000000
00010000
00001000
00000010
00000000
,
00000100
00000000
00000011
00000000
00000001
00000100
00001000
00000000
,
00001000
00010000
01000000
00000000
01000000
10000000
00100000
00000000
,
10000000
01000000
00100000
00001000
00010000
00000010
00002000
00000000
,
00003001
00000100
00001000
00000100
00000001
00000010
00001000
00000000
,
00010000
00100000
10000000
01000000
00010000
01000000
10000000
00000000
,
01000000
00010000
00001000
00000000
00100000
01000000
10000000
00000000
,
00100000
00010000
00001000
00010000
00001000
00000100
00000001
00000000
,
00000000
00000010
00000100
00001000
00000000
00000100
00000001
00000100
,
00000000
00001000
00000010
00000100
00000000
00001000
00010000
00100000
,
00000000
01000000
00000000
00010000
00000000
10000000
00000000
01000000
,
00000000
00100000
00000000
00001000
00000000
00010000
00000000
00000010
,
00002020
00000000
00000000
00000000
,
00003030
00000000
00000000
00000000
;
