#TITLE:Higher Ground;
#ARTIST:Togo Project feat. ChiyoTia;
#BANNER:Higher Ground.png;
#BACKGROUND:Higher Ground-bg.png;
#CDTITLE:./CDTITLES/DanceDanceRevolution UNIVERSE2.png;
#MUSIC:Higher Ground.ogg;
#SAMPLESTART:37.612;
#SAMPLELENGTH:15;
#BPMS:0=134;

//---------------dance-single - ----------------
#NOTES:
     dance-single:
     :
     Beginner:
     1:
     :
0000
0000
0000
0000
,
0000
0000
0000
0000
,
0000
0000
0000
0000
,
1000
0000
0000
0000
,
1000
0000
0000
0000
,
0010
0000
0000
0000
,
0100
0000
0000
0000
,
0010
0000
0000
0000
,
0100
0000
0000
0000
,
0110
0000
0000
0000
,
0010
0000
0000
0000
,
1000
0000
0000
0000
,
0001
0000
0000
0000
,
0100
0100
0000
0000
,
0100
0100
0000
0000
,
0001
0001
0000
0000
,
1000
1000
0000
0000
,
0010
0010
0000
0000
,
0010
0010
0000
0000
,
1000
1000
0000
0000
,
0001
0001
0000
0000
,
0010
0000
0010
0000
,
0010
0000
0000
0000
,
0100
0000
0100
0000
,
0100
0000
0000
0000
,
0001
0000
0001
0000
,
0001
0000
0000
0000
,
1000
0000
1000
0000
,
1000
0000
0000
0000
,
1001
0000
0000
0000
,
0001
0000
0000
0000
,
1001
0000
0000
0000
,
1000
0000
0000
0000
,
0110
0000
0000
0000
,
0010
0000
0000
0000
,
0110
0000
0000
0000
,
0100
0000
0000
0000
,
0010
0000
0000
0000
,
1000
0000
0000
0000
,
0001
0000
0000
0000
,
0100
0000
0000
0000
,
0001
0000
0001
0000
,
1000
0000
1000
0000
,
0110
0000
0010
0000
,
0010
0000
0000
0000
,
0110
0000
0100
0000
,
0100
0000
0000
0000
,
1001
0000
0001
0000
,
0001
0000
0000
0000
,
1001
0000
1000
0000
,
1000
0000
0000
0000
;

//---------------dance-single - ----------------
#NOTES:
     dance-single:
     :
     Easy:
     3:
     :
0000
0000
0000
0000
,
0000
0000
0000
0000
,
0000
0000
0000
0000
,
0010
0000
1000
0000
,
0001
0000
0100
0000
,
0001
0000
0010
0000
,
0100
0000
1000
1001
,
0010
0000
0100
0000
,
0001
0000
1000
0000
,
1001
1000
0000
0100
,
0010
0001
0000
1000
,
0010
0100
0000
0001
,
0100
0010
0000
0110
,
1000
0100
0001
0100
,
0010
0100
0000
0110
,
0010
1000
0100
0010
,
0001
0100
0000
1001
,
1000
0100
0001
1000
,
0010
0001
0000
1001
,
0100
0010
1000
0100
,
0010
1000
0000
0000
,
0010
1000
0100
0001
,
0010
1000
0001
0100
,
0010
0100
0000
0100
,
0001
1000
0000
1001
,
0001
1000
0010
0001
,
0100
1000
0001
0110
,
1000
0001
0000
0001
,
0100
0010
0001
1001
,
0010
0000
0100
0000
,
0001
0010
1000
0100
,
0002
1000
1000
1003
,
2000
0001
0001
3001
,
0010
0000
0001
0000
,
1000
0100
0001
1000
,
0200
0010
0010
0310
,
0020
0100
0200
0330
,
0001
0100
0000
1001
,
1000
0100
0000
0110
,
0001
0010
0000
1001
,
1000
0010
0000
0110
,
0001
0010
1000
0010
,
0001
0100
1000
0100
,
0001
0100
0001
0100
,
0001
0010
0001
0010
,
1000
0010
1000
0010
,
0002
2000
0000
3003
,
0010
0100
0010
0100
,
0001
0010
0100
1000
,
0001
0100
1000
0001
,
0010
1000
0001
0110
;

//---------------dance-single - ----------------
#NOTES:
     dance-single:
     :
     Medium:
     6:
     :
0000
0000
0000
0000
,
0000
0000
0000
0000
,
0000
0000
0000
0000
,
0001
0001
0000
0100
0000
0010
0000
1000
,
0100
0100
0000
0010
0000
0001
0000
1000
,
1001
0000
0000
0100
0000
0010
0000
0000
,
1000
0000
0000
0001
0000
0000
0110
0000
,
1001
0000
0000
0010
0000
0100
0000
0000
,
1000
0000
0000
0010
0000
0000
0100
0000
0000
0000
0001
0000
0000
0000
0011
0000
,
0010
0000
0001
1000
0000
1000
0100
0000
,
0001
0000
0100
0010
0000
0010
0001
0000
,
0100
0000
0001
0010
0000
0010
0100
0000
,
1000
0000
0001
0100
0000
0100
1000
0000
,
0100
0100
0010
1000
0000
0001
0100
0000
,
0010
0010
1000
0100
0000
0001
0100
0000
,
1000
1000
0010
0001
0000
0010
0100
0000
,
0001
0001
1000
0010
0000
0100
0001
0000
,
0010
0100
1000
1000
0000
0001
0001
0000
,
1000
0100
0010
0010
0000
1000
1000
0000
,
0010
0001
0100
0100
0000
0010
0010
0000
,
1000
0010
0100
0100
0000
0001
0000
0000
,
1000
0000
0100
0000
0001
0010
1000
0000
,
0100
1000
0010
0001
0000
0010
0100
0000
,
0001
0000
1000
0010
0000
0000
0100
0001
,
0010
0001
0100
0000
0001
0000
1001
0000
,
0010
0000
1000
0000
0100
0001
0010
0000
,
0001
0010
1000
0100
0000
0010
0001
0000
,
1000
0100
0001
0100
1000
0000
0010
0001
,
0000
0010
0001
0000
0010
0000
1010
0000
,
0002
0000
0203
0000
,
0320
2030
3200
0320
,
0032
0100
1000
0013
,
2000
0010
0001
3100
,
0020
0100
2030
0001
,
3200
0302
0203
2300
,
3020
0001
0100
1030
,
0200
0000
1000
0000
0310
0110
0000
0000
,
0001
0000
0000
0100
0000
0000
1000
0000
0000
0000
0100
0000
0010
0000
0000
0000
,
1000
0000
0000
0010
0000
0000
0001
0000
0000
0000
0010
0000
0100
0000
0000
0000
,
0001
0000
0000
0010
0000
0000
1000
0000
0000
0000
0010
0000
0100
0000
0000
0000
,
1000
0000
0000
0100
0000
0000
0001
0000
0000
0000
0100
0000
0010
0000
0000
0000
,
0001
0000
0000
1000
0000
0000
0100
0000
0000
0000
0010
0000
0001
0000
0000
0000
,
1000
0000
0000
0001
0000
0000
0010
0000
0000
0000
0100
0000
1000
0000
0000
0000
,
0001
0010
0001
0010
0000
1000
0100
0000
,
1000
0010
1000
0010
0000
0001
0100
0000
,
1000
0001
0100
0010
0000
0100
0010
0000
,
0100
0001
0020
2000
0000
0030
3000
0000
,
0010
0001
0100
0010
0000
0001
0010
0000
,
0100
0010
1000
0100
0000
0010
1000
0000
,
0010
0100
1000
0010
0000
1000
0001
0000
,
0100
0001
0010
0100
0000
1001
0000
0110
;

//---------------dance-single - ----------------
#NOTES:
     dance-single:
     :
     Hard:
     8:
     :
0000
0000
0000
0000
,
0000
0000
0000
0000
,
0000
0000
0000
0000
,
0001
0100
0001
0000
0000
0000
1000
0000
0000
0000
0010
0000
0000
0000
1000
0000
,
0100
0010
0100
0000
0000
0000
0001
0000
0000
0000
0100
0000
0000
0000
1000
0000
,
0001
0000
0000
0100
0000
0010
0000
0000
,
1000
0000
0000
0001
0000
0000
0110
0000
,
0001
0000
0000
0100
0000
0010
0000
0000
,
1000
0000
0000
0001
0000
0000
0100
0000
0000
0000
1010
0000
0000
0000
0101
0000
,
0010
1000
0001
0100
0000
0010
0001
0000
,
0010
0100
0010
1000
0000
0100
0011
0000
,
1000
0001
0100
0010
0000
1000
0100
0000
,
0010
0001
0100
1000
0000
0100
1001
0000
,
0001
0100
1000
0100
0010
0000
1000
0000
,
0100
0001
0100
0010
0000
0100
1000
0000
,
0100
1000
0001
0010
0001
1000
0100
0000
,
0010
0001
0100
0010
0000
1010
0000
1100
,
1000
0001
0100
0010
0100
0000
0001
0000
,
1000
0100
0001
0100
0000
0010
0100
0000
,
1000
0001
1000
0001
0010
0100
0010
0000
,
0001
0100
0010
0002
0000
2003
0000
0000
,
3100
0000
0001
0000
0010
0100
1000
0000
,
0001
0010
0100
0001
0000
0100
1100
0000
,
0100
0010
1000
0002
0000
0000
0103
1000
,
0010
0001
0010
0100
0000
0010
1010
0000
,
0001
0000
0010
0000
0100
1000
0010
0000
,
0001
0010
1000
0010
0000
0100
0110
0000
,
0001
0100
1000
0100
0010
0000
1000
0100
,
0000
0010
1000
0000
0001
0100
1100
0000
,
1000
0001
1000
0000
0010
0000
0100
0000
0000
0000
0001
0000
1000
0000
0000
0000
,
0001
0100
0001
0000
1000
0000
0010
0000
0000
0000
0100
0000
0010
0000
0000
0000
,
0100
1000
0100
0000
0001
0000
0010
0000
0000
0000
0100
0000
1000
0000
0000
0000
,
0010
0001
0010
0000
0100
0000
0001
0000
0000
0000
0010
0000
1001
0000
0000
0000
,
0020
0000
2030
0000
,
3200
0302
0023
2030
,
3002
0100
0010
1003
,
0010
0100
0001
1000
0000
0220
0000
0330
,
1001
1000
0100
0001
0100
0000
0010
0000
,
0001
0100
0000
2000
0000
0000
3100
0000
,
0010
0000
2000
0000
0000
3001
0000
0100
,
0010
1000
0000
0002
0000
0003
1100
0000
,
0001
0010
0100
1000
0001
0100
0010
1000
,
0001
0010
0000
1000
0000
0010
0001
0000
,
1000
0100
1000
0000
1000
0010
0000
0010
,
0001
0000
0001
0100
0000
0100
1000
0000
,
1000
0010
0000
0010
0001
0000
0001
0100
,
0000
0200
2000
0000
0000
0300
3000
0000
,
0010
1000
0001
0100
0001
1000
0010
0000
,
0001
0010
0100
0001
0010
0100
0001
0000
,
0100
1000
0010
0100
1000
0100
0010
0000
,
0100
0001
1000
0100
0000
0010
0000
1001
;

//---------------dance-double - ----------------
#NOTES:
     dance-double:
     :
     Beginner:
     1:
     :
00000000
00000000
00000000
00000000
,
00000000
00000000
00000000
00000000
,
00000000
00000000
00000000
00000000
,
00100000
00000000
00000000
00000000
,
00100000
00000000
00000000
00000000
,
00010000
00000000
00000000
00000000
,
00010000
00000000
00000000
00000000
,
00001000
00000000
00000000
00000000
,
00001000
00000000
00000000
00000000
,
00000010
00000010
00000000
00000000
,
00000100
00000100
00000000
00000000
,
00000001
00000001
00000000
00000000
,
00001000
00001000
00000000
00000000
,
00000100
00000000
00000100
00000000
,
00010000
00000000
00000000
00000000
,
00010000
00000000
00010000
00000000
,
00001000
00000000
00000000
00000000
,
00001000
00000000
00001000
00000000
,
01000000
00000000
00000000
00000000
,
01000000
00000000
01000000
00000000
,
00010000
00000000
00000000
00000000
,
00100000
00000000
00100000
00000000
,
01000000
01000000
00000000
00000000
,
10000000
00000000
10000000
00000000
,
00010000
00010000
00000000
00000000
,
00100000
00000000
00100000
00000000
,
00001000
00001000
00000000
00000000
,
00010000
00000000
00010000
00000000
,
00000010
00000010
00000000
00000000
,
00001000
00000000
00001000
00000000
,
00000001
00000000
00000001
00000000
,
00000020
00000000
00000030
00000000
,
00002000
00000000
00003000
00000000
,
00010000
00000000
00010000
00000000
,
00100000
00000000
00100000
00000000
,
02000000
00000000
03000000
00000000
,
20000000
00000000
30000000
00000000
,
00010000
00010000
00010000
00000000
,
00010000
00000000
00000000
00000000
,
01000000
01000000
01000000
00000000
,
01000000
00000000
00000000
00000000
,
00001000
00001000
00001000
00000000
,
00001000
00000000
00000000
00000000
,
00010000
00000000
00010000
00000000
,
00000010
00000000
00000010
00000000
,
00001000
00000000
00001000
00000000
,
00000001
00000000
00000000
00000000
,
00000100
00000000
00000100
00000000
,
00001000
00000000
00001000
00000000
,
00010000
00000000
00010000
00000000
,
01000000
00000000
01000000
00000000
;

//---------------dance-double - ----------------
#NOTES:
     dance-double:
     :
     Easy:
     3:
     :
00000000
00000000
00000000
00000000
,
00000000
00000000
00000000
00000000
,
00000000
00000000
00000000
00000000
,
10000000
00000000
01000000
00000000
,
00100000
00000000
00001000
00000000
,
00010000
00000000
00000100
00000000
,
00000010
00000000
00000001
00001001
,
00000010
00000000
00001000
00000000
,
00010000
00000000
01000000
00000000
,
00100000
01000000
00000000
00100000
,
00010000
10000000
00000000
01000000
,
00100000
00001000
00000000
00010000
,
00000010
00000100
00000000
00000001
,
00000010
00001000
00010000
00000100
,
00001000
00000001
00000000
00000100
,
00001000
00010000
00100000
10000000
,
00010000
01000000
00000000
01100000
,
00100000
10000000
00010000
01000000
,
00001000
00010000
00000000
00000100
,
00010000
00001000
00100000
00001000
,
00010000
00000020
00000000
00000030
,
00000110
00001001
00000100
00000010
,
00001000
00000001
00000100
00001000
,
00010000
00001000
00100000
00010000
,
10000000
01000000
00100000
10000000
,
10010000
01100000
10000000
00010000
,
01000000
00100000
00010000
00001000
,
00010000
00000010
00000100
00000001
,
00001000
00000010
00000001
00000110
,
00000100
00000000
00001000
00000000
,
00010000
00100000
10000000
01000000
,
00020000
00001000
00001000
00031000
,
00002000
00000100
00000100
00003100
,
00000001
00000000
00000010
00000000
,
00001000
00000100
00000001
00000010
,
00002000
00010000
00010000
00013000
,
00020000
00100000
00200000
00330000
,
10000000
01000000
00000000
01100000
,
00010000
00001000
00000000
00000110
,
00000010
00000001
00000000
00001001
,
00000100
00001000
00000000
00011000
,
00010000
01000000
00100000
01100000
,
01000000
10000000
00010000
01100000
,
10000000
01000000
00010000
01000000
,
00010000
00001000
00000100
00001000
,
00000100
00000001
00000010
00000001
,
00000020
00000000
00002000
00000000
00000000
00000030
00003000
00000000
,
00010000
00100000
10000000
00100000
,
00010000
00001000
00000010
00000001
,
00000010
00001000
00010000
00001000
,
00100000
00011000
00000010
00011000
;

//---------------dance-double - ----------------
#NOTES:
     dance-double:
     :
     Medium:
     6:
     :
00000000
00000000
00000000
00000000
,
00000000
00000000
00000000
00000000
,
00000000
00000000
00000000
00000000
,
10000000
10000000
00000000
01000000
00000000
00100000
00000000
00001000
,
00010000
00010000
00000000
00000100
00000000
00000010
00000000
00000001
,
00001000
00000000
00000000
00000010
00000000
00000100
00000000
00000000
,
00001000
00000000
00000000
00010000
00000000
00000000
00110000
00000000
,
01000000
00000000
00000000
00010000
00000000
00100000
00000000
00000000
,
00001000
00000000
00000000
00010000
00000000
00000000
00001000
00000000
00000000
00000000
00000100
00000000
00000000
00000000
00000001
00000000
,
00000101
00000000
00000001
00001000
00000000
00001000
00000010
00000000
,
00000100
00000000
00001000
00010000
00000000
00010000
00000100
00000000
,
00010000
00000000
00001000
01000000
00000000
01000000
00010000
00000000
,
00100000
00000000
01000000
10000000
00000000
10000000
00010000
00000000
,
00100000
00100000
00010000
00010000
00000000
10000000
00010000
00000000
,
01000000
01000000
00001000
00001000
00000000
00010000
00001000
00000000
,
00010000
00010000
00000010
00000010
00000000
00000100
00000010
00000000
,
00001000
00001000
00000100
00000100
00000000
00000010
00000100
00000000
,
00001000
00000100
00010000
00010000
00000000
00001000
00010000
00000000
,
00001000
00100000
00010000
00010000
00000000
10000000
01000000
00000000
,
00100000
01000000
00010000
00010000
00000000
00001000
00010000
00000000
,
00000010
00000100
00001000
00001000
00000000
00001000
00000000
00000000
,
00000100
00000000
00000010
00000000
00001000
00000001
00000010
00000000
,
00000100
00000100
00010000
00001000
00000000
00010000
00011000
00000000
,
00001000
00000000
01000000
00010000
00000000
00000000
10000000
00100000
,
10000000
01000000
10000000
00000000
00010000
00000000
01010000
00000000
,
00100000
00000000
01000000
00000000
10000000
00010000
01000000
00000000
,
00001000
00010000
00000010
00000010
00000000
00001000
00001100
00000000
,
00000010
00000001
00000010
00000100
00000000
00001000
00000010
00000000
,
00000000
00000010
00000001
00000000
00000010
00000000
00001001
00000000
,
00000002
00000000
00002003
00000000
,
00003020
00020030
00032000
00203000
,
00320000
00100000
10000000
01030000
,
00200000
01000000
00010000
00301000
,
00002000
00000000
00023000
00000000
,
00030200
00000320
00000032
00002003
,
00003020
00000100
00001000
00010030
,
00020000
00000000
00000010
00000000
00031000
00011000
00000000
00000000
,
00010000
00000000
00000000
01000000
00000000
00000000
00100000
00000000
00000000
00000000
00000000
00000000
00110000
00000000
00000000
00000000
,
10000000
00000000
00000000
00100000
00000000
00000000
00010000
00000000
00000000
00000000
00000000
00000000
00011000
00000000
00000000
00000000
,
00010000
00000000
00000000
00000100
00000000
00000000
00000010
00000000
00000000
00000000
00000000
00000000
00000011
00000000
00000000
00000000
,
00000001
00000000
00000000
00001000
00000000
00000000
00000100
00000000
00000000
00000000
00000000
00000000
00000101
00000000
00000000
00000000
,
00000100
00000000
00000000
00000010
00000000
00000000
00001000
00000000
00000000
00000000
00000000
00000000
00001100
00000000
00000000
00000000
,
00001000
00000000
00000000
00000100
00000000
00000000
00010000
00000000
00000000
00000000
00000000
00000000
01010000
00000000
00000000
00000000
,
01000000
00100000
01000000
00100000
00000000
10000000
01000000
00000000
,
00010000
00001000
00010000
00001000
00000000
00000010
00000001
00000000
,
00001000
00000010
00001000
00000010
00000000
00000100
00000001
00000000
,
00001000
00000100
00020000
00002000
00000000
00030000
00003000
00000000
,
00100000
00010000
10000000
10000000
00000000
00010000
01000000
00000000
,
00001000
00010000
00000100
00000100
00000000
00000010
00000001
00000000
,
00000100
00001000
00010000
00010000
00000000
00001000
00100000
00000000
,
00010000
01000000
00100000
00100000
00000000
00010000
00000000
00011000
;

//---------------dance-double - ----------------
#NOTES:
     dance-double:
     :
     Hard:
     8:
     :
00000000
00000000
00000000
00000000
,
00000000
00000000
00000000
00000000
,
00000000
00000000
00000000
00000000
,
10000000
01000000
10000000
00000000
00000000
00000000
00010000
00000000
00000000
00000000
00100000
00000000
00000000
00000000
00010000
00000000
,
01000000
00100000
01000000
00000000
00000000
00000000
00001000
00000000
00000000
00000000
00010000
00000000
00000000
00000000
00000100
00000000
,
00001000
00000000
00000000
00000010
00000000
00000100
00000000
00000000
,
00000001
00000000
00000000
00000010
00000000
00000000
00001100
00000000
,
00010000
00000000
00000000
00001000
00000000
00100000
00000000
00000000
,
10000000
00000000
00000000
00100000
00000000
00000000
01000000
00000000
00000000
00000000
10010000
00000000
00000000
00000000
01010000
00000000
,
00100000
10000000
01000000
00100000
00000000
00001000
00010000
00000000
,
00000010
00001000
00000100
00000010
00000000
00000001
00001001
00000000
,
00000100
00010000
00001000
00100000
00000000
10000000
00100000
00000000
,
00001000
00010000
00000010
00001000
00000000
00000001
00000011
00000000
,
00000001
00000100
00001000
00010000
00000100
00000000
00010000
00000000
,
01000000
10000000
00100000
00000000
10000000
00010000
00100000
00000000
,
01000000
10000000
00010000
10000000
00100000
10000000
00010000
00000000
,
01000000
00001000
00010000
00000010
00000000
00001001
00000000
00000101
,
00000001
00000010
00001000
00010000
00000010
00000000
00010000
00000000
,
00100000
10000000
01000000
00000000
10000000
00010000
00100000
00000000
,
00010000
01000000
00010000
10000000
00100000
10000000
00010000
00000000
,
01000000
00001000
00010000
00000010
00000000
00020000
00000000
00000000
,
01030000
00000000
00100000
00000000
00001000
00010000
01000000
00000000
,
00010000
00001000
00000010
00000200
00000000
00000300
00001001
00000000
,
00000010
00000000
00000100
00002000
00000000
00000000
00103000
00010000
,
10000000
01000000
00200000
00000000
00000000
00300000
11000000
00000000
,
00100000
00000000
00001000
00000000
00010000
00000100
00000010
00000000
,
00001000
00010000
01000000
00200000
00000000
00300000
01010000
00000000
,
00001000
00010000
00000010
00001000
00000002
00000000
00000103
00002000
,
00000000
01003000
00002000
00000000
00000010
00000000
00013000
00000000
,
00001000
00010000
00001000
00000000
00000000
00000000
01000000
00000000
00000000
00000000
00000000
00000000
00110000
00000000
00000000
00000000
,
10000000
01000000
10000000
00000000
00000000
00000000
00100000
00000000
00000000
00000000
00000000
00000000
01001000
00000000
00000000
00000000
,
00010000
00000100
00010000
00000000
00000000
00000000
00000010
00000000
00000000
00000000
00000000
00000000
00000101
00000000
00000000
00000000
,
00001000
00000010
00001000
00000000
00000000
00000000
00000100
00000000
00000000
00000000
00010000
00000000
00011000
00000000
00000000
00000000
,
00010000
00100000
10000000
00010000
00000000
01000000
00001000
00000000
,
00010000
01000000
00100000
00001000
00000000
00000100
00000101
00000000
,
00000100
00000001
00000010
00000100
00000000
00010000
00001000
00000000
,
00100000
01000000
00010000
00001000
00000000
00022000
00000000
00000000
,
00033000
00001000
00000100
00000001
00000020
00000000
00000230
00000000
,
00010300
00002000
00000000
02003000
00000000
00000000
03100000
00000000
,
10010000
00000000
02000000
00000000
00000000
03002000
00000000
00013000
,
00000100
00000020
00000000
00000032
00000000
00000000
00000103
00000000
,
00000010
00001000
00000100
00000010
00000001
00000100
00001000
00010000
,
00001000
00100000
00000000
01000000
00000000
10000000
00010000
00000000
,
10000000
01000000
00010000
00000000
00010000
00001000
00000000
00001000
,
00000010
00000000
00000010
00000001
00000000
00000001
00001000
00000000
,
00001000
00000100
00000000
00000100
00010000
00000000
00010000
01000000
,
00000000
00000000
01000000
00000000
20000000
00000000
00020000
00000000
30030000
00000000
10000000
00010000
10000000
00000000
00000000
00000000
,
00100000
00010000
00001000
00000010
00001000
00100000
00010000
00000000
,
01000000
00001000
00010000
00000100
00010000
01000000
00010000
00000000
,
00001000
00000010
00001000
00010000
01000000
00010000
00000100
00000000
,
00001000
00000010
00010000
00001000
00000000
00011000
00000000
00011000
;
