#TITLE:Hey!;
#ARTIST:Tipsy;
#BANNER:Hey!.png;
#BACKGROUND:Hey!-bg.png;
#CDTITLE:./CDTITLES/DanceDanceRevolution UNIVERSE2.png;
#MUSIC:Hey!.ogg;
#SAMPLESTART:31.2;
#SAMPLELENGTH:15;
#DISPLAYBPM:200;
#BPMS:0=200,132=201.12,136=200,260=197.8,264=200.1,356=199.63;

//---------------dance-single - ----------------
#NOTES:
     dance-single:
     :
     Beginner:
     1:
     :
0000
0000
0000
0000
,
0000
0000
0000
0000
,
0000
0000
0000
0000
,
0000
0000
0000
0000
,
0000
0000
0000
0000
,
0000
0000
0000
0000
,
1000
0000
0000
0000
,
0001
0000
0000
0000
,
0010
0000
0000
0000
,
1000
0000
0000
0000
,
0010
0000
0000
0000
,
0100
0000
0000
0000
,
0001
0000
0000
0000
,
1000
0000
0000
0000
,
0010
0000
0000
0000
,
0010
0000
0000
0000
,
0100
0000
0001
0000
,
1000
0000
0000
0000
,
0001
0000
0000
0000
,
0010
0000
0000
0000
,
0100
0000
0000
0000
,
1000
0000
0000
0000
,
0010
0000
0000
0000
,
0001
0000
0000
0000
,
1000
0000
0000
0000
,
0001
0000
0000
0000
,
0100
0000
0000
0000
,
1000
0000
0000
0000
,
0001
0000
0000
0000
,
1000
0000
0000
0000
,
0010
0000
0000
0000
,
1000
0000
0000
0000
,
0100
0000
0000
0000
,
0001
0000
0001
0000
,
0010
0000
0000
0000
,
0100
0000
0000
0000
,
1000
0000
0000
0000
,
0001
0000
0000
0000
,
1000
0000
0000
0000
,
0100
0000
0000
0000
,
1000
0000
0000
0000
,
0100
0000
0010
0000
,
0001
0000
0000
0000
,
1000
0000
0000
0000
,
0010
0000
0000
0000
,
0100
0000
0010
0000
,
1000
0000
0000
0000
,
1000
0000
0000
0000
,
1000
0000
0000
0000
,
0001
0000
0000
0000
,
0100
0000
0000
0000
,
0010
0000
0000
0000
,
0001
0000
0000
0000
,
1000
0000
0000
0000
,
0100
0000
0000
0000
,
0001
0000
0000
0000
,
0010
0000
0000
0000
,
0100
0000
0000
0000
,
1000
0000
0000
0000
,
0001
0000
0000
0000
,
0010
0000
0000
0000
,
0100
0000
0000
0000
,
1000
0000
1000
0000
,
0000
0000
0000
0000
,
0010
0000
0010
0000
,
0000
0000
0000
0000
,
0001
0000
0000
0000
,
0010
0000
0000
0000
,
1000
0000
0000
0000
,
0100
0000
0000
0001
,
0000
0000
0000
0000
,
0010
0000
0000
0000
,
1000
0000
0000
0000
,
0100
0000
0000
0000
,
0001
0000
0000
0000
,
0100
0000
0000
0000
,
1000
0000
0000
0000
,
0010
0000
0000
0000
,
0100
0000
0000
0000
,
0001
0000
0000
0000
,
0010
0000
0000
0000
,
0100
0000
0000
0000
,
1000
0000
0000
0000
,
0001
0000
0000
0000
,
1000
0000
0000
0000
,
0100
0000
0000
0000
,
0010
0000
0010
0000
,
0001
0000
0000
0000
,
0100
0000
0000
0000
,
1000
0000
0000
0000
;

//---------------dance-single - ----------------
#NOTES:
     dance-single:
     :
     Easy:
     4:
     :
0000
0000
0000
0000
,
0000
0000
0000
0000
,
0000
0000
0000
0000
,
0000
0000
0000
0000
,
0000
0000
0000
0000
,
0000
0000
0000
0000
,
0000
0001
0000
0001
,
0000
1000
0000
0000
,
0000
0100
0000
0000
,
0000
0001
0000
0000
,
0000
0100
1000
0000
,
0001
0010
0000
0100
,
0000
1000
0000
0000
,
0000
0001
0000
0000
,
0000
0100
0000
0001
,
0000
0100
0000
0010
,
0000
1000
0000
0100
,
0000
0001
0000
0000
,
0000
1001
0000
0001
,
0000
0100
0000
0000
,
1000
0010
0000
1000
,
0000
0001
0000
0100
,
0000
0100
0000
0001
,
0000
1000
0000
0010
,
0000
0001
0000
0100
,
0000
1000
0000
0010
,
0000
0010
0010
1000
,
0000
0100
0000
0001
,
0000
0010
0000
0100
,
0100
0001
0000
0000
,
0000
1001
0000
0000
,
0000
0110
0000
0100
,
0010
0110
0000
0000
,
1000
0001
1001
0000
,
0000
0100
0010
0001
,
0000
1000
0000
0010
,
0000
0001
0010
0100
,
0000
0010
0000
1000
,
0000
0010
0100
1000
,
0000
0001
0000
0100
,
0000
1000
0100
0010
,
0000
0100
0000
0001
,
0000
1000
1000
0100
,
0000
0001
0000
0010
,
0000
1001
0000
0000
,
0000
0010
0000
0100
,
0000
0001
0000
0010
,
0000
0100
0000
0001
,
0000
1000
0000
0100
,
0000
1000
0000
0000
,
0000
0001
0001
0010
,
0000
0100
0100
1000
,
0000
0001
0001
0100
,
0000
0001
0000
0100
,
0000
0010
0010
0001
,
0000
1000
0000
0100
,
0000
0100
0100
0001
,
0000
0010
0000
0001
,
0000
1000
1000
0010
,
0000
0010
0010
0001
,
0000
1000
1000
0010
,
0000
1000
0000
0010
,
0000
1001
0000
1001
,
0000
0110
0000
0001
,
1000
1001
0000
0000
,
0100
0010
0110
0000
,
0000
0000
0001
0000
,
0100
0000
0100
0000
,
1000
0000
0100
0000
,
0010
0000
0001
0000
,
0100
0000
1000
0000
,
0010
0000
0010
0000
,
0001
0000
0010
0000
,
0100
0000
0000
1000
,
1000
0010
0001
0000
,
1000
0100
0000
0010
,
0000
0001
0000
0000
,
0000
1000
0000
0000
,
0000
0010
0000
1000
,
0000
0010
0000
0100
,
0000
0001
0000
0010
,
0000
0001
0000
0000
,
0000
0001
0000
0100
,
0000
1000
0000
0100
,
0000
0001
0000
0010
,
0000
1000
0000
0100
,
0000
0010
0000
0100
,
0000
1000
0000
0100
,
0000
0010
0000
0001
,
0000
1000
0001
0000
;

//---------------dance-single - ----------------
#NOTES:
     dance-single:
     :
     Medium:
     7:
     :
0000
0000
0000
0000
,
0000
0000
0000
0000
,
0000
0000
0000
0000
,
0000
0000
0000
0000
,
0000
0000
0000
0000
,
0000
0000
0000
0000
,
1000
0000
0010
0000
,
0100
0001
0010
1000
,
0010
0001
1000
0010
,
0100
0001
1000
0000
,
0001
0001
1000
0100
,
0110
0010
1010
0100
,
0101
1000
0100
1000
,
1010
0100
0001
0100
,
0001
0100
1000
0000
,
1000
0100
0001
0000
,
0100
1000
0100
0001
,
0100
1000
0110
0000
,
0001
1000
0010
0101
,
1000
0001
0100
1010
,
0001
0010
0100
1000
,
0001
0100
0010
1000
,
1100
0000
0000
0000
0110
0000
0000
1002
,
0000
0100
0010
1000
,
0000
0100
0000
1000
,
0010
1000
0103
0010
,
1000
1000
0001
0010
,
0110
0100
0101
0010
,
1010
0001
0010
0001
,
0101
0010
1000
0010
,
0100
0001
0010
0001
,
1000
0100
0010
0100
,
0001
0001
0010
0010
,
0100
1000
1100
0000
,
0001
0100
1000
0100
,
0001
1000
0010
0100
,
0001
0010
1000
0010
,
0001
0010
0100
1000
,
1000
0010
0001
0010
,
1000
0001
0100
0010
,
1000
0100
0001
0100
,
1000
0100
0010
0001
,
1000
1000
0001
0010
,
0110
0100
0101
0010
,
1010
0001
0010
0001
,
0101
0010
1000
0010
,
0001
0100
1000
0100
,
0001
1000
0010
0100
,
0001
0010
1000
0010
,
0002
0000
0000
0003
,
1000
0010
0100
0001
,
1000
1100
0001
0010
,
1000
0010
0100
0001
,
1000
1100
0001
0010
,
0011
0010
0100
1000
,
0011
0001
1000
0010
,
0011
0010
0100
1000
,
1001
0001
1000
0010
,
0011
0001
0100
1000
,
0011
1000
1000
0010
,
0011
0010
0001
0100
,
1000
0100
0010
0001
,
0200
0001
1000
0010
,
0302
0010
0100
1000
,
0023
1000
0001
0100
,
1030
0010
1001
0000
,
0100
0101
0010
1010
,
1000
0000
1100
0000
0000
0010
0001
0000
,
0001
1001
0100
0110
,
0010
0000
1000
0000
0000
0100
0001
0000
,
0010
1010
0100
0101
,
0001
0000
0011
0000
0000
0100
1000
0000
,
1000
1001
0010
0110
,
0200
0000
0000
0300
,
0010
1000
0001
0010
,
0110
0100
0101
0010
,
1010
0001
0010
0001
,
0101
0010
1000
0010
,
0001
0100
0010
1000
,
0001
0011
1000
0100
,
0001
0000
0220
0000
0000
0000
0000
0330
,
0001
0011
1000
0100
,
0001
1000
0100
0011
,
1000
0001
0010
1100
,
0001
0100
0010
1000
,
0001
0010
0100
1000
,
0010
0010
0001
0001
,
1000
0001
0100
0010
,
1000
1000
0100
0100
,
0010
0011
0000
0000
;

//---------------dance-single - ----------------
#NOTES:
     dance-single:
     :
     Hard:
     8:
     :
0000
0000
0000
0000
,
0000
0000
0000
0000
,
0000
0000
0000
0000
,
0000
0000
0000
0000
,
0000
0000
0000
0000
,
0000
0000
0000
0000
,
0110
0001
0100
0100
,
1010
1000
0001
0010
,
1001
0000
0001
1000
0001
0000
0010
0100
,
0010
0001
0100
1000
,
1010
0000
1100
0000
0000
0010
0000
0001
,
0000
0100
0000
1000
0100
0000
0100
0000
,
0011
1000
0100
0001
,
0010
0100
0010
0000
1000
0100
0001
0000
,
0020
0000
0130
0001
,
0020
0000
0130
1000
,
2000
0000
0000
0000
3010
0000
0100
0010
,
0001
0000
0000
1010
0000
0000
0001
0000
,
1001
0000
1000
0010
0001
0000
0101
0000
,
1000
0000
0100
1000
0001
0000
0110
0000
,
1001
0001
1010
0010
,
0110
0001
1000
0010
,
1100
0000
0000
0000
0010
0000
0000
0202
,
0000
0000
0000
0000
,
0000
0000
0000
0000
,
0000
0000
0000
0303
,
1000
0000
2000
0000
0000
0100
0000
0010
,
0000
3001
0000
0010
0001
1000
0001
1000
,
0100
0000
0011
0000
0000
0011
0000
0000
,
0022
0000
0000
0000
0033
0000
1000
0100
,
0010
0000
0001
1000
0100
0000
0010
0001
,
1000
0000
0100
1000
0010
0000
0100
0001
,
0010
0000
0010
0001
1000
0000
0100
0000
,
0100
1000
0011
0000
,
0010
1000
0101
0010
,
0100
0001
1100
0110
,
0100
0010
1001
0100
,
0001
1010
0200
0320
,
0032
0000
0000
0023
0000
0000
0230
0000
,
0000
0000
0000
2300
0000
0000
0000
0000
,
3200
0000
0000
0300
,
0001
0010
0001
0000
1000
0100
1000
0000
,
0010
0000
0010
0000
1000
0000
0001
1000
,
0000
0100
0000
1000
0001
0010
0001
0010
,
0200
0000
0000
0000
,
0000
0300
0020
0230
,
2300
0000
0000
3200
0000
0000
0320
0000
,
0000
0000
0000
0032
0000
0000
0000
0000
,
0023
0000
0000
0030
,
0000
0000
0000
1000
0000
0100
0001
0000
,
0010
0000
1000
0000
0001
0000
1000
0100
,
0000
0100
0010
0001
,
0100
0000
0001
0000
1000
0000
0001
0010
,
0000
0100
0010
0001
0100
0000
1000
0000
,
0100
0000
0001
0000
1000
0000
0001
0010
,
0000
1000
0010
0100
0001
0000
1000
0000
,
0010
0000
1000
0000
0001
0000
1000
0100
,
0000
0000
0100
0000
0010
0100
0010
1000
,
0001
0000
1000
1000
0000
0010
0110
0000
,
1000
0000
0100
0001
0100
0000
0101
0000
,
0010
0000
1100
0000
0000
1001
0000
0000
,
0011
0010
1000
0001
,
0100
0000
1000
0001
0010
0000
0100
1000
,
0001
0000
0010
0001
0100
0000
0010
1000
,
0100
0000
0100
1000
0001
0000
0010
0000
,
0010
0001
2200
0000
,
3300
0010
0000
0001
,
0000
0000
0100
0000
0000
0100
1000
0100
,
0010
0100
1000
0001
,
0010
0000
1100
0000
0001
0100
0010
1000
,
0010
0100
0000
0001
,
0000
0000
0110
0000
1000
0010
1000
0100
,
0010
0001
0000
0100
,
0000
0000
1001
0000
0010
0100
0001
0100
,
0010
0000
0100
0000
0000
0010
0000
0001
,
0000
0010
0000
0001
1000
0100
1000
0100
,
0020
0001
1000
0001
,
1000
0001
0100
0130
,
0100
0000
1000
0000
0010
0100
0010
0000
,
0001
1000
0001
0000
1000
0000
0110
0000
,
1000
1000
0001
0010
,
0100
0001
0010
0010
,
1001
0000
0000
0100
0000
0000
1010
0000
,
0001
0000
0010
0100
1000
0000
0110
0000
,
1001
0000
0101
0100
,
0110
0000
1000
0000
0001
1000
0100
0000
,
0001
0000
1000
1000
0010
0000
0100
0100
,
0001
0000
0010
0010
0100
0000
1000
0001
,
0100
0000
0001
0010
0100
1000
0100
0010
,
0001
0110
0000
0000
;

//---------------dance-double - ----------------
#NOTES:
     dance-double:
     :
     Beginner:
     2:
     :
00000000
00000000
00000000
00000000
,
00000000
00000000
00000000
00000000
,
00000000
00000000
00000000
00000000
,
00000000
00000000
00000000
00000000
,
00000000
00000000
00000000
00000000
,
00000000
00000000
00000000
00000000
,
10000000
00000000
00000000
00000000
,
00010000
00000000
00000000
00000000
,
01000000
00000000
00000000
00000000
,
00010000
00000000
00000000
00000000
,
00001000
00000000
00000000
00000000
,
00010000
00000000
00000000
00000000
,
00000100
00000000
00000000
00000000
,
00000010
00000000
00000000
00000000
,
00000001
00000000
00000001
00000000
,
00000100
00000000
00000100
00000000
,
00001000
00000000
00001000
00000000
,
00010000
00000000
00010000
00000000
,
01100000
00000000
00000000
00000000
,
01100000
00000000
00000000
00000000
,
10010000
00000000
00000000
00000000
,
10000000
00000000
00000000
00000000
,
01000000
00000000
00000000
00000000
,
00010000
00000000
00000000
00000000
,
00001000
00000000
00000000
00000000
,
00010000
00000000
00000000
00000000
,
00000110
00000000
00000000
00000000
,
00000110
00000000
00000000
00000000
,
00000001
00000000
00000000
00000000
,
00000100
00000000
00000000
00000000
,
00001000
00000000
00000000
00000000
,
00010000
00000000
00000000
00000000
,
00100000
00000000
00000000
00000000
,
10000000
00000000
00100000
00000000
,
01000000
00000000
00000000
00000000
,
00010000
00000000
00000000
00000000
,
00001000
00000000
00000000
00000000
,
00000010
00000000
00000010
00000000
,
00000001
00000000
00000000
00000000
,
00000100
00000000
00000000
00000000
,
00001000
00000000
00000000
00000000
,
00010000
00000000
00000000
00000000
,
00100000
00000000
00000000
00000000
,
10000000
00000000
00000000
00000000
,
00100000
00000000
00100000
00000000
,
01000000
00000000
00000000
00000000
,
00010000
00000000
00000000
00000000
,
00001000
00000000
00000000
00000000
,
00000010
00000000
00000000
00000000
,
00000001
00000000
00000000
00000000
,
00000010
00000000
00001000
00000000
,
00001000
00000000
00010000
00000000
,
00010000
00000000
10000000
00000000
,
10000000
00000000
00100000
00000000
,
00100000
00000000
00000000
00000000
,
00010000
00000000
00000000
00000000
,
00000100
00000000
00000100
00000000
,
00001000
00000000
00001000
00000000
,
00000010
00000000
00000010
00000000
,
00000001
00000000
00000000
00000000
,
00000100
00000000
00000100
00000000
,
00001000
00000000
00000000
00000000
,
01100000
00000000
00000000
00000000
,
01100000
00000000
00000000
00000000
,
10010000
00000000
00000000
00000000
,
00100000
00000000
00010000
00000000
,
00001000
00000000
00000000
00000000
,
00000010
00000000
00000000
00000000
,
00000001
00000000
00000000
00000000
,
00000100
00000000
00000000
00000000
,
00010000
00000000
00000000
00000000
,
01000000
00000000
00000000
00000000
,
00100000
00000000
00000000
00000000
,
10000000
00000000
00000000
00000000
,
01100000
00000000
00000000
00000000
,
01000000
00000000
00000000
00000000
,
00001000
00000000
00000000
00000000
,
00010000
00000000
00000000
00000000
,
00000010
00000000
00000000
00000000
,
00001000
00000000
00000000
00000000
,
00010000
00000000
00000000
00000000
,
00000100
00000000
00000000
00000000
,
00000001
00000000
00000001
00000000
,
00001000
00000000
00001000
00000000
,
00000100
00000000
00000000
00000000
,
00010000
00000000
00000000
00000000
,
01000000
00000000
00000000
00000000
,
10000000
00000000
00000000
00000000
,
01000000
00000000
00000000
00000000
,
00100000
00000000
00000000
00000000
,
00010000
00000000
00000000
00000000
;

//---------------dance-double - ----------------
#NOTES:
     dance-double:
     :
     Easy:
     5:
     :
00000000
00000000
00000000
00000000
,
00000000
00000000
00000000
00000000
,
00000000
00000000
00000000
00000000
,
00000000
00000000
00000000
00000000
,
00000000
00000000
00000000
00000000
,
00000000
00000000
00000000
00000000
,
00000001
00000000
00000010
00000000
,
00000100
00000000
00001000
00000000
,
00010000
00000000
00100000
00000000
,
01000000
00000000
10000000
00000000
,
01000000
01000000
00010000
00000000
,
00100000
00100000
00001000
00000000
,
00001000
00000000
00000010
00000000
,
00000100
00000000
00000001
00000000
,
00000110
00000000
00000001
00000000
,
00000100
00000000
00001000
00000000
,
00011000
00000000
01000000
00000000
,
00010000
00000000
00100000
00000000
,
10010000
00000000
01000000
00000000
,
00001000
00000000
01000000
00000000
,
00010000
00000000
00001000
00000000
,
00010000
00000100
00000000
00000000
,
00000010
00000000
00000001
00000000
,
00000100
00000000
00001000
00000000
,
00010000
00000000
01000000
00000000
,
10000000
00000000
00100000
00000000
,
01000000
01000000
00001000
00000000
,
00100000
00000000
00001000
00000000
,
00010000
00000000
00000100
00000100
,
00001000
00000000
00000001
00000000
,
00000110
00000000
00000110
00000000
,
00001100
00000000
00011000
00000000
,
00110000
00000000
00010000
00000000
,
00100000
01100000
00000000
00000000
,
20000000
00000000
32000000
00000000
,
03020000
00000000
00032000
00000000
,
00003020
00000000
00000032
00000000
,
00000203
00000000
00000000
00000000
,
00000310
00000000
00010000
00000000
,
00001000
00000000
01000000
00000000
,
00010000
01000000
10000000
00000000
,
01000000
00000000
00010000
00000000
,
01000000
00000000
00001000
00000000
,
00010000
00000000
00000100
00000000
,
00002200
00000000
00000000
00003300
,
00000010
00000000
00000001
00000000
,
00000100
00000000
00000001
00000000
,
00001000
00000000
00010000
00000000
,
00100000
00000000
10000000
00000000
,
01000000
01000000
00010000
00000000
,
01000000
00000000
00010000
00000000
,
00001000
00000000
00010000
00000000
,
00001000
00000000
00000100
00000000
,
00000001
00000000
00000001
00000000
,
00000100
00000000
00010000
00000000
,
00001000
00000000
00100000
00000000
,
01000000
00000000
10000000
10000000
,
01000000
00000000
00010000
00000000
,
00100000
00000000
00001000
00000000
,
00010000
00000000
00000000
00001000
,
00010000
00000000
00000010
00000000
,
00001000
00000000
00000100
00000000
,
00001010
00000000
00000101
00000000
,
00000010
00000000
00001000
00000000
,
00011000
00000000
00010000
00000000
,
00100000
00000000
01100000
00000000
,
00000000
10000000
00000000
00100000
,
00000000
00010000
00000000
01000000
,
00000000
00001000
00000000
00010000
,
00000000
00000010
00000000
00010000
,
00000000
00001000
00000000
00000100
,
00000000
00000001
00000000
00000010
,
00000000
00001000
00000000
00010000
,
00000000
00001000
00000000
00100000
,
01000000
00000000
10000000
00000000
,
01000000
00000000
00010000
00000000
,
00011000
00000000
00010000
00000000
,
00001000
00000000
00000100
00000000
,
00000010
00000000
00000001
00000000
,
00000100
00000000
00000010
00000000
,
00001000
00000000
00010000
00000000
,
00001000
00000000
00100000
00000000
,
10010000
00000000
01000000
00000000
,
00100000
00000000
00010000
00000000
,
00001000
00000000
00010000
00000000
,
00000110
00000000
00001000
00000000
,
00000011
00000000
00000100
00000000
,
00011000
00000000
00010000
00000000
,
00100000
01000000
00000000
00000000
;

//---------------dance-double - ----------------
#NOTES:
     dance-double:
     :
     Medium:
     7:
     :
00000000
00000000
00000000
00000000
,
00000000
00000000
00000000
00000000
,
00000000
00000000
00000000
00000000
,
00000000
00000000
00000000
00000000
,
00000000
00000000
00000000
00000000
,
00000000
00000000
00000000
00000000
,
10000000
00000000
00100000
00000000
,
01000000
00001000
00010000
00000010
,
00001000
00000002
00000000
00000000
,
00000000
00000000
00000000
00001003
,
00000010
00010000
00001000
00100000
,
00010000
10000000
01000000
00100000
,
00001000
00010000
00000010
00001000
,
00000001
00000010
00000100
00010000
,
00001000
00010000
00000100
00000000
,
00010000
00001000
00100000
00000000
,
00001000
00010000
00000010
00000000
,
00010000
00000000
00000000
01100000
00000000
00000000
00000000
00000000
,
10000000
01000000
00100000
01100000
,
01000000
00010000
00001000
00011000
,
00010000
00001000
00000010
00000100
,
00000001
00000100
00001000
00000010
,
00001000
00000000
00010000
01000000
,
00000000
01000000
00100000
10000000
,
01000000
00010000
00001000
00010000
,
00001000
00000100
00000001
00001000
,
00000001
00000010
00001000
00010000
,
00000010
00000100
00001000
00010000
,
00100000
00000000
02000000
00000000
00000000
03200000
00000000
00000000
,
20300000
00000000
00000000
30100000
,
10000000
01000000
00100000
00001000
,
00010000
01000000
00100000
00001000
,
00010000
00000010
00000100
00000001
,
00000010
00000100
00001010
00000000
,
00000100
00000100
00000010
00000010
,
00010000
00010000
00001000
00010000
,
00100000
00100000
10000000
10000000
,
00010000
00100000
01000000
10000000
,
00100000
00010000
00001000
00100000
,
01000000
00010000
00001000
00000100
,
00000010
00010000
00001000
00000010
,
00000100
00001000
00000001
00000100
,
00000010
00010000
00001000
01000000
,
00010000
00100000
01000000
10000000
,
00100000
01000000
01100000
00000000
,
00100000
00010000
10000000
00100000
,
01000000
00001000
00010000
00000010
,
00001000
00000100
00000010
00000001
,
00000100
00000010
00000110
00000000
,
00001000
00000020
00000000
00000030
,
00000100
00000010
00000001
00000010
,
00010000
00001000
00010000
01000000
,
10000000
00100000
01000000
00010000
,
00100000
10000000
01010000
00000000
,
00010000
01000000
10000000
01000000
,
00001000
00010000
00001000
00000010
,
00000001
00000100
00000010
00001000
,
00000100
00000010
00000011
00000100
,
00010000
00001000
00010000
00100000
,
00010000
00001000
00000010
00001000
,
00010000
01000000
00010000
00001000
,
00000100
00000001
00000101
00000000
,
00000001
00000010
00000100
00010000
,
00001000
00000010
00000100
00010000
,
00001000
01000000
00100000
10000000
,
01000000
00100000
01010000
00000000
,
10000000
11000000
00100000
00110000
,
00001000
00011000
00000010
00001010
,
00000100
00000101
00000010
00000110
,
00010000
00000000
00011000
00000000
00000000
00010000
00001000
00000000
,
00000001
00000011
00000100
00001100
,
00010000
00011000
01000000
01010000
,
00100000
10100000
01000000
01100000
,
00001000
00000000
00011000
00000000
00000000
00001000
00010000
00000000
,
01000000
00001000
00010000
00000100
,
00001000
00000001
00000010
00000100
,
00010000
00001000
01000000
00010000
,
10000000
01000000
00100000
00001000
,
00001000
00000010
00000100
00000001
,
00000000
00000100
00001000
00000000
,
00000000
00020020
00000000
00030030
,
00010000
00001000
01000000
00010000
,
00100000
01000000
10000000
00010000
,
01000000
00001000
00010000
00000100
,
00010000
00000010
00000100
00000001
,
00000010
00000100
00001000
00000010
,
00010000
00001000
00100000
00001000
,
01000000
00010000
10000000
00100000
,
01000000
00001000
00010000
00001000
,
00000000
00011000
00000000
00000000
;

//---------------dance-double - ----------------
#NOTES:
     dance-double:
     :
     Hard:
     8:
     :
00000000
00000000
00000000
00000000
,
00000000
00000000
00000000
00000000
,
00000000
00000000
00000000
00000000
,
00000000
00000000
00000000
00000000
,
00000000
00000000
00000000
00000000
,
00000000
00000000
00000000
00000000
,
00000001
00000010
00001000
00000100
,
00010000
00001000
00100000
00010000
,
00010000
01000000
00100000
10000000
,
00100000
10000000
00010000
01000000
,
00101000
00000000
00011000
00000000
00000000
00000010
00000000
00000001
,
00000000
00000100
00000000
00001000
00010000
00000000
00010000
00000000
,
00110000
00000000
10000000
01000000
00010000
00000000
00010000
00001000
,
00000010
00000000
00000010
00000001
00001000
00000000
00000010
00000000
,
00000001
00000100
00000010
00010000
,
00001000
01000000
00010000
00100000
,
01000000
10000000
01000000
00010000
,
00001000
00000000
00000000
00001010
00000000
00000000
00000001
00000100
,
00001000
00000100
00000001
00000000
00000100
00000000
00010000
00001000
,
00100000
00000000
00010000
00100000
10000000
00000000
01100000
00000000
,
00110000
00001000
00011000
00000100
,
00000110
00000001
00000010
00000100
,
00001100
00000000
00010000
00000000
00011000
00000000
01000000
00200000
,
00000000
00000000
00000000
00000000
,
00000000
00000000
00000000
00000000
,
00000000
00000000
00000000
00300000
,
10000000
00000000
01000000
00000000
00000000
00100000
00000000
00010000
,
00000000
00001000
00000000
00010000
00001000
00010000
00000100
00010000
,
00000010
00000000
00001000
00000000
00000000
00000001
00000000
00000000
,
00000020
00000000
00000030
00000000
,
00000100
00000000
00000001
00000010
00000100
00000000
00000100
00010000
,
00001000
00000000
00010000
00001000
00100000
00000000
01000000
10000000
,
00100000
00000000
00100000
00010000
10000000
00000000
01000000
00000000
,
00010000
00001000
00011000
00000000
,
00000010
00000100
00001100
00000011
,
00001000
00000010
00010000
00011000
,
00100000
01000000
00010000
11000000
,
00010000
10100000
02000000
03200000
,
00320000
00000000
00000000
00032000
00000000
00000000
00003200
00000000
,
00000000
00000000
00000000
00000302
00000000
00000000
00000000
00000000
,
00000203
00000000
00000000
00000000
00000000
00000000
00000000
00000300
,
00010000
00001000
00100000
00010000
,
10000000
00000000
00100000
00000000
10000000
00000000
00010000
01000000
,
00000000
00001000
00000000
00010000
00001000
00010000
00001000
00010000
,
00000200
00000000
00000000
00000000
,
00000300
00000000
00000002
00000023
,
00002030
00000000
00000000
00023000
00000000
00000000
02030000
00000000
,
00000000
00000000
00000000
23000000
00000000
00000000
00000000
00000000
,
30200000
00000000
00000000
00300000
,
00000000
00000000
00000000
00010000
00000000
00001000
00010000
00000000
,
00000010
00000000
00001000
00000000
00000001
00000000
00001000
00000100
,
00000000
00010000
00001000
01000000
,
00010000
00000000
10000000
00000000
00100000
00000000
00010000
00100000
,
00000000
00001000
00010000
00000010
,
00001000
00000000
00000001
00000000
00000100
00000000
00000010
00010000
,
00000000
00001000
00010000
00100000
,
10000000
00000000
01000000
00000000
00010000
00000000
00001000
00010000
,
00000000
00001000
00000010
00000001
,
00000100
00000000
00000010
00001000
00000100
00000000
00000010
00000000
,
00000001
00000100
00001000
00000000
00010000
00000000
01010000
00000000
,
01000000
10000000
00100000
00000000
00000000
01010000
00000000
00000000
,
00011000
00000000
00000000
00020000
00000000
00000000
00030000
00000000
,
00001000
00000000
00000100
00000001
00000010
00000000
00000100
00010000
,
00001000
00000000
00010000
00001000
00100000
00000000
00010000
10000000
,
01000000
00000000
01000000
10000000
00100000
00000000
01000000
00000000
,
00001000
00010000
00000200
00000000
,
00000300
00000000
00000001
00000000
00000000
00000000
00000010
00000100
,
00000000
00000000
00010000
00000000
00000000
00001000
00010000
00000000
,
00000000
00000000
00100000
00000000
00000000
00000000
00010000
01000000
,
00000000
00000000
10000000
00000000
00000000
01000000
00100000
00000000
,
00000000
00010000
00000000
00001000
,
00000000
00000000
00000010
00000000
00000000
00000100
00000001
00000000
,
00000000
00001000
00000000
00000010
,
00000000
00000000
00010000
00000000
00000000
00001000
00010000
00001000
,
00100000
00000000
01000000
00000000
00000000
10000000
00000000
00100000
,
00000000
01000000
00000000
00001000
00100000
01000000
10000000
01000000
,
00200000
00000000
00000000
00000000
,
00000000
00000000
00000000
00300000
,
10000000
01000000
00010000
00001000
,
00000100
00000001
00000010
00001000
,
00010000
00100000
01000000
10000000
,
01000000
00010000
00001000
00000010
,
00001000
00000010
00000001
00000000
00000010
00000000
00010000
00001000
,
00010000
00000000
00010000
00100000
10000000
00000000
01100000
00000000
,
01010000
00001000
00011000
00000010
,
00000110
00000001
00000100
00000010
,
00001000
00000000
00000100
00000000
00010000
00000000
00001000
00010000
,
00001000
00100000
01000000
10000000
,
01000000
00000000
00010000
00000000
00001000
00010000
00000100
00000000
,
00001000
00001001
00000000
00000000
;
