
//----- song ID: htgd -----//
#TITLE:He's The Greatest Dancer;
#ARTIST:Sister Sledge;
#BANNER:He's The Greatest Dancer.png;
#BACKGROUND:He's The Greatest Dancer-bg.png;
#CDTITLE:./CDTITLES/DanceDanceRevolution UNIVERSE2.png;
#MUSIC:He's The Greatest Dancer.ogg;
#SAMPLESTART:19.145;
#SAMPLELENGTH:15;
#DISPLAYBPM:113;
#BPMS:0=112.94,20=112.68,52=112.59,68=112.76,84=111.98,92=114.29,100=113.39,124=113.92,128=111.57,131=112.5,132=113.21,148=113.03,156=113.74,164=112.68,172=113.74,180=113.48,196=112.9;

//---------------dance-single - ----------------
#NOTES:
     dance-single:
     :
     Beginner:
     1:
     :
0000
0000
0000
0000
,
0000
0000
0000
0000
,
0000
0000
0000
0000
,
0000
0000
0000
0000
,
0000
0000
0000
0000
,
0001
0000
0000
0000
,
0010
0000
0000
0000
,
1000
0000
0000
0000
,
0001
0000
0000
0000
,
0100
0100
0000
0000
,
0010
0000
0001
0000
,
0000
0100
0100
0000
,
0010
0000
1000
0000
,
0001
0001
0000
0000
,
0100
0000
1000
0000
,
0010
0010
0000
0000
,
0100
0000
0000
0000
,
0001
0000
0000
0000
,
1000
0000
0000
0000
,
0010
0000
0010
0000
,
0100
0000
0000
0000
,
1000
0000
0000
0000
,
0001
0000
0000
0000
,
0100
0000
0100
0000
,
0010
0000
0000
0000
,
0001
0000
0100
0000
,
0010
0000
0010
0000
,
1000
0000
0100
0000
,
1000
0000
0000
0000
,
0010
0000
0100
0000
,
0001
0000
0100
0000
,
0010
0000
0000
0000
,
0100
0000
0000
0000
,
0001
0001
0000
0000
,
1000
0000
0100
0000
,
0010
0010
0000
0000
,
0100
0000
0000
0000
,
1000
1000
0000
0000
,
0001
0000
1000
0000
,
0100
0100
0000
0000
,
0001
0000
0010
0000
,
0100
0100
0000
0000
,
1000
0000
0010
0000
,
0100
0100
0000
0000
,
0001
0000
1000
0000
,
0001
0001
0000
0000
,
1000
0000
0010
0000
,
1000
1000
0000
0000
,
0100
0000
0010
0000
,
0001
0000
0000
0000
;

//---------------dance-single - ----------------
#NOTES:
     dance-single:
     :
     Easy:
     3:
     :
0000
0000
0000
0000
,
0000
0000
0000
0000
,
0000
0000
0000
0000
,
0000
0000
0000
0000
,
0000
0000
0000
0000
,
0001
0000
0001
0000
,
1000
0000
1000
0000
,
0100
0000
0100
0000
,
0020
0000
0000
0030
,
1000
1000
1000
0000
,
0001
0000
1000
0000
,
0100
0100
0100
0000
,
0010
0000
0100
0000
,
0001
0001
0001
0000
,
1000
0000
0010
0000
,
0100
0100
0100
0000
,
0002
0000
0000
0003
,
1000
0010
1000
0010
,
0001
0100
0001
0000
,
1000
0100
1000
0100
,
0010
0001
0020
0030
,
0200
0300
1000
0100
,
1000
0010
0100
0001
,
0020
0030
0200
0300
,
0001
0001
1000
1000
,
0010
0000
0001
0010
,
0001
0100
0010
1000
,
0100
0000
0100
0100
,
0010
0000
0001
0001
,
1000
0000
0010
1000
,
0001
0000
0001
1000
,
0100
0000
2000
3000
,
0002
0003
2000
3000
,
0100
0010
1000
0001
,
0100
0000
0010
0000
,
0001
0100
1000
0100
,
0001
0000
1000
0000
,
0001
0010
0100
1000
,
0001
0000
0100
0000
,
0010
1000
0100
1000
,
1001
0000
0000
0000
,
0010
0100
0100
0000
,
1000
0000
0110
0000
,
1000
0001
0001
0000
,
0010
0000
1001
0000
,
0010
1000
0100
0000
,
0010
0000
1000
0000
,
0010
0001
0100
0000
,
0010
0000
0001
0000
,
1001
0000
0000
0000
;

//---------------dance-single - ----------------
#NOTES:
     dance-single:
     :
     Medium:
     5:
     :
0000
0000
0000
0000
,
0000
0000
0000
0000
,
0000
0000
0000
0000
,
0000
0000
0000
0000
,
0000
0000
0000
0000
,
0010
1000
0100
1000
,
0001
0001
0001
0000
0100
0000
0001
0000
,
0010
0000
0100
0000
0020
0000
0130
0010
,
1000
0000
0001
0000
2000
0000
3010
0100
,
0001
0100
0001
0010
,
0100
1000
0100
0000
1000
0010
1000
0000
,
0001
0100
0010
1000
,
0010
1001
0100
1001
,
1000
0000
0100
0000
0010
0010
0010
0000
,
0001
0000
0100
0000
0010
0010
0010
0000
,
1000
0001
0100
0010
,
1000
0000
0100
0010
0100
0000
0001
0000
,
1000
0000
1000
0100
1000
0000
0001
0000
,
0100
0000
0001
0100
0001
0000
1000
0000
,
0100
0100
1000
0010
,
0001
0100
1100
0000
,
0101
0000
0010
1000
,
0001
0100
0001
0000
0011
0000
0000
0000
,
1010
0000
0001
0000
0100
0001
0100
0001
,
1000
0000
0100
0000
0010
0001
1000
0000
,
0001
0000
0010
1000
,
0100
1000
0001
0000
0100
0000
0001
0000
,
0010
0010
0100
1000
,
0100
1000
0001
0000
0100
0001
1000
0000
,
0110
0000
0010
0001
,
0100
0010
0100
0000
0010
0000
1000
0000
,
0001
1000
0001
0000
0001
0000
0010
0000
,
0100
1000
0100
0010
,
0001
0001
0100
0100
,
0010
1000
0010
0000
0110
0000
0110
0000
,
1000
0000
1000
0000
0001
0100
0001
0000
,
0010
0110
0001
1001
,
0110
0000
0001
0000
0010
0001
0010
0000
,
0100
1000
0010
0100
,
0110
0100
0110
0010
,
0002
0000
1000
1003
,
0010
1000
1000
0000
0100
0010
0010
0000
,
0001
0010
0001
0010
,
0100
0010
0010
0000
0001
0100
0100
0000
,
0010
1000
0001
0100
,
0010
1000
0001
0000
1000
0001
0100
0000
,
0010
0100
0010
0000
1000
0001
0100
0000
,
0001
0010
0100
0000
1000
0010
0100
0000
,
0001
0010
1000
0100
,
1001
0000
0000
0000
;

//---------------dance-single - ----------------
#NOTES:
     dance-single:
     :
     Hard:
     7:
     :
0000
0000
0000
0000
,
0000
0000
0000
0000
,
0000
0000
0000
0000
,
0000
0000
0000
0000
,
0000
0000
0000
0000
,
1000
0010
0100
1000
,
0001
1000
0010
1000
,
0001
0000
1000
0100
1000
0000
0001
0100
0001
0000
0000
0000
0100
0000
0000
0000
,
0010
0001
1000
0100
,
0001
0000
1000
0100
0000
0000
1100
0000
0000
0000
0001
0000
0100
0000
0000
0000
,
0110
0000
0010
1000
0100
0000
1000
0000
,
0010
0000
0100
0001
0000
0000
0101
0000
0000
0000
1000
0000
0100
0000
0000
0000
,
1000
0010
0001
0000
0001
0010
1000
0000
,
0100
0000
0010
0001
0000
0000
0011
0000
0000
0000
1000
0000
0100
0000
0000
0000
,
1001
0000
1000
0001
0100
0000
0001
0000
,
0100
0000
0010
1000
0000
0000
1010
0000
0000
0000
0100
0000
0001
0000
0000
0000
,
1000
0000
0001
0000
1000
0001
1000
0001
,
0100
0000
0010
1000
0100
0000
0001
0000
,
0100
0001
0010
0000
0100
0000
0001
0000
,
1000
0000
0000
1000
0100
0000
0000
0000
0010
0000
0010
0000
0001
0000
0100
0000
,
0100
0000
0000
0000
0000
0000
0000
0000
1001
0000
0000
0100
0000
0000
0010
0000
,
1000
0000
0001
0100
0010
0000
1000
0000
,
0100
0000
0001
0000
0100
0010
1000
0000
,
0001
0000
1000
0010
1000
0000
0001
0010
0001
0000
0000
0100
0001
0000
0010
0000
,
0100
0000
0000
0000
0000
0000
0000
0000
1100
0000
0000
0001
0000
0000
0100
0000
,
0010
0000
0100
0001
0010
0000
0001
0010
,
0100
0000
0000
0000
1000
0000
0000
0000
0001
0000
0000
0100
0001
0000
0010
0000
,
0200
0000
1300
0001
0200
0000
0310
1000
,
0200
0000
0310
0001
0200
0000
0300
0000
,
0001
0000
1000
0100
0001
0000
1000
0000
,
0010
0000
0000
0000
0100
0000
0000
0000
0001
0000
0000
1000
0100
0000
1000
0000
,
0020
1000
0100
0031
,
1000
0100
0010
0001
,
2002
0000
0000
3003
,
0001
0010
1000
0000
1000
0010
0001
0000
,
1000
0000
0010
0100
0000
0000
0110
0000
0000
0000
0010
0000
0001
0000
0000
0000
,
0100
0000
1000
0000
0001
0010
0100
1000
,
0001
0000
0100
0001
0000
0000
0101
0000
0000
0000
0001
0000
1000
0000
0000
0000
,
0100
0000
0010
0000
1000
0010
0100
0000
,
1000
0000
0001
1000
0000
0000
1001
0000
0000
0000
0100
0000
0010
0000
0000
0000
,
0100
0000
0001
0000
1000
0010
0100
0001
,
0010
0000
0001
0100
0000
0000
0101
0000
0000
0000
0100
0000
0010
0000
0000
0000
,
1000
0000
0001
0000
1000
0001
0010
0000
,
0001
0000
1000
0010
0000
0000
1010
0000
0000
0000
1000
0000
0100
0000
0000
0000
,
1000
0000
0001
0000
0010
0000
0001
0100
,
0010
0000
1000
0001
0000
0000
0110
0000
0000
0000
0100
0000
0010
0000
0000
0000
,
0100
0000
0100
1000
0010
0000
0100
0001
,
0010
0000
0001
1000
0000
0000
0011
0000
0000
0000
0100
0000
0001
0000
0000
0000
,
1000
0000
0001
0000
0100
0010
1000
0100
,
0010
0000
0001
0100
0000
0000
0101
0000
0000
0000
0000
0000
0000
0000
0000
0000
;

//---------------dance-double - ----------------
#NOTES:
     dance-double:
     :
     Beginner:
     1:
     :
00000000
00000000
00000000
00000000
,
00000000
00000000
00000000
00000000
,
00000000
00000000
00000000
00000000
,
00000000
00000000
00000000
00000000
,
00000000
00000000
00000000
00000000
,
00001000
00000000
00000000
00000000
,
00000001
00000000
00000000
00000000
,
00001000
00000000
00000000
00000000
,
00000010
00000000
00000000
00000000
,
00000100
00000100
00000000
00000000
,
00000010
00000000
00010000
00000000
,
00000000
00001000
00001000
00000000
,
00100000
00000000
00010000
00000000
,
10000000
10000000
00000000
00000000
,
00100000
00000000
00010000
00000000
,
01000000
01000000
00000000
00000000
,
00010000
00000000
00000000
00000000
,
00100000
00000000
00000000
00000000
,
00001000
00000000
00000000
00000000
,
00010000
00000000
00010000
00000000
,
00000100
00000000
00000000
00000000
,
00001000
00000000
00000000
00000000
,
00000010
00000000
00000000
00000000
,
00000100
00000000
00000100
00000000
,
00000001
00000000
00000000
00000000
,
00001000
00000000
00000010
00000000
,
00000100
00000000
00000100
00000000
,
00000001
00000000
00001000
00000000
,
00000100
00000000
00000000
00000000
,
00010000
00000000
00001000
00000000
,
00100000
00000000
00010000
00000000
,
01000000
00000000
00000000
00000000
,
00100000
00000000
00000000
00000000
,
10000000
10000000
00000000
00000000
,
00100000
00000000
01000000
00000000
,
00001000
00001000
00000000
00000000
,
00010000
00000000
00000000
00000000
,
00001000
00001000
00000000
00000000
,
00000100
00000000
00000010
00000000
,
00001000
00001000
00000000
00000000
,
00000001
00000000
00000010
00000000
,
00001000
00001000
00000000
00000000
,
00000100
00000000
00010000
00000000
,
00001000
00001000
00000000
00000000
,
00100000
00000000
00010000
00000000
,
01000000
01000000
00000000
00000000
,
00100000
00000000
10000000
00000000
,
00010000
00010000
00000000
00000000
,
10000000
00000000
00010000
00000000
,
00100000
00000000
00000000
00000000
;

//---------------dance-double - ----------------
#NOTES:
     dance-double:
     :
     Easy:
     3:
     :
00000000
00000000
00000000
00000000
,
00000000
00000000
00000000
00000000
,
00000000
00000000
00000000
00000000
,
00000000
00000000
00000000
00000000
,
00000000
00000000
00000000
00000000
,
00001000
00000000
00001000
00000000
,
00010000
00000000
00010000
00000000
,
00100000
00000000
01000000
00000000
,
20000000
00000000
00000000
30000000
,
01000000
01000000
01000000
00000000
,
00010000
00000000
00001000
00000000
,
00010000
00010000
00010000
00000000
,
00001000
00000000
00000100
00000000
,
00000001
00000001
00000001
00000000
,
00001000
00000000
00000100
00000000
,
00010000
00010000
00010000
00000000
,
00002000
00000000
00000000
00003000
,
00010000
00001000
00010000
00100000
,
01000000
00100000
10000000
00000000
,
00100000
00010000
01000000
00010000
,
00001000
00010000
00002000
00003000
,
00020000
00030000
00000100
00000010
,
00000100
00001000
00000001
00000100
,
00002000
00003000
00020000
00030000
,
00001000
00001000
00100000
00100000
,
00010000
00000000
10000000
00100000
,
10000000
01000000
00010000
00001000
,
00010000
00000000
00000100
00000100
,
00001000
00000000
00000001
00000001
,
00000010
00000000
00000001
00001000
,
00000100
00000000
00010000
00001000
,
00010000
00000000
00200000
00300000
,
00020000
00030000
20000000
30000000
,
01000000
00100000
00010000
01000000
,
00001000
00000000
00010000
00000000
,
00001000
00000100
00000001
00000100
,
00000010
00000000
00000001
00000000
,
00000100
00001000
00010000
00001000
,
00100000
00000000
00010000
00000000
,
00100000
01000000
10000000
01000000
,
10010000
00000000
00000000
00000000
,
00001000
00010000
00010000
00000000
,
00000100
00000000
00001001
00000000
,
00000010
00000100
00000100
00000000
,
00010000
00000000
00011000
00000000
,
01000000
00010000
00100000
00000000
,
00010000
00000000
10000000
00000000
,
01000000
00010000
00001000
00000000
,
00000100
00000000
00000010
00000000
,
00001001
00000000
00000000
00000000
;

//---------------dance-double - ----------------
#NOTES:
     dance-double:
     :
     Medium:
     5:
     :
00000000
00000000
00000000
00000000
,
00000000
00000000
00000000
00000000
,
00000000
00000000
00000000
00000000
,
00000000
00000000
00000000
00000000
,
00000000
00000000
00000000
00000000
,
00000001
00001000
00000100
00000010
,
00000100
00000100
00000100
00000000
00010000
00000000
00001000
00000000
,
00100000
00000000
00010000
00000000
02000000
00000000
03100000
00100000
,
10000000
00000000
00010000
00000000
20000000
00000000
31000000
00010000
,
00001000
00010000
00000010
00000100
,
00000010
00001000
00000010
00000000
00000100
00000001
00000100
00000000
,
00001000
00010000
00001000
00100000
,
01000000
01100000
10000000
10010000
,
00010000
00000000
01000000
00000000
00001000
00001000
00001000
00000000
,
00010000
00000000
00000100
00000000
00000010
00000010
00000010
00000000
,
00000001
00000100
00000010
00001000
,
00000001
00000000
00000100
00000010
00000100
00000000
00001000
00000000
,
00010000
00000000
00001000
00010000
00001000
00000000
00100000
00000000
,
00010000
00000000
01000000
00010000
01000000
00000000
00100000
00000000
,
10000000
10000000
01000000
00010000
,
00001000
00000100
00000110
00000000
,
00001001
00000000
00001000
00000001
,
00001000
00000100
00001000
00000000
00011000
00000000
00000000
00000000
,
00110000
00000000
00010000
00000000
01000000
00100000
01000000
00100000
,
10000000
00000000
01000000
00000000
00100000
00010000
00100000
00000000
,
00002000
00000000
00013000
00001000
,
00010000
00000100
00001000
00000000
00000100
00000000
00000010
00000000
,
00000001
00000001
00000100
00000010
,
00000010
00001000
00000100
00000000
00000100
00010000
00001000
00000000
,
00011000
00000000
00100000
00010000
,
01000000
00100000
01000000
00000000
00100000
00000000
10000000
00000000
,
01000000
10000000
01000000
00000000
00010000
00000000
00001000
00000000
,
00010000
00000100
00000010
00000100
,
00000001
00000001
00000100
00000100
,
00001000
00010000
00001000
00000000
00011000
00000000
00011000
00000000
,
01000000
00000000
01000000
00000000
00010000
01000000
00010000
00000000
,
00100000
01100000
10000000
10010000
,
01100000
00000000
00010000
00000000
00001000
00010000
00001000
00000000
,
00010000
00000100
00000010
00000100
,
00001001
00000010
00001001
00000100
,
00002000
00000000
00010000
00013000
,
00100000
01000000
01000000
00000000
00010000
10000000
10000000
00000000
,
01000000
00010000
00001000
00010000
,
00001000
00000100
00000100
00000000
00000010
00000100
00000100
00000000
,
00000001
00000100
00000010
00001000
,
00000100
00001000
00000100
00000000
00010000
00001000
00010000
00000000
,
00001000
00010000
00001000
00000000
00100000
00010000
00100000
00000000
,
01000000
01000000
00100000
00000000
10000000
10000000
00100000
00000000
,
10000000
01000000
00010000
00001000
,
00011000
00000000
00000000
00000000
;

//---------------dance-double - ----------------
#NOTES:
     dance-double:
     :
     Hard:
     7:
     :
00000000
00000000
00000000
00000000
,
00000000
00000000
00000000
00000000
,
00000000
00000000
00000000
00000000
,
00000000
00000000
00000000
00000000
,
00000000
00000000
00000000
00000000
,
00100000
00000000
10000000
00000000
00010000
00000000
00001000
00010000
,
00001000
00100000
00001000
00010000
,
00000100
00000010
00000001
00000100
,
00001000
00010000
00001000
00000010
,
00001000
00010000
00001000
00000000
00100000
00000000
00101000
00000000
,
00010000
01010000
20200000
30300000
,
00100000
10000000
01000000
00010000
00001000
00000000
00010000
00000000
,
00011000
00010100
00001100
00000110
,
00000010
00000001
00001000
00000100
00010000
00000000
00100000
00000000
,
00012000
00003000
00010000
01000000
10000000
00000000
00010000
00000000
,
00100000
10000000
00010000
01000000
00001000
00000000
00000010
00000000
,
00021000
00030000
00001000
00000100
00000001
00000000
00000110
00000000
,
00001000
00000000
00000001
00000100
00001000
00000000
00100000
00010000
,
01000000
00000000
00100000
01000000
00010000
00000000
10000000
01000000
,
00010000
00000000
00001000
00010000
00000010
00000000
00010000
00001000
,
00100000
00010000
00001000
01001000
,
00010000
00000000
00011000
00000000
00000010
00001000
00000100
00000000
,
00000010
00000100
00001000
00000000
00000001
00000100
00001000
00010000
,
01000000
10000000
00010000
00000000
00100000
00001000
00010000
00000000
,
01000000
10000000
01000000
00000000
00010000
00001000
00000100
00000000
,
00000001
00000010
00000001
00000000
00001000
00000100
00000001
00000000
,
00001000
00000010
00000001
00000000
00000100
00000000
00001000
00000000
,
00010000
00000000
00100000
00000000
10000000
00100000
00010000
00000000
,
10000000
01000000
00010000
00000000
10000000
00000000
01000000
00000000
,
00010000
00000000
00001000
00000000
00000100
00000010
00000100
00000000
,
00000001
00000100
00001000
00000100
00000001
00000000
00001000
00000000
,
00000010
00010000
00001000
00000000
00010000
00100000
10000000
00100000
,
00010000
00001000
00101000
00010000
,
01000000
00010000
10000000
00000000
00100000
00000000
01010000
00000000
,
11000000
00000000
10000000
01000000
00010000
00000000
00001000
00000000
,
00011000
00010100
00011000
00000010
,
00001000
00000001
00000010
00000001
00000100
00001000
00010000
00000000
,
00001000
00101000
00010000
01010000
,
00010000
10000000
00100000
10000000
01000000
00010000
00001000
00000000
,
00010000
00010100
00001000
00001010
,
00010000
00000100
00010000
00001000
,
00000010
00001000
00000001
00000000
00000100
00000000
00001010
00000000
,
00000101
00000000
00000001
00000100
00001000
00000000
00010000
00000000
,
00011000
00110000
00011000
01000000
,
00010000
10000000
01000000
10000000
00100000
00010000
00001000
00000000
,
00010000
00010100
00001000
00001100
,
00001000
00000001
00000100
00000001
00000010
00001000
00010000
00000000
,
00001000
00101000
00010000
01010000
,
10100000
01000000
01010000
00010000
,
00011000
00000000
00000000
00000000
;
