
//----- song ID: hand -----//
#TITLE:Handle Your Business;
#ARTIST:Starla Marie feat. Coco J;
#BANNER:Handle Your Business.png;
#BACKGROUND:Handle Your Business-bg.png;
#CDTITLE:./CDTITLES/DanceDanceRevolution UNIVERSE2.png;
#MUSIC:Handle Your Business.ogg;
#SAMPLESTART:37.895;
#SAMPLELENGTH:15;
#BPMS:0=95;
#BGCHANGES:0=Handle Your Business-bg.png=1=0=0=1,4=Handle Your Business.avi=1=0=0=0;

//---------------dance-single - ----------------
#NOTES:
     dance-single:
     :
     Beginner:
     1:
     :
0000
0000
0000
0000
,
0000
0000
0000
0000
,
0000
0000
0000
0000
,
1000
0000
0000
0000
,
0100
0000
0000
0000
,
0010
0000
0000
0000
,
0001
0000
0000
0000
,
0100
0000
0100
0000
,
0100
0000
0000
0000
,
0010
0000
0010
0000
,
0010
0000
0000
0000
,
1000
0000
0001
0000
,
1000
0000
0000
0000
,
0001
0000
1000
0000
,
0001
0000
0000
0000
,
1000
0000
0000
0000
,
0010
0000
0000
0000
,
0100
0000
0000
0000
,
0001
0000
0000
0000
,
1000
1000
1000
0000
,
1000
0000
0000
0000
,
0100
0100
0100
0000
,
0100
0000
0000
0000
,
0001
0000
0000
0000
,
0010
0000
0000
0000
,
1000
0000
0000
0000
,
0100
0000
0000
0000
,
0001
0000
0000
0000
,
0100
0000
0000
0000
,
1000
0000
0000
0000
,
0010
0010
0010
0000
,
0010
0000
0000
0000
,
1000
0000
0000
0000
,
0001
0000
0000
0000
,
0100
0100
0100
0000
,
0100
0000
0000
0000
,
0001
0000
0000
0000
,
0010
0000
0000
0000
,
1000
0000
0000
0000
,
0010
0010
0000
0000
,
1000
1000
0000
0000
,
0001
0001
0000
0000
,
0100
0100
0000
0000
,
0001
0000
1000
0000
,
0001
0000
0000
0000
,
0010
0000
0100
0000
,
0010
0000
0100
0000
,
0010
0000
0000
0000
;

//---------------dance-single - ----------------
#NOTES:
     dance-single:
     :
     Easy:
     3:
     :
0000
0000
0000
0000
,
0000
0000
0000
0000
,
0000
0000
0000
0000
,
0010
1000
0100
0000
,
0010
0001
0100
0000
,
0001
0001
0001
0000
,
1000
1000
1000
0000
,
0100
0000
0010
0000
,
0001
0000
1000
0000
,
0010
0000
0100
0000
,
0001
0000
1000
0000
,
0100
1000
0001
0000
,
0100
0001
1000
0000
,
0010
1000
0001
0000
,
0010
0001
1000
0000
,
0100
0000
0010
0000
,
0001
0000
1000
0000
,
0010
0000
0010
0000
,
0010
0000
0100
0100
,
0001
0000
0010
0000
,
0100
0000
1000
0000
,
0010
0000
0010
0000
,
0010
0000
0100
0100
,
0010
1000
0010
0000
,
0100
0000
0001
0000
,
0010
0001
0010
0000
,
0100
0000
1000
0000
,
0100
1000
0100
0000
,
0010
0000
0001
0000
,
0100
0001
0100
0000
,
0010
0000
1000
0000
,
0100
0000
1000
0000
,
0100
0000
0001
0000
,
0010
0000
1000
0000
,
0010
0000
0001
0000
,
0100
1000
0100
0000
,
0100
0001
0100
0000
,
0010
1000
0010
0000
,
0010
0001
0010
0000
,
0100
1000
0010
0000
,
0100
0001
0010
0000
,
0200
0000
0300
0100
,
2000
0000
3000
1000
,
0002
0000
0003
0001
,
0020
0000
0030
0010
,
0100
0000
1000
0000
,
0010
0000
0001
0000
,
0100
0000
0000
0000
;

//---------------dance-single - ----------------
#NOTES:
     dance-single:
     :
     Medium:
     5:
     :
0000
0000
0000
0000
,
0000
0000
0000
0000
,
0000
0000
0000
0000
,
0010
0000
0100
0000
1000
1000
1000
0000
,
0010
0000
0100
0000
0001
0001
0001
0000
,
1000
0000
1100
0000
0010
0001
0010
0000
,
0001
0101
1100
0101
,
0010
0000
1000
0000
0001
0001
0001
0000
,
0010
0000
0001
0000
1000
1000
1000
0000
,
0100
0000
0110
0000
0010
0001
1000
0000
,
0010
0110
1001
0110
,
1000
0000
0000
0000
0100
0010
0100
0010
,
0001
0000
0000
0000
0100
0010
0100
0010
,
1000
0000
0000
0000
0100
0010
0100
0010
,
0001
0100
1000
0100
,
0001
0000
1000
0000
0000
0010
0010
0000
,
1000
0000
0001
0000
0000
0010
0010
0000
,
0100
0000
0010
0000
0000
0001
1000
0000
,
0010
0000
0100
0000
0010
1000
0100
0001
,
0010
0000
0001
0000
0000
1000
1000
0000
,
0010
0000
1000
0000
0000
0001
0001
0000
,
0100
0000
0010
0000
0000
1000
0001
0000
,
0010
0000
0100
0000
0010
0001
0100
1000
,
0010
0000
1000
1000
1000
0000
0100
0000
,
0010
0000
0001
0001
0001
0000
0000
0000
,
0100
0000
0010
0010
0010
0000
1000
0000
,
0001
0000
0100
0100
0100
0000
0000
0000
,
0010
0000
1000
0001
0100
0000
0001
0000
,
0010
0000
0001
1000
0010
0000
0000
0000
,
1000
0000
0100
0010
0001
0000
0100
0010
,
1000
0100
0100
0100
,
1000
0000
1000
0000
0001
0100
0001
0000
,
0010
0000
0010
0000
0100
1000
0100
0000
,
1000
0000
0010
0000
0100
0001
1000
0000
,
0010
0000
1000
0000
0001
0100
0010
0000
,
0100
0000
0001
0000
0010
0100
1000
0000
,
0001
0000
1000
0000
0010
0100
0001
0000
,
1000
0100
1000
0010
,
0100
0001
0010
0001
,
1000
0010
0200
0300
,
0001
0010
0200
0300
,
1000
0000
0001
1000
0001
0000
0100
0000
,
0010
0000
1000
0001
1000
0000
0100
0000
,
0010
0001
0100
1000
,
0010
1000
0100
0001
,
0010
0011
0100
1100
,
0010
1010
0100
0101
,
1001
0000
0000
0000
;

//---------------dance-single - ----------------
#NOTES:
     dance-single:
     :
     Hard:
     7:
     :
0000
0000
0000
0000
,
0000
0000
0000
0000
,
0000
0000
0000
0000
,
0001
1000
0100
1000
0010
0100
0001
0000
,
0010
0100
0010
0001
1000
0010
0100
0000
,
0001
0010
0100
1000
0001
1000
0010
0000
,
0100
0000
0001
0000
0010
0000
0001
0000
1000
0000
0001
0010
0001
0000
1000
0100
,
1000
0010
0100
0001
1000
0100
0010
0000
,
0100
1000
0001
0010
0001
0100
0010
0000
,
1000
0001
0100
0010
1000
0001
0010
0000
,
0001
0000
0100
0000
0010
0000
1000
0000
0100
0000
0010
0001
0010
0000
0100
1000
,
0100
0000
0000
0000
0010
0001
0100
0010
,
1000
0000
0000
0000
0010
1000
0100
0010
,
0001
0000
0000
1000
0001
0100
0001
0010
,
0100
0000
1000
0000
0001
0000
1000
0100
,
0010
0000
0100
1000
0001
0100
0010
0100
,
0001
0000
0010
0100
0010
0001
0100
0010
,
1000
0000
0001
1000
0001
0010
0100
1000
,
0001
0000
0000
0000
1000
0000
0001
0000
0010
0100
0010
0000
0001
0000
0100
0000
,
0010
0000
1000
0100
1000
0001
0100
0001
,
0010
0000
0100
0010
0001
0010
0100
1000
,
0001
0000
0100
0010
1000
0001
1000
0100
,
1000
0000
0000
0000
0010
0000
1000
0000
0001
0010
0001
0000
0100
0000
0010
0000
,
1000
0000
0100
0000
1000
0000
0001
0000
0020
0000
0000
0001
0000
0000
0001
0000
,
0032
0000
0000
0000
1000
0000
1000
0000
1003
0000
0000
0000
0010
0000
1000
0100
,
0010
0001
1000
0001
0100
0010
1000
0100
,
0010
0010
0010
0010
0100
0000
1000
0001
,
0010
0000
0001
1000
0010
0000
0100
0001
,
0010
0000
0001
0000
1000
0000
0010
0000
0100
0000
0001
0000
1000
0000
0010
1000
,
0001
0000
0010
0000
0100
0000
1000
0001
1000
0001
0100
0000
0010
0000
1000
0001
,
0100
0000
0000
0010
1000
0000
0000
0100
0010
0000
0000
0001
1000
0000
0010
0000
,
0100
0000
0001
0010
0001
0000
0100
0000
0010
0000
1000
0000
0001
0000
0010
0000
,
0100
1000
0100
0010
0001
1000
0020
0000
,
0130
0001
0010
0001
1000
0100
0010
0001
,
1000
0000
0100
0010
0100
0000
1000
0000
0010
0000
0100
0000
0001
0000
0010
0000
,
0100
0000
1000
0001
0010
0000
0100
0000
0010
0000
0001
0000
1000
0000
0010
0000
,
0100
0010
1000
0100
1000
0001
0020
0000
,
0130
1000
0001
0100
0001
1000
0010
1000
,
0100
0000
0010
0001
1000
0000
0010
0000
0100
0000
0010
0000
1000
0000
0100
0000
,
0010
0000
0001
1000
0010
0000
0100
0000
0010
1000
0000
0001
0000
0000
0000
0000
,
1000
0000
0001
0000
0010
0000
0001
0000
1000
0100
0000
0010
0000
0000
0001
0000
,
0100
0000
0001
0000
1000
0010
0100
0010
1000
0000
0001
0000
1000
0100
0010
0100
,
1000
0000
0100
0000
0010
0001
1000
0001
0010
0000
0001
0000
0100
0000
0001
0000
,
1000
0100
0010
0000
0001
0010
0100
1000
,
0010
0000
0100
0001
0010
0000
0001
1000
,
0010
0000
1000
0100
0010
0000
0001
1000
,
0001
0000
0000
0000
0100
0000
0010
0000
1000
0001
1000
0000
0100
0000
0010
0000
,
0100
0000
0000
0000
;

//---------------dance-double - ----------------
#NOTES:
     dance-double:
     :
     Beginner:
     1:
     :
00000000
00000000
00000000
00000000
,
00000000
00000000
00000000
00000000
,
00000000
00000000
00000000
00000000
,
00100000
00000000
00000000
00000000
,
10000000
00000000
00000000
00000000
,
01000000
00000000
00000000
00000000
,
00010000
00000000
00000000
00000000
,
00001000
00000000
00010000
00000000
,
00001000
00000000
00000000
00000000
,
00000100
00000000
00000010
00000000
,
00000100
00000000
00000000
00000000
,
00000001
00000000
00001000
00000000
,
00000001
00000000
00000000
00000000
,
00000100
00000000
00000010
00000000
,
00000100
00000000
00000000
00000000
,
00001000
00000000
00000000
00000000
,
00010000
00000000
00000000
00000000
,
01000000
00000000
00000000
00000000
,
10000000
00000000
00000000
00000000
,
00100000
00100000
00100000
00000000
,
00100000
00000000
00000000
00000000
,
01000000
01000000
01000000
00000000
,
01000000
00000000
00000000
00000000
,
00001000
00000000
00000000
00000000
,
00010000
00000000
00000000
00000000
,
00000100
00000000
00000000
00000000
,
00000010
00000000
00000000
00000000
,
00000001
00000000
00000000
00000000
,
00000100
00000000
00000000
00000000
,
00000010
00000000
00000000
00000000
,
00010000
00010000
00010000
00000000
,
00010000
00000000
00000000
00000000
,
00001000
00000000
00000000
00000000
,
00100000
00000000
00000000
00000000
,
01000000
01000000
01000000
00000000
,
01000000
00000000
00000000
00000000
,
10000000
00000000
00000000
00000000
,
00100000
00000000
00000000
00000000
,
00010000
00000000
00000000
00000000
,
00100000
00100000
00000000
00000000
,
10000000
10000000
00000000
00000000
,
01000000
01000000
00000000
00000000
,
00010000
00010000
00000000
00000000
,
00001000
00000000
00010000
00000000
,
00001000
00000000
00000000
00000000
,
00000100
00000000
00000010
00000000
,
00000100
00000000
00000010
00000000
,
00000100
00000000
00000000
00000000
;

//---------------dance-double - ----------------
#NOTES:
     dance-double:
     :
     Easy:
     3:
     :
00000000
00000000
00000000
00000000
,
00000000
00000000
00000000
00000000
,
00000000
00000000
00000000
00000000
,
00000010
00000000
00000001
00000000
,
00000100
00000000
00000010
00000000
,
00010000
00001000
00010000
00000000
,
00001000
00010000
00001000
00000000
,
00100000
00000000
01000000
00000000
,
10000000
00000000
00100000
00000000
,
10000000
00000000
01000000
00000000
,
00010000
00000000
00001000
00000000
,
00000100
00000100
00000100
00000000
,
00000010
00000010
00000010
00000000
,
00010000
00001000
00010000
00000000
,
00001000
00010000
00001000
00000000
,
00100000
00000000
00010000
00000000
,
10000000
00000000
01000000
00000000
,
00010000
00000000
00001000
00000000
,
00000100
00000000
00000001
00000001
,
00000010
00000000
00000100
00000000
,
00010000
00000000
00001000
00000000
,
01000000
00000000
00100000
00000000
,
01000000
00000000
00100000
00100000
,
10000000
01000000
00010000
00000000
,
01000000
00000000
00100000
00000000
,
00001000
00010000
00001000
00000000
,
00000100
00000000
00000001
00000000
,
00000010
00000100
00000010
00000000
,
00000001
00000000
00000100
00000000
,
00001000
00010000
00001000
00000000
,
00100000
00000000
01000000
00000000
,
10000000
00000000
00010000
00000000
,
01000000
00000000
00100000
00000000
,
10000000
00000000
01000000
00000000
,
00100000
00000000
00001000
00000000
,
00010000
00001000
00010000
00000000
,
00000100
00000010
00000100
00000000
,
00001000
00000001
00001000
00000000
,
00000100
00000010
00000100
00000000
,
00010000
00001000
00100000
00000000
,
01000000
10000000
00100000
00000000
,
01000000
00000000
00000000
10000000
,
00100000
00000000
00000000
00010000
,
00001000
00000000
00000000
00000010
,
00000001
00000000
00000000
00000001
,
00000100
00000000
00000010
00000000
,
00010000
00000000
00001000
00000000
,
00010000
00000000
00000000
00000000
;

//---------------dance-double - ----------------
#NOTES:
     dance-double:
     :
     Medium:
     5:
     :
00000000
00000000
00000000
00000000
,
00000000
00000000
00000000
00000000
,
00000000
00000000
00000000
00000000
,
00000001
00000100
00000010
00010010
,
00010000
00000100
00000010
00000011
,
00000001
00001000
00000100
00010100
,
00010000
00001000
01000000
01010000
,
00010000
00000000
10000000
00000000
01000000
00100000
01000000
00000000
,
00010000
00000000
00001000
00000000
00000100
00000010
00000100
00000000
,
00000001
00000000
00001000
00000000
00000100
00010000
00000100
00000000
,
00001000
00000000
00000010
00000000
00010000
00001000
00010000
00000000
,
00001000
00000000
00000000
00000000
00000010
00000001
00000010
00000100
,
00010000
00000000
00000000
00000000
00001000
00100000
00010000
10000000
,
01000000
00000000
00000000
00000000
10000000
00100000
01000000
00001000
,
00010000
00001000
00100000
01000000
,
10000000
00000000
00100000
00000000
00000000
01000000
01000000
00000000
,
00001000
00000000
00010000
00000000
00000000
00000100
00000100
00000000
,
00000010
00000000
00000001
00000000
00001000
00001000
00000000
00000000
,
00000001
00000000
00000100
00000000
00000001
00000010
00001000
00010000
,
00001000
00000000
00100000
00000000
00000000
01000000
01000000
00000000
,
10000000
00000000
00100000
00000000
00000000
01000000
01000000
00000000
,
00001000
00000000
00010000
00000000
00000000
00100000
00100000
00000000
,
01000000
00000000
00010000
00000000
10000000
00100000
00010000
00001000
,
00010000
00000000
00000100
00001000
00000100
00000000
00000010
00000000
,
00000001
00000000
00000100
00000010
00000100
00000000
00000000
00000000
,
00000010
00000000
00010000
00001000
00010000
00000000
00001000
00000000
,
00100000
00000000
01000000
10000000
01000000
00000000
00000000
00000000
,
10000000
00000000
00100000
01000000
00001000
00000000
00010000
00000000
,
00000010
00000000
00010000
00001000
00100000
00000000
00000000
00000000
,
00010000
00000000
01000000
01000000
00010000
00000000
00100000
00100000
,
01000000
01000000
01000000
01000000
,
10000000
00000000
00100000
00000000
00010000
00001000
00010000
00000000
,
00000010
00000000
00000001
00000000
00001000
00000001
00001000
00000000
,
00000100
00000000
00010000
00000000
00001000
00100000
01000000
00000000
,
00100000
00000000
00001000
00000000
00010000
00000010
00000100
00000000
,
00000001
00000000
00000010
00000000
00000100
00010000
00001000
00000000
,
01000000
00000000
00001000
00000000
00100000
00010000
01000000
00000000
,
00100000
10000000
01000000
00010000
,
00001000
00000100
00000001
00000010
,
00000100
00010000
00002000
00003000
,
01000000
00010000
20000000
30000000
,
00100000
00000000
10000000
01000000
00100000
00000000
00001000
00000000
,
00010000
00000000
00000010
00000100
00000001
00000000
00000010
00000000
,
00000100
00010000
00000010
00000100
,
00000001
00000010
00001000
00010000
,
00100000
10000000
01000000
00000000
00100000
00000000
01100000
00000000
,
01000000
00100000
00001000
00000000
00010000
00000000
00011000
00000000
,
00011000
00000000
00000000
00000000
;

//---------------dance-double - ----------------
#NOTES:
     dance-double:
     :
     Hard:
     8:
     :
00000000
00000000
00000000
00000000
,
00000000
00000000
00000000
00000000
,
00000000
00000000
00000000
00000000
,
00100000
10000000
00100000
10000000
01000000
00010000
00001000
00000000
,
00000010
00000001
00000010
00000001
00000100
00001000
00010000
00000000
,
01000000
10000000
01000000
10000000
00100000
00010000
00001000
00000000
,
00000100
00000001
00000100
00000001
00000010
00001000
00010000
00000000
,
00001000
00010000
00000100
00000010
00000100
00010000
00001000
01000000
,
00100000
01000000
00001000
00010000
00000100
00000010
00000100
00000000
,
00000001
00000100
00001000
00000100
00000010
00010000
00001000
00010000
,
01000000
10000000
01000000
00100000
00001000
00010000
00001000
00000000
,
00010000
00000000
00000000
00000000
01000000
00000000
00000000
00000000
10000000
00000000
00100000
00000000
10000000
00010000
10000000
00000000
,
01000000
00000000
00000000
00000000
00010000
00000000
00000000
00000000
00001000
00000000
00000100
00000000
00000001
00001000
00000001
00000000
,
00000010
00000000
00000000
00000000
00001000
00000000
00000000
00000000
00010000
00000000
00000010
00000000
00001000
00000100
00001000
00000000
,
00000020
00002030
00003002
00000003
,
00000010
00000001
00000101
00000000
00000010
00010000
00011000
00000000
,
00100000
01000000
11000000
00000000
00100000
00010000
00011000
00000000
,
00000010
00001000
00001001
00000000
00000010
00000100
00010100
00000000
,
00001000
00000000
00000100
00000000
00000110
00000000
00000010
00000000
00000001
00001000
00000001
00000100
00000000
00000000
00000010
00000000
,
00010000
00001000
01001000
00000000
01000000
00100000
10100000
00000000
,
01000000
00010000
00011000
00000000
00000010
00000001
00000101
00000000
,
00000010
00010000
00010100
00000000
00001000
00000100
00000101
00000000
,
00000010
00000000
00010000
00000000
00011000
00000000
00001000
00000000
00100000
00010000
10000000
00010000
00000000
00000000
01000000
00000000
,
00100000
10000000
01000000
11000000
10010000
00000000
00010000
01000000
,
00001000
00000000
00000000
00000000
00010000
00000000
00000100
00000000
00001000
00000000
00000000
00000000
00000010
00000000
00000100
00000001
,
00000010
00000100
00010000
00001000
00000100
00000001
00000010
00000100
,
00010000
00001000
01000000
00100000
01000000
00000000
00010000
00100000
,
01000000
10000000
01000000
00100000
00001000
00100000
00010000
01000000
,
00001000
00000000
00010000
00000000
00000010
00000000
00001000
00000000
00000100
00000000
00000010
00000000
00000001
00000000
00000100
00000010
,
00010000
00000000
00001000
00000000
00100000
00000000
00010000
10000000
01000000
00100000
00010000
00000000
01000000
00000000
00100000
00000000
,
10000000
00000000
00000000
00100000
10000000
00000000
00000000
00001000
00010000
00000000
00000000
00000010
00001000
00000000
00000001
00000000
,
00000010
00000000
00000001
00001000
00000100
00000000
00001000
00000000
00000010
00000000
00000001
00000000
00000010
00000000
00010000
00000000
,
00001000
00100000
10000000
00100000
00010000
01000000
00100000
10000000
,
01000000
00000000
00100000
00001000
00010000
00000000
00100000
00000000
10000000
00000000
01000000
00000000
00100000
00000000
00001000
00000000
,
00010000
00000010
00001000
00000100
00010000
00001000
00100000
00000000
,
00001000
00000000
01000000
00010000
10000000
00000000
00100000
00000000
00010000
00000000
00001000
00000000
00000010
00000000
00000001
00000000
,
00001000
00000010
00010000
00000010
00000100
00000001
00000010
00000100
,
00010000
00000000
00001000
00100000
01000000
00000000
10000000
00000000
00010000
00000000
01000000
00000000
00001000
00000000
00010000
00000000
,
00000100
00000010
00000001
00000100
00001000
00010000
00000100
00000000
,
00000010
00000000
00000001
00000000
00000010
00000001
00001000
00000001
00000010
00000100
00000000
00001100
00000000
00000000
00001000
00000001
,
00000100
00000000
00001000
00000000
00010000
00001000
01000000
00001000
00100000
00010000
00000000
01010000
00000000
00000000
01000000
00100000
,
10000000
00000000
01000000
00000000
00100000
00000000
00001000
00000000
01000000
00000000
00010000
00000000
00100000
00000000
01000000
10000000
,
00100000
00000000
00010000
00000000
00001000
00000000
00000010
00000100
00001000
00000000
00000010
00000000
00000100
00000000
00000001
00000000
,
00000010
00000100
00010100
00000000
00001000
01000000
01100000
00000000
,
00010000
10000000
11000000
00000000
00100000
00001000
00011000
00000000
,
00000010
00001000
00001100
00000000
00000010
00000001
00001001
00000000
,
00000100
00000000
00000010
00000000
00010010
00000000
00010000
00000000
00001000
01000000
00100000
00000000
10000000
00000000
01000000
00000000
,
00100000
00000000
00000000
00000000
;
