#TITLE:Get Up! Give Up! Move On!;
#ARTIST:The Divys;
#BANNER:Get Up! Give Up! Move On!.png;
#BACKGROUND:Get Up! Give Up! Move On!-bg.png;
#CDTITLE:./CDTITLES/DanceDanceRevolution UNIVERSE2.png;
#MUSIC:Get Up! Give Up! Move On!.ogg;
#SAMPLESTART:35;
#SAMPLELENGTH:15;
#BPMS:0=144;

//---------------dance-single - ----------------
#NOTES:
     dance-single:
     :
     Beginner:
     1:
     :
0000
0000
0000
0000
,
0000
0000
0000
0000
,
0000
0000
0000
0000
,
0000
0000
0000
0000
,
0000
0000
0000
0000
,
1000
0000
0000
0000
,
1000
0000
0000
0000
,
1000
0000
0000
0000
,
0010
0000
0010
0000
,
0001
0000
0000
0000
,
0001
0000
0000
0000
,
0001
0000
0000
0000
,
0100
0000
0100
0000
,
1000
0000
0000
0000
,
1000
0000
1000
0000
,
0001
0000
0000
0000
,
0001
0000
0001
0000
,
1000
0000
0000
0000
,
1000
0000
1000
0000
,
0001
0000
0000
0000
,
0001
0000
0001
0000
,
0010
0000
0000
0000
,
0010
0000
0000
0000
,
0100
0000
0000
0000
,
0100
0000
0000
0000
,
0001
0000
0000
0000
,
1000
0000
0000
0000
,
1000
0000
0000
0000
,
0001
0000
0000
0000
,
1000
0000
0000
0000
,
1000
0000
0000
0000
,
1000
0000
0000
0000
,
0010
0000
0010
0000
,
0001
0000
0000
0000
,
0001
0000
0000
0000
,
0001
0000
0000
0000
,
0100
0000
0100
0000
,
1000
0000
0000
0000
,
1000
0000
1000
0000
,
0001
0000
0000
0000
,
0001
0000
0001
0000
,
1000
0000
0000
0000
,
1000
0000
1000
0000
,
0001
0000
0000
0000
,
0001
0000
0001
0000
,
0010
0000
0000
0000
,
0010
0000
0000
0000
,
0100
0000
0000
0000
,
0100
0000
0000
0000
,
0001
0000
0000
0000
,
1000
0000
0000
0000
,
1000
0000
0000
0000
,
0001
0000
0000
0000
,
0010
0000
0000
0000
,
0100
0000
0000
0000
,
0010
0000
0000
0000
,
0100
0000
0000
0000
,
0001
0000
0000
0000
,
1000
0000
0000
0000
,
0001
0000
0000
0000
,
1000
0000
0000
0000
;

//---------------dance-single - ----------------
#NOTES:
     dance-single:
     :
     Easy:
     2:
     :
0000
0000
0000
0000
,
0000
0000
0000
0000
,
0000
0000
0000
0000
,
0000
0000
0000
0000
,
0000
0000
0000
0000
,
0000
0001
0000
0001
,
0000
1000
0000
1000
,
0000
0001
0000
0001
,
1000
0000
1000
1000
,
0000
0001
0000
0001
,
0000
1000
0000
1000
,
0000
0001
0000
0001
,
1000
0000
1000
1000
,
0000
0010
0000
0010
,
0001
0001
1000
1000
,
0000
0100
0000
0100
,
1000
1000
0001
0001
,
0000
0010
0000
0010
,
0001
0001
1000
1000
,
0000
0100
0000
0100
,
1000
1000
0001
0001
,
0000
0010
0000
0010
,
0000
0100
0000
0100
,
0000
0001
0000
0001
,
0000
1000
0000
1000
,
0000
0010
0000
0010
,
0000
0100
0000
0100
,
0000
0001
0000
0001
,
0000
1000
0000
1001
,
0000
0001
0000
0001
,
0000
1000
0000
1000
,
0000
0001
0000
0001
,
1000
0000
1000
1000
,
0000
0001
0000
0001
,
0000
1000
0000
1000
,
0000
0001
0000
0001
,
1000
0000
1000
1000
,
0000
0010
0000
0010
,
0001
0001
1000
1000
,
0000
0100
0000
0100
,
1000
1000
0001
0001
,
0000
0010
0000
0010
,
0001
0001
1000
1000
,
0000
0100
0000
0100
,
1000
1000
0001
0001
,
0000
0010
0000
0010
,
0000
0100
0000
0100
,
0000
0001
0000
0001
,
0000
1000
0000
1000
,
0000
0010
0000
0010
,
0000
0100
0000
0100
,
0000
0001
0000
0001
,
0000
1000
0000
1000
,
0000
0010
0000
0001
,
0000
0100
0000
1000
,
0000
0010
0000
0001
,
0000
0100
0000
1000
,
0000
0010
0000
1000
,
0000
0100
0000
0001
,
0000
0010
0000
1000
,
0000
0100
0000
1001
;

//---------------dance-single - ----------------
#NOTES:
     dance-single:
     :
     Medium:
     4:
     :
0000
0000
0000
0000
,
0000
0000
0000
0000
,
0000
0000
0000
0000
,
0000
0000
0000
0000
,
0000
0000
0000
0000
,
0010
0001
0100
0110
,
0100
1000
0010
0110
,
1000
0000
0000
0110
0000
0000
0020
0000
,
1000
1000
0001
0031
,
0100
0001
0100
0110
,
0010
1000
0100
0110
,
0001
0000
0000
0110
0000
0000
0200
0000
,
0001
0001
1000
1300
,
0010
0100
0011
0100
,
0011
0011
1100
1100
,
0000
0010
1100
0010
,
1010
1010
0101
0101
,
0000
0100
1010
0100
,
0110
1001
0110
1001
,
1100
0000
0000
0110
0000
0000
0011
0000
,
0000
0000
0000
0000
,
1000
0001
0010
0001
,
0010
0000
0010
0000
1000
0100
0010
0000
,
1000
0001
0100
0001
,
0100
0000
0100
0000
0001
0010
0100
0010
,
0001
0001
0101
0000
,
0100
0000
0100
0000
0001
0010
0100
0000
,
1100
0000
0000
0101
0000
0000
1010
0000
,
0010
0000
0010
0000
0100
0010
0100
0010
,
1000
0000
0001
0000
1000
0100
0001
0000
,
0001
0010
0100
1000
,
0001
0000
1000
0000
0001
0010
1000
0000
,
0002
1000
0100
1003
,
0001
0000
1000
0000
0001
0010
1000
0000
,
1000
0100
0010
0001
,
1000
0000
0001
0000
1000
0100
0001
0000
,
2000
0001
0100
3001
,
0100
1000
0100
0000
0100
0001
0100
0000
,
0001
0001
1000
1000
,
0010
0001
0010
0000
0010
1000
0010
0000
,
1000
1000
0001
0001
,
0100
0010
0100
0000
0100
0010
0100
0000
,
0001
0001
1000
1000
,
0011
0000
0000
0110
0000
0000
1100
0000
,
0000
0000
0000
0000
,
0100
0010
0100
0000
1000
0100
0010
0000
,
0001
0000
1000
0000
0010
0001
1000
0000
,
0010
0000
0010
0000
1000
0100
0010
0100
,
1000
1000
1010
0000
,
0010
0100
0010
0000
1000
0010
0100
0000
,
0001
0000
1000
0000
0100
0001
1000
0000
,
0100
0010
0100
0000
1000
0010
0100
0010
,
1000
0000
0001
0000
1000
0001
1000
0001
,
1000
0100
0010
0001
,
0001
0010
0100
1100
,
0010
0110
1000
0011
,
0100
0010
0001
1010
,
0010
0110
0001
1010
,
0100
0010
1000
0101
,
0010
0100
0010
1000
,
0100
0010
0100
1001
;

//---------------dance-single - ----------------
#NOTES:
     dance-single:
     :
     Hard:
     6:
     :
0000
0000
0000
0000
,
0000
0000
0000
0000
,
0000
0000
0000
0000
,
0000
0000
0000
0000
,
0000
0000
0000
0000
,
1000
0100
0010
0100
1000
0000
1010
0000
,
1000
0010
0001
0010
1000
0000
1100
0000
,
0010
0100
0001
0010
0000
0010
0100
1000
,
0000
0100
0000
0010
0010
0000
0100
0000
,
0001
0010
0100
0010
0001
1000
0100
1000
,
0001
0100
1000
0100
0001
1000
0010
0000
,
0100
0000
1000
0000
1000
0100
0010
0001
,
0000
0010
0000
0100
0100
0000
0010
0010
,
0001
0000
0100
0100
0010
0000
0001
0010
,
0100
0020
0000
1000
0000
0001
0000
1030
,
0001
0001
0010
0010
0100
0100
1000
0100
,
0010
0200
0000
0001
0000
1000
0000
0301
,
0010
0010
0100
0000
1000
0000
0100
0100
,
0010
0002
0000
1000
0000
0100
0000
1003
,
1000
0100
0000
0100
1000
0000
1000
0001
,
0000
0000
0000
0000
,
0010
1000
0100
0010
0001
0000
0100
0000
,
1000
0100
0010
0001
0000
0010
0100
0000
,
0010
0001
0100
0010
1000
0010
0100
0001
,
1000
0010
0100
0001
0000
1000
0100
0000
,
0010
0001
0100
0010
1000
0000
0100
0000
,
0001
0100
0010
1000
0000
0010
0100
0000
,
0001
0010
0000
0010
0001
0000
0001
1000
,
0001
0010
0100
0000
1000
0000
0100
0000
1000
0000
0100
0000
1000
0000
0100
0000
,
1000
0010
0001
0100
,
1000
0010
0001
0100
,
1100
0000
0000
0110
0000
0000
0011
0001
,
0000
0020
0000
0100
0000
1000
0000
1030
,
0001
0100
1000
0010
,
0001
0100
1000
0010
,
0011
0000
0000
0110
0000
0000
1100
1000
,
0000
0200
0000
0010
0000
0001
0000
0301
,
1000
1010
0100
0101
,
0001
0002
0000
0010
0000
0100
0000
1003
,
0001
0000
0101
0000
0010
0000
1010
1000
,
0000
0200
0000
0010
0000
1000
0000
0301
,
1000
0001
1000
0000
0100
0000
0010
0001
,
0000
0020
0000
0100
0000
1000
0000
0031
,
1000
1000
0000
0100
0100
0000
0010
0010
,
0000
0000
0000
0000
,
0001
1000
0010
0100
0110
0000
0101
0000
,
0010
0100
1000
0100
0000
0010
0011
0000
,
0100
1000
0010
0100
0001
0100
0010
1000
,
0001
0100
0010
1000
0000
0001
0101
0000
,
1000
0001
0100
0010
0110
0000
1010
0000
,
0100
0010
0001
0010
0000
0100
1100
0000
,
0001
0110
0000
1000
0011
0000
0001
1100
,
1000
0100
0010
0000
0001
0000
0010
0000
0001
0000
0010
0000
0011
0000
0000
0000
,
1000
0000
1000
0100
0010
0000
0010
0100
,
0010
0000
0010
0001
0010
0000
0010
0100
,
0001
0000
0001
0010
0100
0000
0100
0010
,
0100
0000
0100
1000
0100
0000
0100
0010
,
1000
0000
1000
0010
0001
0000
0001
0010
,
1000
0000
1000
0100
0001
0000
0001
0100
,
1000
0100
0000
0100
0001
0000
0001
1000
,
1000
0100
0010
0000
0001
0000
0010
0000
0100
0000
0010
0000
0110
0000
0000
0000
;

//---------------dance-double - ----------------
#NOTES:
     dance-double:
     :
     Beginner:
     1:
     :
00000000
00000000
00000000
00000000
,
00000000
00000000
00000000
00000000
,
00000000
00000000
00000000
00000000
,
00000000
00000000
00000000
00000000
,
00000000
00000000
00000000
00000000
,
00001000
00000000
00000000
00000000
,
00001000
00000000
00000000
00000000
,
00001000
00000000
00000000
00000000
,
00010000
00000000
00010000
00000000
,
00001000
00000000
00000000
00000000
,
00010000
00000000
00000000
00000000
,
00010000
00000000
00000000
00000000
,
01000000
00000000
01000000
00000000
,
10000000
00000000
00000000
00000000
,
00100000
00000000
00100000
00000000
,
00010000
00000000
00000000
00000000
,
00001000
00000000
00001000
00000000
,
00000100
00000000
00000000
00000000
,
00000100
00000000
00000100
00000000
,
00000001
00000000
00000000
00000000
,
00001000
00000000
00001000
00000000
,
00000100
00000000
00000000
00000000
,
00000010
00000000
00000000
00000000
,
00000100
00000000
00000000
00000000
,
00001000
00000000
00000000
00000000
,
00010000
00000000
00000000
00000000
,
00100000
00000000
00000000
00000000
,
00100000
00000000
00000000
00000000
,
00010000
00000000
00000000
00000000
,
10000000
00000000
00000000
00000000
,
10000000
00000000
00000000
00000000
,
10000000
00000000
00000000
00000000
,
00100000
00000000
00100000
00000000
,
00010000
00000000
00000000
00000000
,
00010000
00000000
00000000
00000000
,
00010000
00000000
00000000
00000000
,
00001000
00000000
00001000
00000000
,
00000100
00000000
00000000
00000000
,
00001000
00000000
00001000
00000000
,
00000001
00000000
00000000
00000000
,
00000001
00000000
00000001
00000000
,
00001000
00000000
00000000
00000000
,
00001000
00000000
00001000
00000000
,
00010000
00000000
00000000
00000000
,
00001000
00000000
00001000
00000000
,
00100000
00000000
00000000
00000000
,
00100000
00000000
00000000
00000000
,
01000000
00000000
00000000
00000000
,
01000000
00000000
00000000
00000000
,
00010000
00000000
00000000
00000000
,
00001000
00000000
00000000
00000000
,
00001000
00000000
00000000
00000000
,
00000100
00000000
00000000
00000000
,
00000010
00000000
00000000
00000000
,
00000100
00000000
00000000
00000000
,
00000010
00000000
00000000
00000000
,
00000100
00000000
00000000
00000000
,
00010000
00000000
00000000
00000000
,
00001000
00000000
00000000
00000000
,
00010000
00000000
00000000
00000000
,
00001000
00000000
00000000
00000000
;

//---------------dance-double - ----------------
#NOTES:
     dance-double:
     :
     Easy:
     2:
     :
00000000
00000000
00000000
00000000
,
00000000
00000000
00000000
00000000
,
00000000
00000000
00000000
00000000
,
00000000
00000000
00000000
00000000
,
00000000
00000000
00000000
00000000
,
00000000
00001000
00000000
00001000
,
00000000
00010000
00000000
00010000
,
00000000
00001000
00000000
00001000
,
00000100
00000000
00000100
00000100
,
00000000
00000001
00000000
00000001
,
00000000
00001000
00000000
00001000
,
00000000
00010000
00000000
00010000
,
01000000
00000000
01000000
01000000
,
00000000
00100000
00000000
00100000
,
00010000
00010000
00001000
00001000
,
00000000
01000000
00000000
01000000
,
00010000
00010000
10000000
10000000
,
00000000
00100000
00000000
00100000
,
00010000
00010000
00001000
00001000
,
00000000
00000100
00000000
00000100
,
00001000
00001000
00000001
00000001
,
00000000
00000010
00000000
00000010
,
00000000
00000100
00000000
00000100
,
00000000
00010000
00000000
00010000
,
00000000
00001000
00000000
00001000
,
00000000
00000010
00000000
00000010
,
00000000
00000100
00000000
00000100
,
00000000
00010000
00000000
00010000
,
00000000
00001000
00000000
00011000
,
00000000
00100000
00000000
00100000
,
00000000
00010000
00000000
00010000
,
00000000
10000000
00000000
10000000
,
01000000
00000000
00010000
00010000
,
00000000
00001000
00000000
00001000
,
00000000
00010000
00000000
00010000
,
00000000
00001000
00000000
00001000
,
00100000
00000000
00100000
00100000
,
00000000
00010000
00000000
00010000
,
00001000
00001000
00010000
00010000
,
00000000
00000100
00000000
00000100
,
00001000
00001000
00000001
00000001
,
00000000
00000010
00000000
00000010
,
00000001
00000001
00001000
00001000
,
00000000
00010000
00000000
00001000
,
00010000
00010000
00001000
00001000
,
00000000
00100000
00000000
00100000
,
00000000
01000000
00000000
01000000
,
00000000
00010000
00000000
00010000
,
00000000
10000000
00000000
10000000
,
00000000
00100000
00000000
00100000
,
00000000
00001000
00000000
00001000
,
00000000
00010000
00000000
00010000
,
00000000
00001000
00000000
00001000
,
00000000
00000010
00000000
00000001
,
00000000
00000100
00000000
00001000
,
00000000
00100000
00000000
00010000
,
00000000
01000000
00000000
10000000
,
00000000
00100000
00000000
00010000
,
00000000
00000100
00000000
00000001
,
00000000
00000010
00000000
00001000
,
00000000
00010000
00000000
00011000
;

//---------------dance-double - ----------------
#NOTES:
     dance-double:
     :
     Medium:
     4:
     :
00000000
00000000
00000000
00000000
,
00000000
00000000
00000000
00000000
,
00000000
00000000
00000000
00000000
,
00000000
00000000
00000000
00000000
,
00000000
00000000
00000000
00000000
,
00000100
00001000
00000010
00000110
,
00000000
00000001
00000010
00000110
,
00001000
00000000
00000000
00011000
00000000
00000000
00200000
00000000
,
00010000
00010000
01000000
01300000
,
00010000
10000000
01000000
01100000
,
00100000
10000000
01000000
01100000
,
00010000
00000000
00000000
01100000
00000000
00000000
00020000
00000000
,
00001000
00001000
00100000
00130000
,
00001000
00010000
00011000
00000100
,
00011000
00011000
00001100
00001100
,
00000000
00000100
00000011
00000100
,
00001010
00001010
00011000
00011000
,
00000000
00010000
00001100
00001000
,
00110000
00011000
00001100
00011000
,
00110000
00000000
00000000
01100000
00000000
00000000
10100000
00000000
,
00000000
00000000
00000000
00000000
,
00100000
00010000
00001000
00010000
,
00001000
00000000
00001000
00000000
00000100
00000010
00000001
00000000
,
00000100
00001000
00000010
00001000
,
00000010
00000000
00000010
00000000
00001000
00000100
00000010
00000100
,
00001000
00001000
00011000
00000000
,
01000000
00000000
01000000
00000000
00001000
00000100
00010000
00000000
,
00011000
00000000
00000000
01010000
00000000
00000000
00110000
00000000
,
00001000
00000000
00001000
00000000
00010000
00001000
00010000
00001000
,
00100000
00000000
00010000
00000000
00100000
00001000
00010000
00000000
,
00010000
00001000
00000100
00000010
,
00001000
00000000
00000010
00000000
00010000
00001000
00010000
00000000
,
00020000
00001000
00001000
00031000
,
00000100
00000000
00001000
00000000
00000001
00000010
00001000
00000000
,
00000001
00000010
00000100
00001000
,
00000001
00000000
00001000
00000000
00000010
00000100
00000001
00000000
,
00002000
00000100
00000001
00003100
,
00000010
00001000
00000010
00000000
00000100
00000001
00000100
00000000
,
00010000
00010000
00001000
00001000
,
00100000
00010000
00100000
00000000
01000000
10000000
01000000
00000000
,
00010000
00010000
10000000
10000000
,
01000000
00010000
01000000
00000000
00100000
10000000
00100000
00000000
,
00010000
00010000
00001000
00001000
,
00011000
00000000
00000000
00001100
00000000
00000000
00000110
00000000
,
00000000
00000000
00000000
00000000
,
00000010
00000100
00000010
00000000
00000001
00000010
00000100
00000000
,
00001000
00000000
00000001
00000000
00000010
00001000
00000001
00000000
,
00000100
00000000
00000100
00000000
00010000
00001000
00000100
00001000
,
00010000
00001000
00011000
00000000
,
00010000
00001000
00010000
00000000
00100000
01000000
00100000
00000000
,
10000000
00000000
00010000
00000000
01000000
00010000
10000000
00000000
,
00100000
01000000
00100000
00000000
00010000
00100000
01000000
00100000
,
00010000
00000000
00100000
00000000
00001000
00010000
00001000
00010000
,
00001000
00000010
00000100
00001000
,
00001000
00000100
00000010
00000011
,
00000100
00000110
00000001
00001100
,
00000010
00000100
00001000
00000011
,
00000100
00001100
00000010
00001010
,
00000100
00010000
00001000
00011000
,
00100000
01000000
00100000
00010000
,
00001000
00000100
00001000
00001001
;

//---------------dance-double - ----------------
#NOTES:
     dance-double:
     :
     Hard:
     6:
     :
00000000
00000000
00000000
00000000
,
00000000
00000000
00000000
00000000
,
00000000
00000000
00000000
00000000
,
00000000
00000000
00000000
00000000
,
00000000
00000000
00000000
00000000
,
00001000
00000100
00000010
00000100
00001000
00000000
00011000
00000000
,
00001000
00100000
00010000
00100000
00001000
00000000
00011000
00000000
,
00100000
00010000
01000000
00100000
00000000
01000000
00100000
10000000
,
00000000
01000000
00000000
00100000
01000000
00000000
00100000
00000000
,
00010000
00001000
00100000
00001000
00010000
01000000
00100000
01000000
,
00010000
00100000
01000000
00100000
00010000
00001000
00010000
00000000
,
00001000
00000000
00000100
00000000
00000100
00000010
00000001
00000010
,
00000000
00000100
00000000
00001000
00001000
00000000
00000001
00000001
,
00001000
00000000
00000100
00000100
00000010
00000000
00001000
00000100
,
00000010
00000200
00000000
00000001
00000000
00001000
00000000
00000301
,
00001000
00001000
00000100
00000100
00000010
00000010
00001000
00010000
,
00001000
00020000
00000000
00001000
00000000
00001000
00000000
00031000
,
00100000
00100000
01000000
00000000
10000000
00000000
01000000
01000000
,
00100000
00020000
00000000
00001000
00000000
00001000
00000000
00031000
,
00001000
00100000
00000000
00100000
00010000
00000000
00010000
01000000
,
00000000
00000000
00000000
00000000
,
00100000
00010000
00001000
00100000
00010000
00000000
00001000
00000000
,
00010000
00001000
00100000
00010000
00000000
00100000
00001000
00000000
,
00100000
00010000
00001000
00100000
01000000
00100000
00001000
00010000
,
01000000
00100000
00001000
00010000
00000000
00001000
00010000
00000000
,
00000100
00011000
00000010
00000100
00000001
00000000
00000010
00000000
,
00001000
00000010
00000100
00001000
00000000
00000100
00000010
00000000
,
00000001
00000100
00000000
00000100
00000010
00000000
00000010
00000100
,
00010000
00001000
00010000
00000000
00001000
00000000
00010000
00000000
00001000
00000000
00010000
00000000
00001000
00000000
00010000
00000000
,
00001000
00010000
00000100
00000010
,
00000001
00000010
00000001
00000100
,
00001010
00000000
00000000
00001100
00000000
00000000
00011000
00010000
,
00000000
00002000
00000000
00010000
00000000
00010000
00000000
00013000
,
00100000
00010000
01000000
00100000
,
00010000
00001000
00010000
00100000
,
00110000
00000000
00000000
00011000
00000000
00000000
00001100
00010000
,
00000000
00002000
00000000
00010000
00000000
00010000
00000000
00013000
,
00001000
00110000
00100000
01100000
,
00010000
00020000
00000000
00100000
00000000
01000000
00000000
10030000
,
00010000
00000000
00011000
00000000
00000100
00000000
00001000
00001000
,
00000000
00000200
00000000
00000010
00000000
00001000
00000000
00000301
,
00001000
00000001
00001000
00000000
00000100
00000000
00010000
00001000
,
00000000
00200000
00000000
00010000
00000000
00010000
00000000
00310000
,
00100000
00100000
00000000
00010000
00010000
00000000
00001000
00001000
,
00000000
00000000
00000000
00000000
,
00001000
00000001
00000100
00000010
00000110
00000000
00001100
00000000
,
00000010
00000100
00001000
00000100
00000000
00010000
00011000
00000000
,
00010000
00001000
00100000
00001000
00010000
00001000
00100000
00001000
,
00010000
00000100
00010000
00001000
00000000
00010000
00011000
00000000
,
00000100
00001000
00000010
00000100
00000110
00000000
00000011
00000000
,
00000100
00010000
00001000
00010000
00000000
00000100
00001100
00000000
,
00010000
00011000
00000000
00010000
00011000
00000000
00001000
00011000
,
00001000
00010000
00000100
00000000
00001000
00000000
00000100
00000000
00001000
00000000
00000100
00000000
00001100
00000000
00000000
00000000
,
00010000
00000000
00010000
00100000
01000000
00000000
01000000
00100000
,
01000000
00000000
01000000
00010000
01000000
00000000
01000000
00100000
,
00010000
00000000
00010000
01000000
10000000
00000000
10000000
01000000
,
10000000
00000000
10000000
00100000
10000000
00000000
10000000
01000000
,
00100000
00000000
00100000
01000000
10000000
00000000
10000000
01000000
,
00010000
00000000
00010000
00100000
00010000
00000000
00010000
00001000
,
00000100
00001000
00000000
00001000
00000010
00000000
00000010
00001000
,
00001000
00000100
00000010
00000000
00000001
00000000
00000010
00000000
00000100
00000000
00000010
00000000
00000110
00000000
00000000
00000000
;
