
//----- song ID: firf -----//
#TITLE:Fire;
#ARTIST:Ferry Corsten;
#BANNER:Fire.png;
#BACKGROUND:Fire-bg.png;
#CDTITLE:./CDTITLES/DanceDanceRevolution UNIVERSE2.png;
#MUSIC:Fire.ogg;
#SAMPLESTART:16.364;
#SAMPLELENGTH:15;
#BPMS:0=132;

//---------------dance-single - ----------------
#NOTES:
     dance-single:
     :
     Beginner:
     1:
     :
0000
0000
0000
0000
,
0000
0000
0000
0000
,
0000
0000
0000
0000
,
0000
0000
0000
0000
,
0000
0000
0000
0000
,
1000
0000
0000
0000
,
0001
0000
0000
0000
,
1000
0000
0000
0000
,
0001
0000
1000
1000
,
0100
0000
0000
0000
,
0010
0000
0000
0000
,
0100
0000
0000
0000
,
1000
0000
0001
0000
,
0100
0000
0000
0000
,
0010
0000
0000
0000
,
0100
0000
0000
0000
,
0010
0000
1000
0000
,
0001
0000
0000
0000
,
0100
0000
0000
0000
,
0001
0000
0000
0000
,
1000
0000
0100
0000
,
1000
0000
0000
0000
,
0001
0000
0000
0000
,
1000
0000
0000
0000
,
0010
0000
0100
0100
,
0200
0000
0000
0300
,
0100
0000
0000
0000
,
0002
0000
0000
0003
,
0001
0000
0000
0000
,
2000
0000
0000
3000
,
1000
0000
0000
0000
,
0020
0000
0000
0030
,
0010
0000
0010
0010
,
0010
0000
0000
0000
,
0100
0000
0100
0000
,
0001
0000
0000
0000
,
1001
0000
0000
0000
,
1000
0000
0000
0000
,
0100
0000
0100
0000
,
0010
0000
0000
0000
,
0100
0000
0100
0100
,
0100
0000
0010
0000
,
0100
0000
0010
0000
,
0100
0000
0000
0000
,
1000
0000
0001
0000
,
1000
0000
0001
0000
,
1000
0000
0001
0000
,
1000
0000
0000
0000
,
0010
0000
0010
0010
,
0010
0000
0100
0000
,
0010
0000
0100
0000
,
0010
0000
0000
0000
,
1000
0000
0100
0000
,
1000
0000
0001
0000
,
1000
0000
0010
0000
,
0100
0000
0000
0000
,
0100
0000
0010
0000
,
0110
0000
0000
0000
;

//---------------dance-single - ----------------
#NOTES:
     dance-single:
     :
     Easy:
     3:
     :
0000
0000
0000
0000
,
0000
0000
0000
0000
,
0000
0000
0000
0000
,
0000
0000
0000
0000
,
0000
0000
0000
0000
,
1000
0000
0001
0000
,
1000
0000
0100
0000
,
0001
0000
0010
0000
,
0001
0001
0001
0001
,
0100
0000
0010
1000
,
0010
1000
0010
0100
,
0001
0000
1000
0000
,
0001
1000
0100
0000
,
0010
0000
0001
0010
,
0100
0010
0100
1000
,
0001
0000
1000
0010
,
1000
0000
0100
0001
,
0010
0000
0100
0001
,
0100
0001
0100
0010
,
1000
0000
0001
0000
,
1000
0001
0010
0000
,
0100
0000
1000
0100
,
0010
0100
0010
0001
,
1000
0000
0001
0100
,
0001
0000
0010
1000
,
0100
1000
0100
1000
,
1001
0000
0100
0100
,
0001
0100
0001
0010
,
1001
0000
0100
0100
,
0010
0100
0001
0100
,
1001
0000
1000
0100
,
1000
0010
0100
0001
,
1000
1000
0001
0001
,
2000
0000
3000
0000
,
0001
0100
0001
0100
,
0002
0000
0003
0000
,
0010
1000
0010
1000
,
0200
0000
0300
0000
,
0010
0001
0010
0001
,
0010
0000
0100
0000
,
1000
0100
0010
0001
,
1000
0100
1000
0000
,
0001
0100
0001
0000
,
0010
0100
0010
0100
,
1000
0100
0001
0100
,
1000
0100
1000
0000
,
0001
0010
0001
0000
,
0010
1000
0100
0001
,
0100
0001
0100
1000
,
0010
0000
0100
1000
,
0100
1000
0100
0010
,
0001
0000
1000
0000
,
0001
1000
0010
0000
,
0100
0000
0001
0100
,
0010
0100
0010
1000
,
0001
0000
1000
0100
,
1000
0000
0001
1000
,
1001
0000
0000
0000
;

//---------------dance-single - ----------------
#NOTES:
     dance-single:
     :
     Medium:
     6:
     :
0000
0000
0000
0000
,
0000
0000
0000
0000
,
0000
0000
0000
0000
,
0000
0000
0000
0000
,
0000
0000
0000
0000
,
1000
1000
1000
1000
,
0010
0010
0010
0010
,
0100
0001
0100
0001
,
1000
0000
0001
0000
0010
1000
0100
0000
,
0001
0100
1000
0010
,
1000
0100
0001
0010
,
1001
0100
1001
0100
,
0010
0000
1000
0000
0100
1000
0010
0000
,
1000
0100
0001
0010
,
0001
0100
1000
0010
,
1001
0100
1001
0100
,
0010
0000
0001
0000
0100
0001
0010
0001
,
1000
0100
0001
0010
,
0001
0100
1000
0010
,
0110
1000
0110
1000
,
0010
0000
0001
0000
0100
0001
0010
0000
,
0001
0100
1000
0010
,
1000
0100
0001
0010
,
0110
0001
0110
0001
,
0010
0000
1000
0000
0100
1000
0010
0100
,
0002
1000
1003
0010
,
0100
1000
0001
0000
0200
0000
0300
0000
,
0010
0001
0100
0000
0020
0000
1030
0000
,
1000
0100
0010
0000
0100
0000
0110
0000
,
0002
0100
0103
1000
,
0001
0010
0100
0000
0002
0000
0003
0000
,
0100
0010
1000
0000
0200
0000
1300
0000
,
1000
0100
0001
0000
0001
0100
1000
0100
,
1000
0001
0100
0010
,
0100
0001
0010
1000
,
0100
1000
0100
0001
,
2000
3010
0002
0013
,
0001
1000
0010
0100
,
0010
0001
0100
1000
,
0010
0001
0010
1000
,
2002
3003
0110
1001
,
0001
0010
1000
0000
0100
0000
0010
0000
,
0100
1000
0010
0000
0100
0000
0001
0000
,
0001
0010
1000
0000
0001
0000
1000
0000
,
1000
0010
0001
0000
1000
0000
0001
0000
,
1000
0100
0001
0000
0010
0000
0100
0000
,
0010
0001
0100
0000
0010
0000
1000
0000
,
1000
0100
0001
0000
1000
0000
0001
0000
,
0001
0100
1000
0000
0001
0000
1000
0000
,
0001
0010
1000
0100
,
1000
0010
0001
0100
,
0110
0001
0110
0001
,
0100
0000
1000
0000
0010
1000
0100
0000
,
1000
0010
0001
0100
,
0001
0010
1000
0100
,
0110
1000
0110
1000
,
0100
0000
0001
0000
0010
0001
0100
0001
,
1000
0000
0000
0000
;

//---------------dance-single - ----------------
#NOTES:
     dance-single:
     :
     Hard:
     7:
     :
0000
0000
0000
0000
,
0000
0000
0000
0000
,
0000
0000
0000
0000
,
0000
0000
0000
0000
,
0000
0000
0000
0000
,
1000
0100
0001
1000
,
0001
0100
1000
0001
,
0020
0000
0130
0010
,
0001
0000
1000
0000
0010
1000
0100
0010
,
0001
0000
0100
0000
0010
1000
0100
0020
,
0000
0000
0031
0000
0100
1000
0010
0200
,
0000
0000
0301
0000
0010
0100
1000
0001
,
0000
1000
0001
0000
1000
0000
0001
0000
,
1000
0000
0001
0000
0100
0010
1000
0100
,
0000
0000
1001
0000
0010
0100
1000
0020
,
0000
0000
0130
0000
0001
1000
0010
0100
,
0000
1000
0000
0010
0000
0100
0001
0000
,
0100
0000
1000
0000
0001
0100
1000
0020
,
0000
0000
0130
0000
1000
0100
0010
0002
,
0000
0000
1003
0000
0001
0100
1000
0010
,
0000
0100
0001
0000
0010
0000
0100
0000
,
1000
0000
0001
0000
1000
0100
0010
0002
,
0000
0000
1003
0000
0010
0100
0001
0010
,
0000
0000
0110
0000
1000
0010
0100
0010
,
0000
0001
0000
1000
0000
0001
0100
0000
,
1000
0100
1000
0010
0100
0001
0010
0100
,
1000
0000
0001
0000
1000
0001
0100
0010
,
1000
0100
0010
0001
1000
0001
1000
0010
,
0001
0000
0100
0000
0001
0010
0100
1000
,
0001
1000
0100
1000
0010
1000
0100
0001
,
0010
0000
0100
0000
1000
0010
0100
0001
,
0010
1000
0100
1000
0001
1000
0001
0010
,
0100
0011
0110
1100
,
1000
1000
0100
0000
0001
0000
0010
0000
,
1000
0000
0010
0000
0100
0001
1000
0100
,
0010
0010
0001
0000
0100
0000
1000
0000
,
0001
0000
0100
0000
0010
1000
0100
0010
,
0100
0100
1000
0000
0001
0000
0011
0000
,
1000
1010
0100
0110
,
0001
0001
1000
0000
0020
0000
0130
0000
,
2002
0000
3003
0000
1000
0001
1000
0001
,
1000
0010
0001
1000
,
0010
0000
0100
0000
0001
0010
0100
1000
,
0010
0000
0100
0000
0001
1000
0100
1000
,
0000
0010
0100
0000
0001
0000
0010
0000
,
1000
0001
0100
1000
,
0001
0000
0010
0000
0100
1000
0010
0100
,
0001
0000
0010
0000
0100
1000
0001
0100
,
0000
0010
0000
1000
0000
0001
0100
0000
,
1001
0000
0001
0000
1000
0010
0001
0200
,
0000
0000
0310
0000
0001
0010
0100
2000
,
0000
0000
3001
0000
1000
0010
0001
0100
,
0000
0010
1000
0000
0100
0000
0010
0000
,
0001
0000
1000
0000
0001
0010
0100
2000
,
0000
0000
3001
0000
0100
0010
1000
0100
,
0000
0000
0110
0000
0001
0100
0010
0100
,
0000
1000
0000
0001
0000
1000
0010
0000
,
0101
0000
0000
0000
;

//---------------dance-double - ----------------
#NOTES:
     dance-double:
     :
     Beginner:
     1:
     :
00000000
00000000
00000000
00000000
,
00000000
00000000
00000000
00000000
,
00000000
00000000
00000000
00000000
,
00000000
00000000
00000000
00000000
,
00000000
00000000
00000000
00000000
,
00010000
00000000
00000000
00000000
,
00001000
00000000
00000000
00000000
,
00010000
00000000
00000000
00000000
,
00001000
00000000
00010000
00010000
,
00000100
00000000
00000000
00000000
,
00000010
00000000
00000000
00000000
,
00000100
00000000
00000000
00000000
,
00001000
00000000
00000001
00000000
,
00000100
00000000
00000000
00000000
,
00001000
00000000
00000000
00000000
,
00010000
00000000
00000000
00000000
,
00001000
00000000
00100000
00000000
,
00010000
00000000
00000000
00000000
,
10000000
00000000
00000000
00000000
,
00100000
00000000
00000000
00000000
,
01000000
00000000
00010000
00000000
,
00100000
00000000
00000000
00000000
,
00001000
00000000
00000000
00000000
,
00010000
00000000
00000000
00000000
,
00000100
00000000
00001000
00001000
,
00002000
00000000
00000000
00003000
,
00001000
00000000
00000000
00000000
,
00000020
00000000
00000000
00000030
,
00000010
00000000
00000000
00000000
,
00000002
00000000
00000000
00000003
,
00000001
00000000
00000000
00000000
,
00002000
00000000
00000000
00003000
,
00001000
00000000
00010000
00010000
,
00010000
00000000
00000000
00000000
,
00001000
00000000
01000000
00000000
,
00100000
00000000
00000000
00000000
,
01100000
00000000
00000000
00000000
,
00100000
00000000
00000000
00000000
,
10000000
00000000
01000000
00000000
,
00100000
00000000
00000000
00000000
,
00001000
00000000
00010000
00010000
,
00010000
00000000
00001000
00000000
,
00010000
00000000
00000100
00000000
,
00000010
00000000
00000000
00000000
,
00001000
00000000
00000001
00000000
,
00001000
00000000
00000010
00000000
,
00010000
00000000
00001000
00000000
,
00010000
00000000
00000000
00000000
,
00001000
00000000
01000000
01000000
,
01000000
00000000
00010000
00000000
,
01000000
00000000
10000000
00000000
,
01000000
00000000
00000000
00000000
,
00010000
00000000
00100000
00000000
,
00001000
00000000
00010000
00000000
,
00000100
00000000
00000010
00000000
,
00000100
00000000
00000000
00000000
,
00000001
00000000
00001000
00000000
,
00001001
00000000
00000000
00000000
;

//---------------dance-double - ----------------
#NOTES:
     dance-double:
     :
     Easy:
     4:
     :
00000000
00000000
00000000
00000000
,
00000000
00000000
00000000
00000000
,
00000000
00000000
00000000
00000000
,
00000000
00000000
00000000
00000000
,
00000000
00000000
00000000
00000000
,
01000000
00000000
00100000
00000000
,
01000000
00000000
00001000
00000000
,
00010000
00000000
00001000
00000000
,
00010000
00001000
00000100
00000001
,
00000020
00000000
00000130
00001000
,
00000001
00000000
00000100
00001000
,
00020000
00000000
00031000
00010000
,
01000000
00100000
00100000
00000000
,
00020000
00000000
10030000
01000000
,
00100000
00000000
00001000
00010000
,
00002000
00000000
00013000
00001000
,
00000100
00000010
00000010
00000100
,
00000001
00000000
00000100
00000010
,
00010000
00000000
00001000
00100000
,
00020000
00030000
02000000
03000000
,
00100000
01000000
10010000
00000000
,
10000000
00000000
01000000
00100000
,
00010000
00000000
00001000
00000100
,
00000020
00000030
00000002
00000003
,
00000100
00000010
00000110
00000000
,
00000001
00000010
00000100
00001000
,
00011000
00000000
00001000
00010000
,
00001000
01000000
00100000
10000000
,
10010000
00000000
00100000
00010000
,
10000000
00100000
01000000
00010000
,
00011000
00000000
00010000
00000100
,
00000010
00000100
00001000
00000001
,
00000100
00000100
00000010
00000010
,
00002000
00000000
00003000
00000000
,
00000100
00010000
00000100
00010000
,
00002000
00000000
00003000
00000000
,
00010000
00001000
00010000
00001000
,
00200000
00000000
00300000
00000000
,
01000000
10000000
01000000
10000000
,
00200000
00300000
00100000
00000000
,
01000000
00010000
00100000
00001000
,
00010000
00001000
00010000
00000000
,
00001000
00000100
00000010
00000000
,
00000001
00000100
00000001
00000100
,
00000010
00001000
00000100
00010000
,
00001000
00000100
00001000
00000000
,
00010000
00100000
10000000
00000000
,
00100000
10000000
01000000
00010000
,
00001000
00000010
00000001
00001000
,
00000020
00000000
00000130
00001000
,
00010000
00000000
00001000
00010000
,
02000000
00000000
03100000
01000000
,
10000000
00010000
10010000
00000000
,
00200000
00000000
00301000
00010000
,
00001000
00000000
00010000
00000100
,
00000020
00000000
00000031
00000010
,
00000100
00001000
00000010
00000100
,
00001001
00000000
00000000
00000000
;

//---------------dance-double - ----------------
#NOTES:
     dance-double:
     :
     Medium:
     6:
     :
00000000
00000000
00000000
00000000
,
00000000
00000000
00000000
00000000
,
00000000
00000000
00000000
00000000
,
00000000
00000000
00000000
00000000
,
00000000
00000000
00000000
00000000
,
00000020
00000001
00000001
00000031
,
00000200
00000010
00000010
00000310
,
00001000
00000100
00010000
00000100
,
00001000
00000000
00000010
00000000
00000100
00001000
00010000
00000000
,
00001000
00100000
00010000
01000000
,
00100000
01000000
00010000
10000000
,
00110000
10000000
00110000
10000000
,
00100000
00000000
01000000
00000000
00001000
00010000
00001000
00000000
,
00010000
00000010
00001000
00000100
,
00000010
00000100
00001000
00000001
,
00001010
00000001
00001010
00000001
,
00000100
00000000
00001000
00000000
00010000
00001000
00010000
01000000
,
00100000
10000000
00100000
00010000
,
00100000
10000000
01000000
00010000
,
00011000
00100000
00011000
00000010
,
00001000
00000000
00000100
00000000
00001000
00000100
00000010
00000000
,
00000001
00000010
00001000
00000010
,
00000001
00000100
00001000
00010000
,
00011000
00000100
00011000
01000000
,
00010000
00000000
00100000
00000000
01000000
00100000
00010000
10000000
,
02000000
00100000
03100000
00010000
,
01000000
00010000
00100000
00000000
00002000
00000000
00003000
00000000
,
00010000
00001000
00000100
00000000
00002000
00000000
00003010
00000000
,
00000100
00000001
00000010
00000000
00000100
00000000
00000110
00000000
,
00000002
00000010
00000013
00001000
,
00010000
00001000
00100000
00000000
00020000
00000000
00030000
00000000
,
01000000
00010000
00100000
00000000
02000000
00000000
13000000
00000000
,
00100000
10000000
01000000
00000000
00100000
00010000
00001000
00000100
,
00000010
00000001
00001000
00000001
,
00000100
00001000
00000100
00000010
,
00010000
00001000
00010000
01000000
,
20000000
30100000
02000000
03100000
,
10000000
00100000
00010000
00001000
,
00000100
00000001
00000010
00000001
,
00000100
00000010
00000100
00001000
,
00002200
00003300
00011000
00110000
,
00010000
01000000
10000000
00000000
01000000
00000000
00100000
00000000
,
10000000
01000000
00010000
00000000
01000000
00000000
00100000
00000000
,
00010000
00001000
00000100
00000000
00001000
00000000
00000010
00000000
,
00001000
00000100
00000010
00000000
00001000
00000000
00000100
00000000
,
00001000
00000010
00000001
00000000
00000010
00000000
00000100
00000000
,
00000001
00000010
00001000
00000000
00000010
00000000
00000100
00000000
,
00010000
00001000
00010000
00000000
00000100
00000000
00010000
00000000
,
00001000
00010000
00001000
00000000
01000000
00000000
00100000
00000000
,
10000000
01000000
00010000
01000000
,
10000000
00100000
01000000
00001000
,
00011000
00100000
00011000
00000100
,
00001000
00000000
00000100
00000000
00000010
00000100
00001000
00000000
,
00000010
00000100
00000001
00000100
,
00001000
00010000
00100000
10000000
,
10010000
01000000
10010000
00100000
,
00010000
00000000
00100000
00000000
00001000
00010000
00001000
00000100
,
00000010
00000000
00000000
00000000
;

//---------------dance-double - ----------------
#NOTES:
     dance-double:
     :
     Hard:
     8:
     :
00000000
00000000
00000000
00000000
,
00000000
00000000
00000000
00000000
,
00000000
00000000
00000000
00000000
,
00000000
00000000
00000000
00000000
,
00000000
00000000
00000000
00000000
,
00000001
00000100
00001000
00000100
,
00000010
00000100
00010000
01000000
,
00200000
00000000
10300000
00010000
,
00100000
00001000
00010000
00001000
00010000
00000000
00011000
00000000
,
00011000
00000000
00001000
00000000
00000100
00000010
00001000
00000100
,
00000000
00000000
00000010
00000000
00000001
00000100
00000010
00001000
,
00000000
00000000
00010000
00000000
01000000
00010000
00100000
01000000
,
00000000
10000000
00100000
00000000
01000000
00000000
00100000
00000000
,
10000000
00000000
01000000
00000000
00100000
00010000
00001000
00000100
,
00000010
00000000
00001001
00000000
00000100
00000010
00000100
00000002
,
00000000
00000000
00000013
00000000
00000001
00000100
00001000
00010000
,
00000000
00001000
00000000
00000100
00000000
00000010
00010000
00000000
,
00001000
00000000
00010000
00000000
01000000
00100000
01000000
20000000
,
00000000
00000000
30100000
00000000
01000000
00100000
10000000
00020000
,
00000000
00000000
00130000
00000000
00001000
00010000
00000100
00000010
,
00000000
00000100
00001000
00000000
00000010
00000000
00000100
00000000
,
00000010
00000000
00001000
00000000
00000100
00000010
00000001
00002000
,
00000000
00000000
00003010
00000000
00000100
00001000
00010000
00100000
,
00000000
00000000
00011000
00000000
00100000
01000000
10000000
01000000
,
00000000
10000000
00000000
00010000
00000000
00100000
00001000
00000000
,
00010000
00001000
00010000
00000100
00000010
00000100
00001000
00000010
,
00000001
00000000
00000010
00000000
00000100
00000001
00000100
00001000
,
00010000
01000000
10000000
01000000
00100000
01000000
00010000
00100000
,
01000000
00000000
10000000
00000000
10000000
01000000
00100000
00010000
,
00100000
00010000
01000000
00010000
10000000
00010000
00100000
00001000
,
00010000
00000000
00001000
00000000
00000100
00000010
00001000
00000100
,
00000001
00000100
00000010
00000100
00001000
00000010
00000100
00000001
,
00001000
00001100
00011000
00110000
,
00010000
00010000
01000000
00000000
00100000
00000000
01000000
00000000
,
00010000
00000000
00100000
00000000
01000000
10000000
00100000
10000000
,
01000000
01000000
10000000
00000000
00100000
00000000
01000000
00000000
,
00010000
00000000
00100000
00000000
00001000
00010000
00001000
00000100
,
00000010
00000010
00000100
00000000
00000001
00000000
00000011
00000000
,
00000100
00000110
00001000
00011000
,
00001000
00001000
00010000
00000000
02000000
00000000
13000000
00000000
,
02200000
00000000
03300000
00000000
10000000
01000000
10000000
01000000
,
10000000
01000000
00010000
00001000
,
00000010
00000000
00000001
00000000
00001000
00000010
00000100
00000001
,
00000010
00000000
00000100
00000000
00010000
00001000
00000100
00000010
,
00000000
00010000
00001000
00000000
00100000
00000000
00010000
00000000
,
01000000
00100000
10000000
01000000
,
00100000
00000000
00010000
00000000
00001000
00000100
00000010
00000100
,
00001000
00000000
00000001
00000000
00000100
00000010
00000100
00001000
,
00000000
00010000
00000000
00100000
00000000
01000000
00100000
00000000
,
11000000
00000000
00010000
00000000
00100000
01000000
00010000
00200000
,
00000000
00000000
00301000
00000000
00010000
00001000
00000100
00002000
,
00000000
00000000
00013000
00000000
00000100
00000010
00000001
00000010
,
00000000
00000100
00000010
00000000
00000001
00000000
00000100
00000000
,
00010000
00000000
01000000
00000000
00100000
01000000
00010000
00200000
,
00000000
00000000
01300000
00000000
10000000
00010000
00100000
00001000
,
00000000
00000000
00011000
00000000
00001000
00000100
00000001
00000100
,
00000000
00000010
00000000
00001000
00000000
00000100
00010000
00000000
,
00011000
00000000
00000000
00000000
;
