#TITLE:Entry of the Gladiators (Kaz Mix);
#ARTIST:Julius Fucik;
#BANNER:Entry of the Gladiators (Kaz Mix).png;
#BACKGROUND:Entry of the Gladiators (Kaz Mix)-bg.png;
#CDTITLE:./CDTITLES/DanceDanceRevolution UNIVERSE2.png;
#MUSIC:Entry of the Gladiators (Kaz Mix).ogg;
#SAMPLESTART:16.286;
#SAMPLELENGTH:15;
#BPMS:0=140;

//---------------dance-single - ----------------
#NOTES:
     dance-single:
     :
     Beginner:
     1:
     :
0000
0000
0000
0000
,
0000
0000
0000
0000
,
0000
0000
0000
0000
,
0000
0000
0000
0000
,
0000
0000
0000
0000
,
0010
0000
0000
0000
,
0010
0000
0000
0000
,
0100
0000
0000
0000
,
0100
0100
0100
0100
,
0000
0000
0001
0000
,
0001
0000
1000
0000
,
1000
0000
0001
0000
,
0100
0000
0010
0000
,
0000
0000
1000
0000
,
1000
0000
0001
0000
,
0001
0000
1000
0000
,
0100
0000
0010
0000
,
0000
0000
0100
0000
,
0100
0000
0010
0000
,
0010
0000
1000
0000
,
0001
0000
0100
0000
,
0000
0000
0010
0000
,
0010
0000
0100
0000
,
0100
0000
0001
0000
,
1000
0000
0100
0100
,
0100
0000
0000
0001
,
0000
0001
0000
0010
,
0000
0010
0000
0100
,
0000
0100
0000
1000
,
0000
1000
0000
0010
,
0000
0010
0000
0100
,
0100
0000
0001
0001
,
0001
0001
0002
0000
,
0000
0003
0000
0010
,
0000
0010
0000
0001
,
0000
0001
0000
0100
,
0000
0100
0000
0010
,
0000
0010
0000
1000
,
0000
1000
0000
0100
,
0000
0100
0100
0100
,
0100
0200
0000
0000
,
0300
0000
0001
0001
,
0000
0000
1000
1000
,
0000
0000
0100
0000
,
0100
0000
0100
0000
,
0000
0000
0010
0000
,
0010
0000
0010
0000
,
0000
0000
0001
0000
,
0001
0000
0001
0000
,
0000
0000
1000
0000
,
1000
0000
1000
0000
,
0000
0000
0010
0000
,
0010
0000
0010
0000
,
0000
0000
0100
0000
,
0100
0000
0100
0000
,
0000
0000
1000
0000
,
1000
0000
1000
0000
,
0000
0000
0001
0000
,
0000
0000
0001
0000
,
1000
1001
0000
0000
;

//---------------dance-single - ----------------
#NOTES:
     dance-single:
     :
     Easy:
     3:
     :
0000
0000
0000
0000
,
0000
0000
0000
0000
,
0000
0000
0000
0000
,
0000
0000
0000
0000
,
0000
0000
0000
0000
,
1000
0000
0010
0000
,
1000
0000
0010
0000
,
0001
0000
0010
0000
,
0200
0300
0020
0000
,
0000
0030
1000
0001
,
1000
0001
0100
0010
,
0100
0100
0002
0003
,
2000
3000
0100
0010
,
0100
0010
0200
0300
,
0020
0030
1000
0001
,
1000
0100
0200
0300
,
0020
0030
0001
1000
,
0001
1000
0100
0010
,
0100
0010
0100
1000
,
0001
0001
0002
0003
,
2000
3000
0100
0010
,
0100
0010
2000
3000
,
0002
0003
0100
0010
,
0100
0001
0002
0003
,
2000
3000
0010
0100
,
0010
0100
0001
0000
,
2000
0000
3000
0000
,
1000
0000
0001
0000
,
0020
0000
0030
0000
,
0010
0000
0100
0000
,
0200
0000
0300
0000
,
0010
0000
0001
1000
,
0001
1000
0200
0000
,
0000
0300
1000
0000
,
0002
0000
0003
0000
,
0001
0000
1000
0000
,
0200
0000
0300
0000
,
0100
0000
0010
0000
,
0020
0000
0030
0000
,
0100
0000
1000
0001
,
1000
0001
0020
0000
,
0000
0030
0100
0010
,
0100
0100
1000
0001
,
1000
0000
0100
0000
,
0001
0100
0001
0000
,
1000
0100
1000
0000
,
0100
1000
0100
0000
,
0100
0010
0100
0000
,
0010
0001
0010
0000
,
0001
0100
0001
0000
,
0010
1000
0010
0010
,
1000
1000
0100
0000
,
0100
0100
0010
0000
,
0001
0001
1000
0000
,
0100
0100
0010
0000
,
0010
0010
1000
0000
,
0001
0001
0100
0100
,
0010
0010
0100
0000
,
0000
0010
1000
0100
,
0010
0110
0000
0000
;

//---------------dance-single - ----------------
#NOTES:
     dance-single:
     :
     Medium:
     6:
     :
0000
0000
0000
0000
,
0000
0000
0000
0000
,
0000
0000
0000
0000
,
0000
0000
0000
0000
,
0000
0000
0000
0000
,
0001
1000
0100
0001
,
0100
0000
1000
0000
0010
0100
0010
0000
,
1000
0001
0010
1000
,
0010
0000
0001
0000
0100
0010
0100
0010
,
0000
0000
0001
1000
,
0100
0010
0001
0000
0100
0000
1000
0000
,
0100
0001
0010
0000
0100
0000
1000
0000
,
0010
0000
1000
0000
0100
0010
0100
0000
,
0010
0011
0100
1000
,
0010
0100
0010
0000
0100
0000
0001
0000
,
0010
0100
0010
0000
0100
0000
1000
0000
,
0001
0000
1100
0000
0010
0100
1000
0000
,
0100
0010
0100
0010
1000
0000
0001
0000
,
0010
0100
1000
0000
0010
0000
0001
0000
,
0010
1000
0100
0000
0010
0000
0001
0000
,
0100
0000
0001
0000
0010
0100
0010
0000
,
0100
1100
0010
0001
,
0100
0010
0100
0000
0010
0000
1000
0000
,
0100
0010
0100
0000
0010
0000
0001
0000
,
1000
0000
0011
0000
0100
0010
0001
0000
,
0010
0000
0100
1000
0100
0000
1000
0000
,
0010
0100
0001
0000
0010
0000
0100
0000
,
1000
0010
1000
0010
,
0100
0001
0010
0000
0100
0000
1000
0000
,
0010
0100
0001
0010
,
0100
1000
0100
0000
0010
0000
0100
0000
,
1000
0010
0100
0001
,
0010
0000
1000
0000
0010
0001
0010
0000
,
0001
1000
0010
0001
,
0100
0010
1000
0000
0100
0000
0010
0000
,
0001
0100
0010
0100
,
0010
1000
0100
0000
0010
0000
0001
0000
,
0100
0010
1000
1100
,
0010
0001
0010
0000
0100
0000
0010
0000
,
0001
0110
0010
1000
,
0100
0000
0001
0000
0100
1000
0100
0000
,
1000
0101
0010
0100
,
1000
0001
0010
0100
,
1000
0010
1000
0000
0010
0000
0100
0000
,
0010
1000
0001
0100
,
0010
0100
0010
0000
1000
0000
0001
0000
,
1000
0010
0100
0001
,
0010
0000
0100
1000
0100
0000
0010
0000
,
0001
0100
0001
0000
0010
0000
0100
0000
,
1000
0010
0100
0001
,
0100
1000
0100
0001
,
0010
0100
1000
0000
0100
0000
0110
0000
,
0100
0001
1000
1010
,
0100
0010
0100
0000
0001
0000
1001
0000
,
0001
0100
0010
1100
,
0100
0000
0010
0001
0010
0000
0100
0000
,
1000
0010
1000
0000
0100
0000
0010
0000
,
0001
0100
0010
1100
,
0010
0000
0101
0000
0010
1000
0100
0000
,
0010
0011
0000
0000
;

//---------------dance-single - ----------------
#NOTES:
     dance-single:
     :
     Hard:
     7:
     :
0000
0000
0000
0000
,
0000
0000
0000
0000
,
0000
0000
0000
0000
,
0000
0000
0000
0000
,
0000
0000
0000
0000
,
1000
0000
1000
0000
0010
0001
0010
0000
,
1000
0000
1000
0000
0100
0001
0100
0000
,
1000
0000
0001
0000
0100
0001
0100
0000
,
0010
0100
0010
0100
0001
1000
0100
1000
,
0000
0000
0000
0000
0001
0100
0001
0100
,
0010
1000
0100
0000
1000
0100
1000
0100
,
0010
0001
0100
0000
0010
1000
0100
0000
,
0010
1000
0100
0000
0010
1000
0100
0001
,
0100
1000
0010
0100
0001
0010
0001
0001
,
0100
0010
0100
0000
1000
0100
0001
0100
,
0010
0001
0100
0000
1100
0100
1000
0000
,
0011
0001
0100
0000
0010
0010
0010
0010
,
0100
0100
0100
0100
1000
0010
1000
0010
,
0100
0001
0010
0000
0001
0010
0001
0010
,
0100
1000
0010
0000
0100
0001
0010
0000
,
0100
0001
0010
0000
0100
0001
0010
1000
,
0010
0001
0100
0010
1000
0100
1000
1000
,
0010
0100
0010
0000
0001
0010
1000
0010
,
0100
1000
0010
0000
0011
0010
0001
0000
,
1100
1000
0010
0000
0100
0010
0100
0010
,
1000
1000
1000
1000
0001
0000
0000
0010
,
0001
0010
0100
1000
0001
0000
0000
0010
,
0011
0000
0000
0001
0101
0000
0000
0010
,
0100
1000
0100
0010
1000
0000
0000
0100
,
1100
0000
0000
1000
1010
0000
0000
0001
,
0100
0010
1000
0010
0100
0000
0000
0001
,
0011
0000
0010
0100
1100
0000
1010
0000
,
0101
0000
0011
0000
0010
0100
1000
0010
,
0100
0000
0000
0000
0001
0100
0001
0100
,
0010
1000
0010
1000
0100
0000
0000
1000
,
0100
0000
0110
0000
1000
0010
1000
0010
,
0100
0001
0100
0001
0010
0000
0000
0001
,
0010
0000
0000
0000
0110
0000
0000
1000
,
0100
0010
0001
0010
0100
0000
0000
0010
,
0100
0000
0010
0001
0110
0000
1010
0000
,
1100
0000
0101
0000
0001
0100
0010
1000
,
0010
0100
0000
0000
0001
0000
1000
0000
,
0100
0010
1000
0001
,
0100
0010
0011
0100
,
1100
0101
1100
0010
,
0101
1001
0101
1000
,
1010
0011
0110
0010
,
0001
0101
0110
1000
,
1100
0110
1100
0010
,
0101
0110
0101
1000
,
1100
0110
0011
0101
,
0110
0000
1010
0010
1010
0000
0001
0000
,
1100
0000
0011
0000
1100
0100
0010
0000
,
0101
0000
1010
0000
0101
0001
0010
0000
,
1010
0000
1100
0000
0110
0010
0001
0000
,
0011
0000
0110
0000
1100
0010
0001
0000
,
0101
1100
1010
0011
,
1010
0000
1100
0000
0101
0010
1000
0000
,
1100
0100
0110
0000
0011
0001
1001
0001
,
0101
1010
0000
0000
;

//---------------dance-single - ----------------
#NOTES:
     dance-single:
     :
     Challenge:
     9:
     :
0000
0000
0000
0000
,
0000
0000
0000
0000
,
0000
0000
0000
0000
,
0000
0000
0000
0000
,
0000
0000
0000
0000
,
0010
0000
0100
0000
0010
1000
0010
0000
,
1000
0000
0100
0000
0010
0001
0010
0000
,
0100
0000
1000
0000
0001
1000
0010
0000
,
0100
0001
0100
0001
1000
0010
1000
0010
,
0000
0000
0000
0000
0000
0000
0000
0000
0010
0000
1000
0000
0001
0010
0001
0010
,
0001
0000
1000
0000
0010
0000
1000
0000
0001
0000
0100
0000
0010
1000
0010
1000
,
0010
0000
0100
0000
0001
0000
0010
0000
0100
0000
1000
0100
1000
0000
0010
0000
,
0100
0000
0001
0100
0001
0000
0010
0000
0001
0100
0001
0100
0010
1000
0010
1000
,
0100
1000
0100
1000
0010
0000
1000
0000
0001
0000
0100
0000
0001
0010
0001
1000
,
0010
0000
0100
0000
0010
0000
1000
0000
0100
0000
0010
0000
0001
1000
0001
0100
,
0010
0000
1000
0000
0100
0000
0010
0000
0100
0000
1000
0010
0100
0000
0001
0000
,
0010
0100
1000
0100
1000
0000
0010
0000
0100
0000
0001
0100
0001
0000
0010
0000
,
0100
0000
1000
0000
0010
0000
0010
0000
0100
0000
0001
0000
1000
0100
1000
0100
,
1000
0000
0001
0000
0100
0000
0001
0000
1000
0000
0010
0000
0100
0001
0100
0001
,
0100
0000
0010
0000
1000
0000
0100
0000
0010
0000
0001
0010
0001
0000
0100
0000
,
0010
0000
1000
0010
1000
0000
0100
0000
1000
0010
1000
0010
0100
0001
0100
0001
,
0010
0001
0010
0001
0100
0000
0001
0000
1000
0000
0010
0000
1000
0100
1000
0001
,
0100
0000
0010
0000
0100
0000
0001
0000
0010
0000
0100
0000
0010
0001
1000
0100
,
0010
0000
0001
0000
0010
0000
1000
0000
0010
0000
0001
0100
0010
0000
1000
0000
,
0100
0000
0001
0010
0001
0000
0100
0000
0010
1000
0100
1000
0100
0000
1000
0000
,
0001
1000
0010
0001
0110
0000
0000
0100
,
0001
0000
0010
0100
0010
0001
0100
0010
1000
0000
0000
0000
0000
0000
0010
0000
,
1010
0000
0000
0100
0011
0000
0000
0010
,
0100
1000
0010
0100
0001
0010
0100
1000
0100
0000
0000
0000
0000
0000
0010
0000
,
0100
0000
0000
1000
0010
0000
0000
1000
,
1000
0000
0010
0100
0001
1000
0001
0010
0100
0000
0000
0000
0000
0000
0010
0000
,
0101
0000
0100
1000
0011
0001
1100
0000
,
1010
0000
1000
0000
0101
0000
0000
0000
0001
0000
0010
0001
0100
0010
1000
0100
,
1000
0000
0000
0000
0010
1000
0100
1000
,
0010
1000
0100
1000
0010
0100
0001
0100
,
0010
0100
0001
0100
1000
0100
0001
0010
,
0100
1000
0010
1000
0010
0100
0001
0010
0001
0000
0000
0000
0010
0000
0100
0000
,
1000
0100
0001
0100
1000
0010
0001
0010
,
1000
0000
0001
0010
0001
0010
0100
1000
0100
0000
0000
0000
0010
0000
0100
0000
,
1000
0000
0001
0010
0011
0000
1001
0000
,
1100
0000
0000
0000
1010
0000
0000
0000
0011
0000
0100
1000
0010
0100
0001
0010
,
0100
0000
1000
0010
1000
0000
0000
0000
0010
0000
0001
0000
0010
0000
0001
0000
,
0100
0001
0100
0001
1000
0100
1000
0100
,
1000
0010
1000
0010
0001
0100
0001
0100
,
1000
0100
0010
0001
0100
0001
0100
0001
,
0010
1000
0100
0010
0001
0010
0001
0010
,
0100
1000
0010
1000
0001
1000
0001
1000
,
0001
1000
0100
0010
1000
0010
1000
0010
,
0100
1000
0010
0100
0001
0100
0001
0100
,
1000
0001
0010
0100
1000
0010
1000
0010
,
0001
0100
0010
0100
1000
0001
0100
0010
,
0001
0000
1000
0010
0100
0000
0001
0000
0010
0000
0100
1000
0010
0000
0100
0000
,
1000
0000
0001
0000
0100
0000
0001
0000
0010
0000
0100
1000
0010
0000
0100
0000
,
0001
0000
0010
0000
1000
0000
0100
0000
0010
0000
0001
1000
0010
0000
0001
0000
,
0100
0000
0010
0000
1000
0000
0010
0000
0100
0000
0001
1000
0100
0000
0001
0000
,
1000
0000
0010
0000
0100
0000
0001
0000
1000
0000
0100
0010
1000
0000
0100
0000
,
0010
0000
0100
1000
0001
0000
0100
0000
0010
0000
0100
0010
1000
0000
0100
0000
,
0010
0000
0001
0000
0100
0000
0010
0100
1000
0000
0010
0000
1000
0000
0010
0000
,
1000
0000
0010
0000
0100
0000
1000
0000
0010
0000
0001
0010
0001
0000
0010
0100
,
0010
1100
0000
0000
;

//---------------dance-double - ----------------
#NOTES:
     dance-double:
     :
     Beginner:
     1:
     :
00000000
00000000
00000000
00000000
,
00000000
00000000
00000000
00000000
,
00000000
00000000
00000000
00000000
,
00000000
00000000
00000000
00000000
,
00000000
00000000
00000000
00000000
,
10000000
00000000
10000000
00000000
,
01000000
00000000
00000000
00000000
,
00100000
00000000
00100000
00000000
,
00010000
00000000
00000000
00000000
,
00000000
00000000
00001000
00000000
,
00000010
00000000
00000100
00000000
,
00000001
00000000
00000020
00000000
,
00000000
00000030
00000100
00000000
,
00000000
00000000
00001001
00000000
,
00000000
00000000
00000100
00000000
,
00000010
00000000
00001000
00000000
,
00000001
00000000
00000020
00000000
,
00000000
00000030
00001000
00000000
,
00010000
00000000
00100000
00000000
,
01000000
00000000
00100000
00000000
,
10000000
00000000
00200000
00000000
,
00000000
00300000
01000000
00000000
,
00010000
00000000
00100000
00000000
,
00010000
00000000
00001000
00000000
,
00000100
00000000
00000010
00000000
,
00000000
00000000
00000002
00000000
,
00000000
00000003
00002000
00000000
,
00000000
00003000
00000002
00000000
,
00000000
00000003
00002000
00000000
,
00000000
00003000
00000100
00000000
,
00000000
00000000
00001000
00000000
,
00000000
00000000
00010000
00000000
,
00100000
00000000
01000000
00000000
,
00000000
00000000
20000000
00000000
,
00000000
30000000
00020000
00000000
,
00000000
00030000
20000000
00000000
,
00000000
30000000
00020000
00000000
,
00000000
00030000
00100000
00000000
,
00010000
00000000
00001000
00000000
,
00000010
00000000
00000100
00000000
,
00000000
00000000
00000110
00000000
,
00000000
00000000
00001000
00000000
,
00000000
00000000
00010000
00000000
,
00000000
00000000
00100000
00000000
,
00000000
00000000
10000000
00000000
,
00000000
00000000
01000000
00000000
,
00000000
00000000
01100000
00000000
,
00000000
00000000
00010000
00000000
,
00000000
00000000
00001000
00000000
,
00000000
00000000
00000010
00000000
,
00000000
00000000
00000100
00000000
,
00000000
00000000
00001001
00000000
,
00000000
00000000
00000100
00000000
,
00000100
00000000
00001000
00000000
,
00000000
00000000
00010000
00000000
,
00100000
00000000
10000000
00000000
,
01000000
00000000
00100000
00000000
,
00010000
00000000
00001000
00000000
,
00000000
00000000
00010000
00000000
,
00000000
00011000
00000000
00000000
;

//---------------dance-double - ----------------
#NOTES:
     dance-double:
     :
     Easy:
     3:
     :
00000000
00000000
00000000
00000000
,
00000000
00000000
00000000
00000000
,
00000000
00000000
00000000
00000000
,
00000000
00000000
00000000
00000000
,
00000000
00000000
00000000
00000000
,
00001000
00001000
00010000
00000000
,
00010000
00010000
00001000
00000000
,
00100000
00100000
01000000
00000000
,
10000000
10000000
00010000
00020000
,
00000000
00000000
10030000
00010000
,
10000000
01000000
00010000
00001000
,
00010000
00010000
00000100
00000000
,
00000010
00000000
00000100
00000010
,
00000001
00001000
00000010
00000010
,
00000100
00000100
00001000
00000100
,
00010000
00001000
00200000
00300000
,
02000000
03000000
00010000
00001000
,
00000100
00000001
00000001
00001000
,
00000001
00000100
00001000
00010000
,
00001000
00001000
01000000
00000000
,
00100000
00000000
01000000
00100000
,
10000000
00010000
00100000
00100000
,
01000000
01000000
00001000
00010000
,
00000010
00000010
00000200
00000300
,
00000020
00000030
00001000
00000001
,
00001000
00000001
00000100
00000000
,
00001000
00001000
00010000
00000000
,
00001000
00000000
00100000
00000000
,
00100000
00100000
01000000
00000000
,
00100000
00000000
10000000
00000000
,
10000000
10000000
01000000
00000000
,
00010000
00000000
00001000
00010000
,
00001000
00010000
00022000
00000000
,
00000000
00033000
00001000
00000000
,
00000100
00000100
00000010
00000000
,
00000001
00000000
00000100
00000000
,
00000100
00000100
00000010
00000000
,
00000100
00000000
00001000
00000000
,
00010000
00010000
00001000
00000000
,
01000000
00000000
00100000
01000000
,
00100000
01000000
00020000
00000000
,
00000000
00030000
01000000
00100000
,
10000000
10000000
01000000
00010000
,
00001000
00000000
00010000
00000000
,
00001000
00010000
00001000
00000000
,
00000100
00001000
00000100
00000000
,
00000010
00000001
00000010
00000000
,
00000100
00000001
00000100
00000000
,
00001000
00000100
00001000
00000000
,
00010000
00001000
00010000
00000000
,
00100000
00010000
00100000
00100000
,
01000000
01000000
10000000
00000000
,
00100000
00100000
01000000
00000000
,
00010000
00010000
01000000
00000000
,
00001000
00001000
00010000
00000000
,
00000100
00000100
00001000
00000000
,
00000010
00000010
00000100
00000100
,
00000001
00000001
00001000
00000000
,
00000000
00000100
10010000
00001000
,
00010000
00011000
00000000
00000000
;

//---------------dance-double - ----------------
#NOTES:
     dance-double:
     :
     Medium:
     6:
     :
00000000
00000000
00000000
00000000
,
00000000
00000000
00000000
00000000
,
00000000
00000000
00000000
00000000
,
00000000
00000000
00000000
00000000
,
00000000
00000000
00000000
00000000
,
00000001
00000010
00000100
00010000
,
00001000
00000000
00100000
00000000
01000000
10000000
00100000
00000000
,
10000000
00100000
00010000
00001000
,
00000010
00000000
00000001
00000000
00000100
00000001
00000100
00000001
,
00000000
00000000
00000001
00000010
,
00001000
00010000
00001000
00000000
00000100
00000000
00000001
00000000
,
00000100
00000000
00001000
00010000
01000000
00000000
10000000
00000000
,
00100000
00000000
01000000
00000000
00010000
00100000
01000000
00000000
,
10000000
10100000
01000000
00001000
,
00010000
00001000
00010000
00000000
00001000
00000000
00000010
00000000
,
00000001
00000010
00000001
00000000
00001000
00000000
00000010
00000000
,
00010000
00000000
00001000
00000000
00000100
00000001
00000010
00000000
,
00000100
00001000
00000100
00010000
00001000
00000000
00010000
00000000
,
00010000
00001000
00010000
00000000
00100000
00000000
10000000
00000000
,
00100000
00000000
00010000
00001000
00000010
00000000
00000001
00000000
,
00000100
00000000
00000010
00000000
00001000
00000100
00000010
00000000
,
00000001
00000101
00000010
00010000
,
00001000
00010000
00001000
00000000
00010000
00000000
01000000
00000000
,
10000000
01000000
10000000
00000000
00010000
00000000
01000000
00000000
,
00001000
00000000
00010000
00000000
00100000
10000000
01000000
00000000
,
00100000
00010000
00100000
00001000
00010000
00000000
00011000
00000000
,
00000100
00000000
00000010
00000001
00000010
00000000
00000100
00000000
,
00001100
00000010
00000001
00000011
,
00000010
00001000
00010000
00000000
00001000
00000000
00010000
00000000
,
00100000
01100000
01000000
00100000
,
10000000
01000000
00010000
01000000
10000000
00000000
00100000
00000000
,
01000000
00001000
01001000
00010000
,
00010010
00000000
00000100
00000000
00000001
00000010
00000100
00000000
,
00001000
00001100
00010000
00011000
,
00100000
00000000
01000000
10000000
01000000
00000000
00100000
00000000
,
00110000
01000000
10000000
11000000
,
01000000
00010000
00001000
00000000
00010000
00000000
00001000
00000000
,
00000100
00000110
00000010
00000100
,
00000001
00000010
00001000
00000010
00000001
00000000
00000100
00000000
,
00000010
00010000
00010010
00001000
,
01001000
00000000
00100000
00000000
10000000
00010000
10000000
00010000
,
00100000
00110000
10000000
01000000
,
00010000
00001000
00010000
00001000
,
00000100
00000011
00000001
00001000
,
00000100
00010000
00001000
01000000
,
10000000
00100000
01000000
01100000
,
00100000
10000000
01000000
00100000
,
00001000
00011000
00000010
00001000
,
00000001
00000010
00000100
00001000
,
00010000
00011000
00100000
01000000
,
10000000
00100000
01100000
11000000
,
00110000
00000000
10000000
00100000
,
00010000
00001000
00010000
00000000
00001000
00000000
00000010
00000000
,
00000001
00000100
00000101
00000000
00000010
00000000
00001000
00000000
,
00000100
00010000
00001000
00100000
,
01000000
10000000
00100000
00000000
01000000
00000000
01010000
00000000
,
00100000
00000000
00001000
00000000
00010000
00001000
00010000
00000000
,
00000100
00000000
00001000
00000000
00000010
00000100
00000010
00000000
,
00001000
00000001
00001000
00000000
00000100
00000000
00000010
00000001
,
00000100
00000110
00000000
00000000
;

//---------------dance-double - ----------------
#NOTES:
     dance-double:
     :
     Hard:
     7:
     :
00000000
00000000
00000000
00000000
,
00000000
00000000
00000000
00000000
,
00000000
00000000
00000000
00000000
,
00000000
00000000
00000000
00000000
,
00000000
00000000
00000000
00000000
,
10000000
00000000
00010000
00000000
10000000
01000000
00010000
00001000
,
00010000
00000000
00001000
00000000
00010000
00001000
00000010
00000001
,
00001000
00000000
00000001
00000000
00000010
00000001
00000100
00001000
,
00010000
00001000
00010000
00001000
00100000
00010000
00100000
01000000
,
00000000
00000000
00200000
02300000
,
10000000
00100000
13000000
00000000
00020000
00000000
00230000
00000000
,
00001000
00010000
00302000
00000000
00100000
00010000
00203000
00000000
,
01000000
00010000
01300000
00000000
00010000
00001000
00000100
00000010
,
00000100
00000001
00001000
00000001
00000200
00000000
00000320
00000000
,
00001000
00000100
00001030
00000000
00020000
00000000
00032000
00000000
,
00100000
00010000
00203000
00000000
00010000
01000000
00320000
00000000
,
10000000
01000000
10030000
00000000
01000000
00010000
00001000
00000100
,
00000010
00000100
00000001
00001000
00000020
00000000
00000230
00000000
,
00000001
00000010
00000301
00000000
00002000
00000000
00003020
00000000
,
00010000
00001000
00020030
00000000
00000010
00001000
00030020
00000000
,
00000100
00001000
00000130
00000000
00001000
00010000
01000000
00100000
,
01000000
10000000
00010000
10000000
02000000
00000000
03200000
00000000
,
00010000
01000000
00310000
00000000
00002000
00000000
00023000
00000000
,
00000010
00001000
00030020
00000000
00001000
00000100
00002030
00000000
,
00000001
00000100
00003001
00000000
00000100
00001000
00010000
01000000
,
01100000
00000000
00000000
10000000
10000000
00000000
00000000
00010000
,
00010000
10000000
01000000
00010000
00001000
00000000
00000000
00010000
,
00010000
00000000
00000000
00000010
00000010
00000000
00000000
00001000
,
00000001
00000010
00000100
00001000
00000010
00000000
00000000
00010000
,
00010000
00000000
00000000
00001000
00001000
00000000
00000000
00100000
,
00010000
10000000
01000000
00100000
00010000
00000000
00000000
10000000
,
10000000
00000000
01000000
00010000
00001000
00000000
00010000
00000000
,
00000010
00000000
00001000
00000000
00000001
00000100
00001000
00010000
,
00001000
00000000
00010000
00001000
00010000
00000000
00000000
00000010
,
00001000
00000010
00000100
00000010
00001000
00000000
00000000
00000001
,
00000100
00000000
00000000
00001000
00010000
00000000
00000000
00100000
,
10000000
01000000
10000000
00100000
01000000
00000000
00000000
00010000
,
00100000
00000000
00000000
00100000
10000000
00000000
00000000
00100000
,
10000000
01000000
00010000
00001000
00010000
00000000
00000000
00000010
,
00001000
00000000
00000010
00001000
00000100
00000000
00000010
00000000
,
00000001
00000000
00000100
00000000
00001000
00010000
00001000
00010000
,
00001000
00010000
00000000
00000000
00100000
00000000
10000000
00000000
,
01000000
00010000
00001000
00000100
,
00000001
00000000
00000010
00000000
00001000
00010000
00001000
00000000
,
00010000
00000000
00100000
00000000
10000000
00100000
10000000
00000000
,
01000000
00000000
00010000
00000000
00001000
00010000
00001000
00000000
,
00000100
00000000
00000001
00000000
00000010
00000100
00000010
00000000
,
00000100
00000000
00001000
00000000
00000100
00010000
00000100
00000000
,
00010000
00000000
00001000
00000000
00100000
00001000
00100000
00000000
,
00010000
00000000
01000000
00000000
00100000
10000000
00100000
00000000
,
01000000
00010000
01000000
00000000
00100000
00000000
00010000
00000000
,
00001000
00000000
00000100
00000010
00000100
00000000
00000001
00000000
,
00000010
00001000
00010000
00001000
,
00000100
00000000
00000010
00000100
00001000
00000000
00010000
00000000
,
01000000
00000000
00100000
01000000
00010000
00000000
00001000
00000000
,
00100000
00000000
00010000
10000000
01000000
00000000
00010000
00000000
,
00001000
01000000
00100000
10000000
,
01000000
00010000
00010100
00001000
,
00000010
00000000
00000100
00000000
00000001
00000100
00000001
00001000
,
00000100
00000110
00000000
00000000
;

//---------------dance-double - ----------------
#NOTES:
     dance-double:
     :
     Challenge:
     9:
     :
00000000
00000000
00000000
00000000
,
00000000
00000000
00000000
00000000
,
00000000
00000000
00000000
00000000
,
00000000
00000000
00000000
00000000
,
00000000
00000000
00000000
00000000
,
00000001
00000000
00000010
00000000
00000100
00010000
00000100
00010000
,
00001000
00000000
00000100
00000000
00000001
00000010
00000001
00000010
,
00001000
00000000
00010000
00000000
00100000
10000000
00100000
10000000
,
01000000
00010000
01000000
00010000
00001000
00000100
00000001
00000010
,
00000000
00000000
00000000
00000000
00000000
00000000
00000000
00000000
00000100
00000000
00000010
00000000
00000001
00001000
00000001
00000000
,
00000100
00000000
00001000
00000000
00010000
00000000
00000000
00000000
00000010
00000000
00010000
00000000
00001000
00100000
00001000
00000000
,
01000000
00000000
00010000
00000000
00100000
00000000
00000000
00000000
01000000
00000000
10000000
00100000
10000000
00000000
01000000
00000000
,
00100000
00000000
00001000
00010000
00001000
00000000
01000000
00000000
00100000
00000000
00100000
00000000
00100000
00000000
00100000
00000000
,
01000000
00000000
01000000
00000000
01000000
00000000
01000000
00000000
00001000
00000000
00010000
00000000
01000000
00100000
00001000
00000000
,
00010000
00000000
00000010
00000000
00001000
00000000
00000100
00000000
00010000
00000000
00000010
00000000
00001000
00000001
00000100
00000000
,
00001000
00000000
00010000
00000000
01000000
00000000
10000000
00000000
00100000
00000000
01000000
01000000
00010000
00000000
10000000
00000000
,
01000000
00000000
00100000
00000000
00001000
00000000
00010000
00000000
00000010
00000000
00000100
00000100
00000001
00000000
00000010
00000000
,
00001000
00000000
00010000
00000000
00001000
00000000
00000100
00000000
00000001
00000000
00000010
00000000
00000100
00010000
00001000
00000000
,
01000000
00000000
00001000
00000000
00100000
00000000
00000000
00000000
00010000
00000000
01000000
00000000
00100000
10000000
01000000
00000000
,
00100000
00000000
00001000
00000000
01000000
00000000
00000000
00000000
00100000
00000000
00010000
00001000
00100000
00000000
00001000
00000000
,
00010000
00000000
00000010
00001000
00000100
00000000
00010000
00000000
01000000
00000000
10000000
00000000
00100000
00000000
00010000
00000000
,
00001000
00000000
00000010
00000000
00000001
00000000
00000100
00000000
00001000
00000000
00010000
00000000
00000100
00000010
00000001
00000000
,
00000100
00000000
00000010
00000000
00010000
00000000
00001000
00000000
01000000
00000000
00100000
00000000
10000000
01000000
00010000
00000000
,
00001000
00000000
01000000
00000000
00100000
00000000
10000000
00000000
01000000
00000000
00100000
00100000
00001000
00000000
00010000
00000000
,
00000100
00000000
00000010
00000010
00000001
00000000
00000000
00000000
00000100
00000000
00001000
00000000
00010000
00000000
01000000
00000000
,
11000000
00000000
00000000
00100000
01100000
00000000
00000000
00001000
,
00010000
00000000
00001000
00010000
00000100
00001000
00000010
00010000
00001000
00000000
00000000
00000000
00000000
00000000
00000100
00000000
,
00000101
00000000
00000000
00000010
00000110
00000000
00000000
00010000
,
00001000
01000000
00010000
00100000
00001000
01000000
00010000
00100000
01000000
00000000
00000000
00000000
00000000
00000000
10000000
00000000
,
10100000
00000000
00000000
00010000
00011000
00000000
00000000
00000010
,
00000001
00000000
00000100
00000010
00001000
00000100
00010000
00001000
00100000
00000000
00000000
00000000
00000000
00000000
01000000
00000000
,
11000000
00000000
00100000
00010000
00011000
00000000
00010100
00000000
,
00000110
00000000
00000000
00000000
00000011
00000000
00000000
00000000
00001000
00000000
00000010
00001000
00000100
00010000
00001000
00100000
,
00020000
00000000
00000000
00030000
01000000
00000000
00000000
00000000
00100000
00000000
10000000
00000000
01000000
00000000
00010000
00000000
,
00001000
00010000
01000000
10000000
00100000
00010000
00001000
00000100
,
00000001
00000100
00001000
00000100
00000001
00000010
00000100
00010000
,
00001000
00100000
00010000
00100000
00010000
01000000
00100000
10000000
01000000
00000000
00000000
00000000
01000000
00000000
00010000
00000000
,
00001000
00100000
00001000
00010000
00000100
00001000
00000010
00001000
,
00000100
00000000
00000010
00000001
00000010
00000100
00001000
00000100
00010000
00000000
00000000
00000000
00001000
00000000
00100000
00000000
,
00110000
00000000
01000000
00100000
10100000
00000000
01010000
00000000
,
00011000
00000000
00000000
00000000
00001100
00000000
00000000
00000000
00000011
00000000
00001000
00000010
00000100
00001000
00010000
00001000
,
00100000
00000000
00010000
00100000
00010000
00000000
00000000
00000000
01000000
00000000
10000000
00000000
01000000
00000000
10000000
00000000
,
01000000
00010000
00001000
00000100
00000001
00000100
00000001
00000010
,
00001000
00010000
00001000
00001000
00100000
00010000
01010000
00000000
,
00100000
10000000
01000000
00010000
00001000
00000100
00000110
00000000
,
00001000
00000001
00000010
00000100
00000010
00000001
00001100
00000000
,
00000100
00010000
00001000
00100000
00010000
10000000
01100000
00000000
,
01000000
00010000
00002000
00000000
00000010
00000000
00013000
00001000
,
00000200
00000000
00000301
00000010
00001000
00000000
00000100
00010000
,
00001000
00100000
00010000
00100000
00001000
01000000
01100000
00000000
,
10000000
01000000
00010000
00001000
00000100
00000001
00000010
00001000
,
00010000
00100000
10000000
10000000
00100000
00010000
00001000
00000000
,
00001010
00000000
00000100
00000010
00000001
00000100
00001000
00000000
,
00011000
00000000
00100000
10000000
01000000
00010000
00001000
00000000
,
00101000
00000000
00010000
00001000
00000100
00000010
00000010
00000000
,
00000001
00000010
00000001
00000100
00001000
00010000
00010000
00000000
,
00100000
00010000
01000000
00010000
00100000
01000000
10000000
01000000
,
00010000
00001000
00000100
00000010
00000110
00000000
00000001
00000000
,
00001010
00000000
00000000
00000000
00000100
00000000
00001000
00000000
00010000
00000000
00100000
10000000
01000000
00000000
00100000
00010000
,
01000000
10010000
00000000
00000000
;
