#TITLE:Emi's Song;
#ARTIST:Blu Mar Ten;
#BANNER:Emi's Song.png;
#BACKGROUND:Emi's Song-bg.png;
#CDTITLE:./CDTITLES/DanceDanceRevolution UNIVERSE2.png;
#MUSIC:Emi's Song.ogg;
#SAMPLESTART:12.343;
#SAMPLELENGTH:15;
#BPMS:0=175;

//---------------dance-single - ----------------
#NOTES:
     dance-single:
     :
     Beginner:
     1:
     :
0000
0000
0000
0000
,
0000
0000
0000
0000
,
0000
0000
0000
0000
,
0000
0000
0000
0000
,
0000
0000
0000
0000
,
0010
0000
0000
0000
,
0000
0000
0000
0000
,
0100
0000
0000
0000
,
0010
0000
0000
0000
,
1000
0000
0000
0000
,
0001
0000
0000
0000
,
0100
0000
0000
0000
,
0010
0000
0010
0000
,
1000
0000
0000
0000
,
0100
0000
0000
0000
,
0001
0000
0000
0000
,
1000
0000
1000
0000
,
0100
0000
0000
0000
,
0010
0000
0000
0000
,
1000
0000
0000
0000
,
0001
0000
0001
0000
,
1000
0000
0000
0000
,
0010
0000
0000
0000
,
0100
0000
0000
0000
,
0010
0000
0010
0000
,
0100
0000
0000
0000
,
0001
0000
0000
0000
,
1000
0000
0000
0000
,
0010
0000
0000
0000
,
0100
0000
0100
0000
,
0001
0000
0000
0000
,
0010
0000
0000
0000
,
1000
0000
0000
0000
,
0001
0000
0001
0000
,
0010
0000
0000
0000
,
0100
0000
0000
0000
,
0001
0000
0000
0000
,
1000
0000
1000
0000
,
0001
0000
0000
0000
,
0100
0000
0000
0000
,
0010
0000
0000
0000
,
1000
0000
0000
0000
,
0001
0000
0000
0000
,
0100
0000
0000
0000
,
0010
0000
0010
0000
,
1000
0000
0000
0000
,
0001
0000
0000
0000
,
0100
0000
0000
0000
,
1000
0000
0000
0000
,
0100
0000
0000
0000
,
0001
0000
0000
0000
,
0010
0000
0000
0000
,
0100
0000
0000
0000
,
0001
0000
0001
0000
,
1000
0000
1000
0000
,
1001
0000
0000
0000
,
0000
0000
0000
0000
,
0010
0000
0010
0000
,
1000
0000
1000
0000
,
0001
0000
0000
0000
,
0100
0000
0000
0000
,
0010
0000
0010
0000
,
0100
0000
0100
0000
,
0001
0000
0000
0000
,
0010
0000
0000
0000
,
0100
0000
1000
0000
,
1000
0000
0000
0000
,
0010
0000
0100
0000
,
0100
0000
0000
0000
,
0001
0000
0000
0000
,
1000
0000
0000
0000
,
0001
0000
1000
0000
,
0010
0000
0100
0000
,
0110
0000
0000
0000
;

//---------------dance-single - ----------------
#NOTES:
     dance-single:
     :
     Easy:
     3:
     :
0000
0000
0000
0000
,
0000
0000
0000
0000
,
0000
0000
0000
0000
,
0000
0000
0000
0000
,
0000
0000
0000
0000
,
1000
0000
0000
0000
,
0001
0000
0000
0000
,
0100
0000
0000
0000
,
0010
0000
1000
0000
,
0100
0010
0000
0000
,
0100
0000
0001
0000
,
0010
0100
0000
0000
,
1000
0000
0010
0000
,
0001
0001
0000
0000
,
1000
0000
0010
0000
,
0100
0100
0000
0000
,
0001
0001
1000
0000
,
0010
0100
0000
0000
,
0010
0000
1000
0000
,
0100
0010
0000
0000
,
0001
0000
0100
0000
,
1000
1000
0000
0000
,
0001
0000
0100
0000
,
0010
0000
1000
0000
,
0001
0000
1001
0000
,
1000
0000
0100
0000
,
0010
0001
0000
0100
,
0010
0000
1000
0000
,
0100
0000
0000
0000
,
0001
0000
0010
0000
,
0100
1000
0000
0010
,
0100
0000
0001
0000
,
0020
0000
0000
0030
,
0100
0000
0001
0000
,
1000
1000
0000
0000
,
0100
0000
0010
0000
,
1000
0001
0001
0000
,
0010
0000
1000
0000
,
0001
0001
0000
0000
,
0010
0000
0100
0000
,
0002
0000
0000
0003
,
2000
0000
0000
3000
,
0000
0000
0000
0000
,
0010
0000
0100
0000
,
0001
0000
1000
1000
,
0001
0000
0100
0000
,
0010
0000
0000
0000
,
0100
0000
0010
0000
,
1000
0000
0001
0001
,
1000
0000
0010
0000
,
0100
0000
0000
0000
,
0001
0000
1000
0000
,
0100
0010
0100
0000
,
0001
0000
1000
0000
,
0002
0000
0000
0003
,
0000
0000
0000
0000
,
0000
0000
0000
0000
,
0110
0000
1000
0000
,
0010
0000
0000
0000
,
0001
0000
1000
0000
,
0010
0000
0000
0000
,
0100
0000
0001
0000
,
1000
0000
0000
0000
,
1001
0000
0000
0000
,
0100
0000
0010
0000
,
0110
0000
0001
0000
,
0100
0000
0000
0000
,
1000
0000
0001
0000
,
0100
0000
0000
0000
,
0010
0000
1000
0000
,
0001
0000
0000
0000
,
1000
0000
0100
0000
,
0010
0000
0000
0000
,
1001
0000
0000
0000
;

//---------------dance-single - ----------------
#NOTES:
     dance-single:
     :
     Medium:
     7:
     :
0000
0000
0000
0000
,
0000
0000
0000
0000
,
0000
0000
0000
0000
,
0000
0000
0000
0000
,
0000
0000
0000
0000
,
0002
0000
1000
0000
,
0013
0000
0000
0000
,
1000
0010
0100
0000
,
0001
0000
0000
2000
0000
0000
0000
0000
,
3100
0000
1000
0010
0100
0000
0001
0000
,
0100
0000
0010
0000
1000
0001
0100
0000
,
0010
0000
0100
0001
1000
0000
0010
0000
,
0100
0000
0000
0001
0000
0000
1000
0000
,
0010
0000
0100
0000
0001
0100
0001
0000
,
0010
0000
0001
0000
1000
0100
1000
0000
,
0010
0000
0100
0000
0001
1000
0001
0000
,
0100
1010
0200
0000
,
0301
1000
0100
0010
,
0001
0100
0010
0000
1000
0000
0001
0000
,
1000
0010
0100
0001
,
0100
1000
0100
0000
0001
0000
0010
0000
,
1000
0010
0100
1000
,
0010
0100
0010
0000
1000
0000
1000
0000
,
0002
0100
1000
0010
,
0103
0000
0100
0000
0100
0001
0010
0000
,
0001
0000
1000
0000
0010
0000
0100
0010
,
1000
0001
0200
0000
,
0310
0000
1000
0000
0100
0000
1000
0001
,
0010
0001
0200
0000
,
0301
0010
0001
0000
1000
0000
0010
1000
,
0010
0100
0002
0000
,
0103
1000
0100
0001
,
0010
0100
1000
0001
0100
0010
0001
0000
,
0010
0000
0100
0001
0010
0000
0100
0000
,
1000
2020
3030
0100
,
0001
0000
0100
1000
0100
0000
0001
0000
,
0010
0022
0033
0100
,
1000
0000
0010
0001
0010
0000
1000
0000
,
0100
1010
0101
0010
,
2000
0100
0001
3020
,
0230
0000
0301
0000
,
1001
0000
0000
0000
,
0000
0000
0000
0000
,
1000
0000
0001
0000
0000
0100
0010
0000
,
0001
0000
1000
0000
0000
0010
0100
0001
,
1000
0000
0001
0000
0100
0000
0010
0100
,
0001
1000
0020
1000
,
0130
0000
0001
0000
0010
0000
0001
1000
,
0100
1000
0020
0100
,
1030
0100
1000
0000
0001
0000
0100
0001
,
0100
0010
2000
0100
,
3010
0001
0010
1000
,
0100
0010
0001
1000
0010
0100
1000
0000
,
0010
0000
0001
0100
0010
0000
1000
0000
,
0010
0000
0100
0000
0001
1000
0010
0000
,
0220
0000
0000
0330
,
0010
0000
0001
0000
1000
0000
0000
0001
,
0100
0000
0010
0000
1000
0010
1000
0000
,
0100
0000
1000
0000
0001
0010
0001
0000
,
0100
0000
0010
0000
1000
0001
1000
0000
,
0010
0101
0020
0000
,
1030
0001
0010
0100
,
1000
0010
0100
0000
0001
0000
1000
0000
,
0001
0100
0010
1000
,
0010
0001
0010
1000
0100
0001
0100
0000
,
1000
0100
0010
0001
,
0100
0010
0100
0000
0001
0000
1000
0100
,
1000
0010
0100
0001
,
1000
0100
1000
0010
0001
0010
1000
0000
,
0001
0010
0100
0000
1000
0100
0001
0000
,
0100
1000
0010
0000
0100
0000
0001
0010
,
1000
0010
0001
0100
,
2000
0000
3200
0000
,
0310
0000
0000
0000
;

//---------------dance-single - ----------------
#NOTES:
     dance-single:
     :
     Hard:
     8:
     :
0000
0000
0000
0000
,
0000
0000
0000
0000
,
0000
0000
0000
0000
,
0000
0000
0000
0000
,
0000
0000
0000
0000
,
0020
0000
0000
0000
,
0030
0000
0000
0000
0000
0000
0000
2000
,
0000
0000
0000
0000
,
3010
0000
0000
1000
0000
0000
0001
0000
,
0010
0100
1000
0100
0000
0010
0001
0000
,
0100
1000
0100
0001
0000
0010
1000
0000
,
0010
0100
0001
0100
0000
1000
0010
0100
,
0001
0010
0010
0100
1000
0010
0100
0000
,
0001
1000
0010
0100
0000
0001
0010
0000
,
0100
1000
0010
0100
0000
0001
1000
0000
,
0100
1000
0100
0001
0000
0100
1000
0010
,
0100
0000
0100
0000
0001
0000
0010
0000
0100
0000
1000
0100
1000
0000
0010
0000
,
0100
0000
0001
0010
0000
0001
0100
0000
,
0010
1000
0001
0100
1000
0100
0001
0000
,
1000
0000
0010
1000
0000
0001
0100
0000
,
0100
0010
0001
0010
1000
0100
0001
0000
,
0010
0000
1000
0100
0000
1000
0010
0000
,
0100
0001
1000
0010
0001
0010
1000
0000
,
1000
0000
0000
0000
0010
0000
0000
0010
0000
0000
1000
0000
0001
0000
0000
0000
,
1000
0000
0100
0000
0001
0000
0000
0100
0000
0000
1000
0000
0000
0000
0010
0000
,
0100
0000
1000
0002
0000
0203
0000
0000
,
0310
1000
0001
0100
1000
0100
0010
0000
,
0010
0000
0001
2000
0000
3020
0000
0000
,
0130
0001
1000
0010
0001
0010
0100
0000
,
0001
0000
1000
0200
0000
0302
0000
0000
,
0103
1000
0010
0100
0001
0010
1000
0000
,
0010
0000
0100
2000
0000
3020
0000
0000
,
0130
0000
0100
0000
0001
0000
0010
0000
0100
0000
1000
0010
0000
0010
0100
0000
,
0001
0000
2000
0010
0000
3100
0001
0000
,
0001
0100
1000
0010
0010
1000
0001
0000
,
1000
0000
0002
0100
0000
0013
1000
0000
,
1000
0010
0001
0100
0100
0001
1000
0100
,
0010
0001
1000
0010
0100
0001
1000
0001
,
0100
0000
0010
1000
0000
0001
0100
0000
,
0010
0000
1000
0100
0001
0100
1000
0000
,
0010
0000
1000
0000
,
0002
0000
0000
0000
,
0003
0000
0000
0000
,
0100
0000
0010
0000
,
0100
0000
0001
0010
0100
0000
1010
0000
,
1000
0000
0001
1000
0000
0010
0000
0000
,
0100
0000
0010
1000
0000
0001
0000
0000
,
0001
0000
1000
0010
0000
0100
0000
0000
,
0001
0000
1000
0001
0000
0010
0000
0000
,
0100
0000
1000
0010
0000
0100
0001
0000
,
0100
1000
0000
0100
0001
0000
1000
0000
,
0010
0000
0100
0001
0000
1000
0010
0000
,
1000
0100
0000
0010
0011
0000
1100
0000
,
0001
0000
1000
0010
0100
0000
0100
0001
,
0010
0020
0000
0000
,
0030
0000
0000
0000
,
0000
0000
0000
0000
,
1100
0000
1000
0010
0000
0100
0001
0000
,
0100
0001
0010
0100
1000
1000
0001
0000
,
0010
0000
0100
1000
0000
1000
0010
0000
,
0101
0000
0010
1000
0100
0010
1000
0000
,
1000
0000
0010
0001
0000
0010
1000
0000
,
0100
1000
0010
0100
0001
0000
1000
0010
,
0100
0000
0100
1000
0000
0100
0001
0000
,
0101
1010
1001
0000
,
0001
0100
0010
0010
1000
0010
0100
0100
,
0001
0000
0100
0000
1000
0000
1000
0000
0100
0000
0001
0000
0001
0000
0010
0100
,
0010
0100
1000
0100
0001
0100
1000
0010
,
0001
0000
0010
0000
0100
0000
0001
0000
0010
0100
0010
0000
0100
0000
0000
0000
,
1000
0000
0010
0000
0100
0000
0001
0000
1000
0100
1000
0000
0001
0010
0001
0000
,
0100
0010
1000
0100
0010
0001
1000
0000
,
0010
1000
0001
0100
,
0020
0000
0230
0000
,
0301
0000
0000
0000
;

//---------------dance-double - ----------------
#NOTES:
     dance-double:
     :
     Beginner:
     1:
     :
00000000
00000000
00000000
00000000
,
00000000
00000000
00000000
00000000
,
00000000
00000000
00000000
00000000
,
00000000
00000000
00000000
00000000
,
00000000
00000000
00000000
00000000
,
10000000
00000000
00000000
00000000
,
01000000
00000000
00000000
00000000
,
00200000
00000000
00000000
00300000
,
00000000
00000000
00000000
00000000
,
00001000
00000000
00010000
00000000
,
00000100
00000000
00000000
00000000
,
00000010
00000000
00000000
00000000
,
00000001
00000000
00000000
00000000
,
00000100
00000000
00001000
00000000
,
00010000
00000000
00000000
00000000
,
00100000
00000000
00000000
00000000
,
10000000
00000000
00000000
00000000
,
01000000
00000000
00100000
00000000
,
00001000
00000000
00000000
00000000
,
00010000
00000000
00000000
00000000
,
00000010
00000000
00000100
00000000
,
00000001
00000000
00000000
00000000
,
00000010
00000000
00000000
00000000
,
00000200
00000000
00000000
00000300
,
00000000
00000000
00000000
00000000
,
00000001
00000000
00000010
00000000
,
00001000
00000000
00000000
00000000
,
00010000
00000000
00000000
00000000
,
00100000
00000000
00000000
00000000
,
01000000
00000000
00000000
00000000
,
10000000
00000000
00000000
00000000
,
00100000
00000000
01000000
00000000
,
00010000
00000000
00000000
00000000
,
10000000
00000000
01000000
00000000
,
00010000
00000000
00000000
00000000
,
00001000
00000000
00000010
00000000
,
00000001
00000000
00000000
00000000
,
00000100
00000000
00000000
00000000
,
00001000
00000000
00000000
00000000
,
00020000
00000000
00000000
00030000
,
00000000
00000000
00000000
00000000
,
01000000
00000000
00000000
00000000
,
00000000
00000000
00000000
00000000
,
00000000
00000000
00000000
00000000
,
00100000
00000000
00000000
00000000
,
01000000
00000000
00000000
00000000
,
10000000
00000000
00000000
00000000
,
00100000
00000000
01000000
00000000
,
00010000
00000000
00000000
00000000
,
00100000
00000000
00000000
00000000
,
00001000
00000000
00000000
00000000
,
00010000
00000000
00001000
00000000
,
00000010
00000000
00000000
00000000
,
00000001
00000000
00000000
00000000
,
00000100
00000000
00000000
00000000
,
00000020
00000000
00000000
00000030
,
00000000
00000000
00000000
00000000
,
00000100
00000000
00001000
00000000
,
00010000
00000000
00000000
00000000
,
00100000
00000000
01000000
00000000
,
00010000
00000000
00000000
00000000
,
10000000
00000000
01000000
00000000
,
00010000
00000000
00000000
00000000
,
00001000
00000000
00000100
00000000
,
00000001
00000000
00000000
00000000
,
00000010
00000000
00000100
00000000
,
00001000
00000000
00000000
00000000
,
00000001
00000000
00000010
00000000
,
00001000
00000000
00000000
00000000
,
00010000
00000000
00100000
00000000
,
10000000
00000000
00000000
00000000
,
01000000
00000000
00000000
00000000
,
00010000
00000000
00000000
00000000
,
00011000
00000000
00000000
00000000
;

//---------------dance-double - ----------------
#NOTES:
     dance-double:
     :
     Easy:
     3:
     :
00000000
00000000
00000000
00000000
,
00000000
00000000
00000000
00000000
,
00000000
00000000
00000000
00000000
,
00000000
00000000
00000000
00000000
,
00000000
00000000
00000000
00000000
,
00001000
00000000
00000000
00000000
,
00010000
00000000
00000000
00000000
,
01000000
00000000
00000000
00000000
,
10000000
00000000
00100000
00000000
,
01000000
00000000
00100000
00000000
,
10000000
00000000
01000000
00000000
,
00010000
00000000
00001000
00000000
,
00000100
00000000
00000001
00000000
,
00000100
00000000
00000010
00000000
,
00010000
00000000
00001000
00000000
,
00000100
00000000
00000001
00000000
,
00000010
00000100
00000100
00000000
,
00001000
00000000
00000100
00000000
,
00000001
00000000
00000000
00000000
,
00000010
00000000
00001000
00000000
,
00010000
00000000
00000000
00000000
,
01000000
00000000
10000000
00000000
,
00010000
00000000
00010000
00000000
,
00100000
00000000
00000000
00000000
,
00000000
00000000
00000000
00000000
,
01000000
00000000
10000000
00000000
,
00100000
00100000
00000000
00000000
,
00010000
00000000
00001000
00000000
,
00010000
00010000
00000000
00000000
,
00000100
00000000
00001000
00000000
,
00000010
00000010
00000000
00000000
,
00000100
00000000
00000001
00000000
,
00000010
00000000
00000000
00000000
,
00000100
00000000
00010000
00000000
,
00001000
00000000
00010000
00000000
,
00100000
00000000
01000000
00000000
,
10000000
10000000
00000000
00000000
,
01000000
00000000
00010000
00000000
,
00100000
00000000
01000000
00000000
,
20000000
00000000
00000000
30000000
,
02000000
00000000
00000000
03000000
,
00010000
00000000
00000000
00000000
,
00000000
00000000
00000000
00000000
,
00001000
00000000
00010000
00000000
,
00000100
00000000
00000010
00000000
,
00000001
00000100
00000000
00000000
,
00000010
00000000
00000100
00000000
,
00001000
00010000
00000000
00000000
,
00100000
00000000
10000000
00000000
,
01000000
10000000
00000000
00000000
,
01000000
00000000
00100000
00000000
,
00001000
00000000
00010000
00000000
,
01000000
00000000
10000000
00000000
,
00100000
00000000
00010000
00000000
,
00001000
00000100
00000000
00000000
,
00000002
00000000
00000000
00000003
,
00000200
00000000
00000000
00000300
,
00000010
00000000
00000001
00000000
,
00000100
00001000
00000000
00000000
,
00010000
00000000
00100000
00000000
,
01000000
00000000
00010000
00000000
,
10000000
00000000
01000000
00000000
,
00100000
00001000
00000000
00000000
,
00010000
00000000
00001000
00000000
,
00000010
00000000
00000000
00000000
,
00000001
00000001
00000000
00000000
,
00000100
00000000
00000010
00000000
,
00001000
00001000
00000000
00000000
,
00000100
00000000
00010000
00000000
,
00001000
00001000
00000000
00000000
,
01000000
00000000
00010000
00000000
,
00100000
00000000
00000000
00000000
,
01000000
00000000
00000000
00000000
,
10000000
00000000
00000000
00000000
;

//---------------dance-double - ----------------
#NOTES:
     dance-double:
     :
     Medium:
     7:
     :
00000000
00000000
00000000
00000000
,
00000000
00000000
00000000
00000000
,
00000000
00000000
00000000
00000000
,
00000000
00000000
00000000
00000000
,
00000000
00000000
00000000
00000000
,
00000001
00000000
00000100
00000000
,
00000010
00000000
00000000
00000000
,
00000200
00000000
00000000
00000000
,
00001300
00000000
00000000
00010000
00000000
00000000
00100000
00000000
,
10000000
00000000
01000000
00100000
01000000
00000000
10000000
00000000
,
00010000
00000000
10000000
01000000
00010000
00000000
00001000
00000000
,
00000100
00000000
00000001
00000010
00000100
00000000
00001000
00000000
,
00000010
00000000
00000100
00000001
00000000
00000100
00001000
00000000
,
00010000
00000000
01000000
10000000
00100000
00000000
10000000
00000000
,
01000000
00000000
00010000
00001000
00010000
00000000
00000010
00000000
,
00000100
00000000
00000100
00000001
00001000
00000000
00000010
00000000
,
00000100
00000010
00001000
00000100
00000001
00000100
00001000
00000010
,
00000100
00000000
00000001
00000010
00001000
00000000
00010000
00000000
,
00100000
00000000
01000000
00010000
00100000
00000000
10000000
00000000
,
00100000
00000000
00010000
10000000
01000000
00000000
01000000
00000000
,
00010000
00000000
00001000
00010000
00000000
00000010
00001000
00000000
,
00000100
00000000
00000001
00000010
00000000
00000100
00001000
00000000
,
00000110
00001001
00000100
00001000
,
00000001
00000000
00000100
00000000
00000010
00001000
00000100
00000000
,
00010000
00000000
00001000
00000000
00100000
00010000
01000000
00010000
,
10000000
00000000
00100000
00000000
00000000
10000000
00010000
10000000
,
01000000
00010000
00001000
00000100
,
00000001
00000000
00000010
00000000
00000000
00000100
00001000
00000010
,
00000100
00000000
00001000
00000000
00010000
00001000
00100000
00000000
,
01000000
00000000
10000000
00000000
00000000
01000000
00100000
00000000
,
00010000
00000000
10000000
00000000
00000000
00100000
00010000
00000000
,
00001000
00010000
00001000
00000000
00000010
00001000
00000010
00000000
,
00000002
00000000
00000000
00000003
,
00000100
00000000
00001000
00000000
00000100
00000000
00000001
00000010
,
00001000
00000000
00000010
00000000
00000000
00001000
00010000
00000000
,
00100000
00000000
10000000
00000000
00100000
00000000
00010000
00100000
,
10000000
00000000
01000000
00000000
00000000
00010000
01000000
10000000
,
00100000
00000000
00100000
00000000
00000000
01000000
00001000
00000000
,
00010000
00000000
00010000
00000000
00000000
00000100
00001000
00000000
,
00000010
00000001
00000010
00001000
,
00000100
00000000
00010000
00000000
,
00002000
00000000
00000000
00000000
,
00003000
00000000
00000000
00000000
,
00010000
00000000
00010000
00000000
,
01000000
00000000
00100000
00000000
01000000
10000000
00100000
00000000
,
10000000
00000000
00010000
00000000
00000000
01000000
00010000
10000000
,
01000000
00010000
00001000
00000010
,
00000001
00000000
00000010
00000000
00000000
00000100
00001000
00000010
,
00000001
00000000
00000010
00000000
00001000
00000100
00010000
00000000
,
00001000
00000000
00100000
00000000
00000000
01000000
10000000
00000000
,
00100000
00000000
10000000
00000000
00000000
01000000
00010000
00000000
,
00001000
00010000
00000100
00000000
00001000
00000100
00000001
00000000
,
00000100
00000000
00000000
00001000
00000000
00000000
00000010
00000000
,
00000100
00000001
00000000
00000010
00000000
00000000
00000100
00000000
,
00001000
00000000
00000010
00000000
00000100
00001000
00010000
00000000
,
01000000
10000000
00010000
01000000
,
00100000
10000000
02000000
00000000
,
03010000
00000000
00001000
00000000
00000100
00000001
00000010
00000000
,
00000100
00000000
00000100
00000000
00000000
00000100
00001000
00000000
,
00000010
00000001
00000010
00001000
,
00000100
00000000
00000100
00010000
00000000
00010000
00001000
00000000
,
00100000
00000000
01000000
00000000
10000000
00100000
00010000
00000000
,
00100000
00000000
10000000
00000000
01000000
00010000
00001000
00000000
,
00001000
00000010
00000001
00000000
00000100
00000000
00001000
00000000
,
00000100
00000001
00000010
00000100
00001000
00000010
00000100
00000001
,
00001000
00000000
00000010
00000000
00000100
00001000
00010000
00000000
,
00100000
00000000
10000000
00000000
01000000
10000000
00100000
00000000
,
10000000
01000000
00010000
00000000
01000000
00010000
00001000
00000000
,
00010000
00001000
00000010
00000000
00000002
00000000
00000000
00000000
,
00000103
00000000
00000010
00000000
00000100
00001000
00000100
00000000
,
00000100
00000001
00000010
00000000
00000010
00001000
00010000
00000000
,
00001000
00010000
01000000
10000000
,
00200000
00000000
00000000
02300000
00000000
00000000
03002000
00000000
,
00013000
00000000
00000000
00000000
;

//---------------dance-double - ----------------
#NOTES:
     dance-double:
     :
     Hard:
     8:
     :
00000000
00000000
00000000
00000000
,
00000000
00000000
00000000
00000000
,
00000000
00000000
00000000
00000000
,
00000000
00000000
00000000
00000000
,
00000000
00000000
00000000
00000000
,
00000020
00000000
00000000
00000000
,
00000030
00000000
00000000
00000000
,
00000200
00000000
00000000
00000000
,
00000302
00000000
00000000
00000000
,
00000013
00000000
00000100
00001000
00000000
00000010
00000100
00000000
,
00000001
00000000
00000100
00001000
00000000
00010000
00100000
00000000
,
01000000
00000000
00010000
10000000
00000000
01000000
00010000
01000000
,
10000000
00000000
00100000
00000000
10000000
00100000
00010000
00000000
,
00001000
00000000
00000010
00000001
00000000
00000100
00001000
00000000
,
00000100
00000000
00000001
00000010
00000000
00000100
00001000
00000000
,
00000010
00000100
00000001
00000000
00000001
00000100
00001000
00000000
,
00010000
00000000
01000000
00000000
10000000
00010000
00100000
01000000
,
10000000
00000000
00100000
01000000
00000000
00010000
00100000
00001000
,
00010000
00000000
00001000
00000100
00000001
00000000
00000010
00000000
,
00000100
00000000
00010000
00001000
01000000
00010000
01000000
10000000
,
01000000
00000000
00100000
10000000
00100000
00010000
00001000
00000000
,
00000010
00000000
00000001
00000100
00000000
00000010
00000100
00000000
,
00001000
00000100
00000001
00000010
00001000
00010000
00100000
00000000
,
20000000
00000000
00000000
00000000
,
30100000
00000000
10000000
00000000
01000000
00000000
00000000
00100000
00000000
00000000
00010000
00000000
00000000
00000000
10000000
00000000
,
01000000
00010000
00001000
00100000
00000000
01000000
00000000
00000000
,
00010000
00001000
00010000
00001000
00000000
00000100
00000000
00000000
,
00000001
00000010
00001000
00000010
00000000
00000001
00000000
00000000
,
00000100
00000010
00001000
00000001
00000100
00001000
00010000
00000000
,
00100000
01000000
00001000
00010000
00000000
01000000
00000000
00000000
,
10000000
00100000
01000000
10000000
00000000
01000000
00000000
00000000
,
00100000
10000000
01000000
00010000
00000000
00001000
00000000
00000000
,
00000010
00000001
00000100
00000020
00000000
00000000
00000130
00000001
,
00000100
00000010
00001000
00000001
00000000
00000100
00001000
00000000
,
00010000
01000000
00100000
00001000
00000000
00010000
01000000
00000000
,
10000000
00100000
01000000
10000000
00000000
01000000
00000000
00000000
,
00100000
10000000
01000000
00010000
00000000
00001000
00000000
00000000
,
00000010
00000001
00000100
00000010
00000100
00001000
00000100
00000001
,
00000000
00000100
00001000
00010000
01000000
00000000
00100000
00000000
,
00010000
01000000
10000000
01000000
,
00010000
00000000
10000000
00000000
,
00200000
00000000
00000000
00000000
,
00320000
00000000
00000000
00000000
,
00032000
00000000
00000000
00000000
,
00003010
00000000
00000001
00000000
00000100
00000000
00000000
00000001
00000000
00000000
00000100
00000000
00000000
00000000
00000001
00000000
,
00001000
00000000
00000010
00000100
00000001
00000000
00000001
00000100
,
00001000
00000000
00010000
00100000
10000000
01000000
00100000
00000000
,
00010000
00000000
10000000
01000000
00010000
00000000
00001000
00100000
,
00001000
00000000
00010000
00001000
00000100
00000001
00000010
00000000
,
00000100
00001000
00000010
00000100
00000000
00000001
00000010
00000000
,
00000001
00001000
00000010
00000100
00000000
00000100
00001000
00000000
,
00010000
01000000
10000000
00100000
00000000
10000000
00100000
10000000
,
01000000
00000000
00100000
00010000
10000000
01000000
00100000
00000000
,
10010000
00000000
10000000
01000000
00010000
00000000
00001000
00000010
,
00000001
00000000
00001001
00000000
00000100
00000010
00001000
00000000
,
00000202
00000000
00000000
00000000
,
00000000
00000000
00000000
00000303
,
00000010
00000100
00000001
00000010
00001000
00010000
00001000
00000010
,
00000100
00001000
00000001
00000100
00001000
00000000
00010000
01000000
,
10000000
01000000
00010000
01000000
10000000
00000000
00100000
00010000
,
00001000
00000000
01000000
00100000
00000000
00010000
00001000
00000010
,
00000001
00000000
00000100
00000000
00000010
00001000
00000000
00001000
,
00000001
00000100
00001000
00010000
00000000
00000000
00100000
10000000
,
00000000
01000000
10000000
00000000
00010000
00100000
00000000
01000000
,
20000000
00000000
00000000
30000000
,
01000000
00100000
00001000
00000000
00010000
00000010
00000000
00001000
,
00000100
00000001
00000000
00000100
00001000
00000000
00000001
00000000
,
00000010
00001000
00000000
00010000
00000000
00100000
10000000
01000000
,
00000000
01000000
00000000
10000000
00100000
01000000
00010000
00000000
,
00100000
00000000
00001000
00010000
00001000
00000100
00000001
00000000
,
00000010
00001000
00000010
00000001
00000100
00000000
00000010
00000000
,
00000100
00001000
00010000
00000000
00100000
00000000
10000000
00000000
,
02000000
00000000
03020000
00000000
,
00031000
00000000
00000000
00000000
;
