#TITLE:Elfadiciell;
#ARTIST:oo39.com;
#BANNER:Elfadiciell.png;
#BACKGROUND:Elfadiciell-bg.png;
#CDTITLE:./CDTITLES/DanceDanceRevolution UNIVERSE2.png;
#MUSIC:Elfadiciell.ogg;
#SAMPLESTART:16.238;
#SAMPLELENGTH:15;
#BPMS:0=169.97;

//---------------dance-single - ----------------
#NOTES:
     dance-single:
     :
     Beginner:
     1:
     :
0000
0000
0000
0000
,
0000
0000
0000
0000
,
0000
0000
0000
0000
,
0000
0000
0000
0000
,
0000
0000
0000
0000
,
0000
0000
0000
0000
,
0000
0000
0000
0000
,
0001
0000
0000
0000
,
1000
1000
1000
0000
,
0000
0000
0000
0000
,
1001
0000
0000
0000
,
0000
0000
0001
0000
,
0000
0000
0100
0000
,
0000
0000
0010
0000
,
0000
0000
1000
0000
,
0001
0000
1000
0000
,
0000
0000
0100
0000
,
0000
0000
0001
0000
,
0000
0000
0100
0100
,
0100
0000
0000
0000
,
0000
0000
0010
0000
,
0000
0000
0100
0000
,
0000
0000
0001
0000
,
1000
0000
0001
0000
,
0000
0000
0010
0000
,
0000
0000
0110
0000
,
0000
0000
1001
0000
,
0000
0000
0000
0000
,
0010
0000
0010
0000
,
0000
0000
1001
0000
,
0000
0000
0000
0000
,
0000
0000
0010
0000
,
0000
0000
0100
0000
,
0000
0000
0001
0000
,
0000
0000
1000
0000
,
0000
0000
0010
0010
,
0010
0000
1000
1000
,
1000
0000
0100
0100
,
0100
0000
0001
0001
,
0001
0000
1001
0000
,
0000
0000
1001
0000
,
0000
0000
0110
0000
,
0000
0000
0000
0000
,
0010
0000
0000
0000
,
1000
0000
0000
0000
,
0001
0000
0100
0000
,
0001
0001
0001
0000
,
0010
0000
0000
0000
,
0001
0000
0000
0000
,
1000
0000
1000
0000
,
0200
0000
0000
0300
,
0000
0000
0000
0000
,
0001
0000
0000
0000
,
1000
0000
0010
0000
,
1000
1000
1000
0000
,
0100
0000
0000
0000
,
1000
0000
0000
0000
,
0001
0000
0001
0000
,
0020
0000
0000
0030
,
0000
0000
0000
0000
,
1001
0000
0000
0000
,
1001
0000
0000
0000
;

//---------------dance-single - ----------------
#NOTES:
     dance-single:
     :
     Easy:
     2:
     :
0000
0000
0000
0000
,
0000
0000
0000
0000
,
0000
0000
0000
0000
,
0000
0000
0000
0000
,
0000
0000
0000
0000
,
0000
0000
0000
0000
,
0000
0000
0000
0000
,
1000
1000
1000
0000
,
0001
0001
0001
0000
,
0110
0000
0000
0000
,
1001
0000
0000
0000
,
0000
0000
0000
1000
,
0000
0010
0000
0100
,
0000
0001
0000
0000
,
0000
1000
0010
1000
,
0100
0000
0000
0001
,
0000
0100
0000
0010
,
0000
1000
0000
0000
,
0000
0001
0100
0001
,
0010
0001
0000
1000
,
0000
0100
0000
0010
,
0000
0001
0000
0000
,
0000
1000
0100
1000
,
0010
0000
0000
0001
,
0000
0010
0000
0100
,
0000
1000
0000
0110
,
0000
0110
0000
0001
,
1000
0001
1000
0000
,
0010
0000
0010
0000
,
0000
0000
1001
0000
,
0000
0000
0000
0000
,
0000
0000
0001
0000
,
1000
0000
0001
0010
,
0100
0000
0000
0000
,
1001
0000
0000
0000
,
1001
0000
1000
0000
,
0100
0000
0010
0000
,
0110
0000
0001
0000
,
0010
0000
0100
0000
,
0110
0000
1000
0100
,
0001
0000
0001
0100
,
1000
0000
0110
0000
,
0000
0000
0000
0000
,
0010
0000
1000
0000
,
0100
0010
0001
0000
,
0100
0000
0010
0000
,
0100
0100
0110
0000
,
0000
0000
0001
0000
,
0010
0100
1000
0000
,
0001
0000
1000
0000
,
0001
0010
0100
1000
,
0000
0000
1000
0000
,
0010
0100
0001
0000
,
0010
0000
0100
0000
,
0010
0010
0110
0000
,
0000
0000
1000
0000
,
0100
0010
1000
0000
,
1000
0000
0001
0000
,
1000
0100
0010
0001
,
1000
0000
0000
0000
,
0001
0000
0000
0000
,
1001
0000
0000
0000
;

//---------------dance-single - ----------------
#NOTES:
     dance-single:
     :
     Medium:
     4:
     :
0000
0000
0000
0000
,
0000
0000
0000
0000
,
0000
0000
0000
0000
,
0000
0000
0000
0000
,
0000
0000
0000
0000
,
0000
0000
0000
0000
,
0000
0000
0000
0000
,
1000
0010
1000
0100
,
0020
0000
0030
0001
,
0200
0000
0000
0000
0000
0000
0300
0010
,
0020
0000
0000
0030
,
0000
0000
1000
1000
,
0001
0010
1000
0100
,
0110
0000
1000
0010
,
0001
0010
1000
0100
,
0010
0001
0010
0000
0000
0000
1000
0000
,
0001
0100
1000
0010
,
0110
0000
1000
0100
,
0010
0001
2000
0010
,
3100
1001
0000
0001
,
1000
0110
0001
0100
,
0110
0000
0001
0100
,
1000
0100
0001
0010
,
0100
1000
0100
0000
0000
0000
0001
0000
,
1000
0110
0001
0010
,
0110
0000
0001
0010
,
0100
1000
0011
1100
,
0002
0000
2000
0003
,
3200
0000
0320
0000
,
0031
0000
1100
0000
,
0000
0000
0000
0000
,
0000
0000
0000
0000
1000
0100
1000
0000
,
0100
0000
0010
0000
0001
0010
0001
0000
,
0010
0100
1000
0001
,
1000
0001
1000
0010
,
0100
1010
0001
1000
,
0001
1000
0001
0100
,
0010
0101
0010
0100
,
0010
0100
0010
1000
,
0001
0000
1001
0000
0200
0000
0000
0300
,
2000
0000
0000
3000
0202
0000
0000
0303
,
2020
0000
0000
3030
0100
0000
0000
0000
,
0000
0000
0000
0000
,
1000
0010
1000
0100
,
1000
0100
1000
1001
,
1000
0100
0010
0001
,
0001
0011
0101
1001
,
0001
0100
0001
0010
,
0001
0010
0001
1001
,
0010
0010
0100
0100
,
0010
0100
0010
0000
0010
0100
0110
0000
,
0000
0100
1000
0010
,
1000
0010
1000
1001
,
1000
0010
0100
0001
,
1000
1100
1010
1001
,
0001
0010
0001
0100
,
0001
0100
0001
1001
,
0100
0100
0010
0010
,
0100
0010
0100
0000
0100
0010
1001
0000
,
0010
0000
0010
0000
,
0100
0000
0100
0000
,
1001
0000
0000
0000
;

//---------------dance-single - ----------------
#NOTES:
     dance-single:
     :
     Hard:
     8:
     :
0000
0000
0000
0000
,
0000
0000
0000
0000
,
0000
0000
0000
0000
,
0000
0000
0000
0000
,
0000
0000
0000
0000
,
0000
0000
0000
0000
,
0000
0000
0000
0000
,
0001
0000
0100
0000
0010
0001
0010
0000
,
0100
1000
0100
1000
0100
1000
0000
0000
0001
0000
0000
0000
1100
0000
0000
0000
,
0012
0000
0000
0000
0000
0000
0003
0100
,
2100
0000
0000
0000
0000
0010
3000
0010
,
0110
0000
0000
0000
1000
0100
1100
0000
,
0100
1000
0000
0010
0000
0000
0000
0010
0000
0000
1000
0000
0100
0010
0000
0000
,
0012
0000
0003
0000
0001
0010
1000
0000
,
0010
0000
0001
0000
0010
0100
1000
0100
,
0010
0000
1001
0000
0001
0010
0011
0000
,
0100
0001
0000
0100
0000
0000
0000
0100
0000
0000
0001
0000
0010
0100
0000
0000
,
2100
3000
0010
1001
,
0010
0000
1000
0000
1000
0100
0010
0001
,
1000
0100
0010
0001
1001
0000
0000
0000
,
0100
1000
0000
0100
0000
0000
0000
0100
0000
0000
0001
0000
0010
0100
0000
0000
,
0202
0000
0303
0000
1000
0010
0001
0000
,
0010
0000
1000
0000
0100
0010
0001
0010
,
0100
1000
1100
0000
,
0010
0001
0000
0100
0000
0000
0000
0010
0000
0000
0001
0000
0100
0010
0000
0000
,
2020
0000
3030
0000
0000
0010
0020
0000
,
0000
0100
0230
0000
1000
0000
0301
0000
,
0010
1000
0100
0010
0110
0000
0000
0000
,
1010
0000
0100
0000
,
0101
0000
0000
0001
2000
0000
0000
0000
,
0000
0000
0000
3000
,
0000
0000
0000
0000
1000
0100
1000
0100
,
1000
0000
1100
0000
0001
0010
0001
0010
,
0001
0011
1000
0001
,
1000
0100
0010
0100
0010
1000
0010
0001
,
1000
0010
0100
0010
0100
0001
0010
1000
,
0001
0010
0100
0010
0100
1000
0010
0001
,
1000
0100
0010
0100
0010
0001
0100
1000
,
0001
0010
0100
0010
0100
0001
0010
1000
,
0100
0001
0010
0100
2000
0000
0010
3010
,
0002
0000
0100
0103
1020
0000
1000
1030
,
0201
0000
0001
0301
0100
0000
0000
0000
,
0000
0000
0000
0000
,
1000
0010
0001
0010
1000
0000
0100
0000
,
0100
0010
0001
0000
0100
1000
0001
0000
,
0100
0010
1000
0010
0001
0010
0100
0000
,
1000
0010
0001
0010
0100
0010
0100
0001
,
1000
0100
0001
0100
1000
0000
0001
0000
,
0100
0010
0001
0000
0010
0001
1000
0000
,
1000
0000
1100
0000
0110
0100
0101
0000
,
0001
0000
0100
0000
0010
0000
1000
0000
0001
1000
0001
1000
0001
1000
0001
1000
,
0001
0000
1000
0100
0001
0000
0100
0000
,
0010
0100
0001
0000
0100
0001
1000
0000
,
0010
0100
0001
0100
1000
0100
0010
0000
,
0001
0100
1000
0100
0010
0100
0010
1000
,
0001
0010
0100
0010
0001
0000
1000
0000
,
0100
0010
1000
0000
0100
0001
1000
0000
,
0001
0000
0101
0000
0110
0100
1100
0000
,
1000
0000
0010
0000
0100
0000
0001
0000
1000
0001
1000
0001
1000
0001
1000
0001
,
1000
0000
0001
0000
,
0100
0000
0000
0000
0010
0000
0000
1000
,
0001
0000
0000
0000
;

//---------------dance-double - ----------------
#NOTES:
     dance-double:
     :
     Beginner:
     1:
     :
00000000
00000000
00000000
00000000
,
00000000
00000000
00000000
00000000
,
00000000
00000000
00000000
00000000
,
00000000
00000000
00000000
00000000
,
00000000
00000000
00000000
00000000
,
00000000
00000000
00000000
00000000
,
00000000
00000000
00000000
00000000
,
00010000
00000000
00000000
00000000
,
00001000
00001000
00001000
00000000
,
00000000
00000000
00000000
00000000
,
00011000
00000000
00000000
00000000
,
00000000
00000000
00001000
00000000
,
00000000
00000000
00000100
00000000
,
00000000
00000000
00000010
00000000
,
00000000
00000000
00001000
00000001
,
00000000
00000000
00001000
00000000
,
00000000
00000000
00001000
00000000
,
00000000
00000000
00010000
00000000
,
00000000
00000000
00001000
00001000
,
00001000
00000000
00000000
00000000
,
00000000
00000000
00100000
00000000
,
00000000
00000000
01000000
00000000
,
00000000
00000000
00010000
00000000
,
00001000
00000000
00010000
00000000
,
00000000
00000000
00001000
00000000
,
00000000
00000000
00011000
00000000
,
00000000
00000000
00011000
00000000
,
00000000
00000000
00000000
00000000
,
00100000
00000000
00100000
00000000
,
00000000
00000000
10010000
00000000
,
00000000
00000000
00000000
00000000
,
00000000
00000000
00100000
00000000
,
00000000
00000000
01000000
00000000
,
00000000
00000000
00010000
00000000
,
00000000
00000000
00001000
00000000
,
00000000
00000000
00010000
00010000
,
00010000
00000000
00000100
00000100
,
00000100
00000000
00010000
00010000
,
00010000
00000000
00000010
00000010
,
00000010
00000000
00011000
00000000
,
00000000
00000000
00011000
00000000
,
00000000
00000000
00001001
00000000
,
00000000
00000000
00000000
00000000
,
00000010
00000000
00000000
00000000
,
00001000
00000000
00000000
00000000
,
00010000
00000000
01000000
00000000
,
00010000
00010000
00010000
00000000
,
00100000
00000000
00000000
00000000
,
00010000
00000000
00000000
00000000
,
00001000
00000000
00001000
00000000
,
00020000
00000000
00000000
00030000
,
00000000
00000000
00000000
00000000
,
00001000
00000000
00000000
00000000
,
00010000
00000000
00100000
00000000
,
00010000
00010000
00010000
00000000
,
01000000
00000000
00000000
00000000
,
10000000
00000000
00000000
00000000
,
00010000
00000000
00010000
00000000
,
00002000
00000000
00000000
00003000
,
00000000
00000000
00000000
00000000
,
00011000
00000000
00000000
00000000
,
00001001
00000000
00000000
00000000
;

//---------------dance-double - ----------------
#NOTES:
     dance-double:
     :
     Easy:
     2:
     :
00000000
00000000
00000000
00000000
,
00000000
00000000
00000000
00000000
,
00000000
00000000
00000000
00000000
,
00000000
00000000
00000000
00000000
,
00000000
00000000
00000000
00000000
,
00000000
00000000
00000000
00000000
,
00000000
00000000
00000000
00000000
,
00001000
00001000
00001000
00000000
,
00010000
00010000
00010000
00000000
,
00011000
00000000
00000000
00000000
,
10010000
00000000
00000000
00000000
,
00000000
00000000
00000000
10000000
,
00000000
00100000
00000000
01000000
,
00000000
00010000
00000000
00000000
,
00001000
00000000
00010000
00001000
,
00000100
00000000
00000000
00010000
,
00000000
00000100
00000000
00001000
,
00000001
00000000
00000000
00000000
,
00000000
00010000
00000100
00010000
,
00000010
00010000
00000000
00001000
,
00000000
00000100
00000000
00000010
,
00000000
00000001
00000000
00000000
,
00000000
00001000
00000100
00001000
,
00000010
00000000
00000000
00000100
,
00000000
00001000
00000000
00010000
,
00000000
00100000
00000000
00011000
,
00000000
00011000
00000000
00010000
,
00100000
00010000
00100000
00000000
,
00010000
00000000
00010000
00000000
,
00000000
00000000
10010000
00000000
,
00000000
00000000
00000000
00000000
,
00000000
00000000
00010000
00000000
,
00001000
00000000
00010000
00100000
,
01000000
00000000
00000000
00000000
,
00011000
00000000
00000000
00000000
,
00011000
00000000
00001000
00000000
,
00000100
00000000
00000010
00000000
,
00001001
00000000
00000010
00000000
,
00000100
00000000
00001000
00000000
,
00011000
00000000
00100000
01000000
,
00010000
00000000
00001000
00010000
,
00001000
00000000
00011000
00000000
,
00000000
00000000
00000000
00000000
,
00000010
00000000
00001000
00000000
,
00000100
00000010
00000001
00000000
,
00000100
00000000
00000010
00000000
,
00001000
00001000
00001001
00000000
,
00000000
00000000
00000001
00000000
,
00000010
00000100
00001000
00000000
,
00010000
00000000
00001000
00000000
,
00010000
00100000
01000000
10000000
,
00000000
00000000
00010000
00000000
,
00001000
00010000
00001000
00000000
,
00100000
00000000
01000000
00000000
,
00100000
00100000
01100000
00000000
,
00000000
00000000
10000000
00000000
,
01000000
00100000
00010000
00000000
,
00001000
00000000
00010000
00000000
,
00001000
00000100
00000010
00000001
,
00001000
00000000
00000000
00000000
,
00010000
00000000
00000000
00000000
,
00011000
00000000
00000000
00000000
;

//---------------dance-double - ----------------
#NOTES:
     dance-double:
     :
     Medium:
     6:
     :
00000000
00000000
00000000
00000000
,
00000000
00000000
00000000
00000000
,
00000000
00000000
00000000
00000000
,
00000000
00000000
00000000
00000000
,
00000000
00000000
00000000
00000000
,
00000000
00000000
00000000
00000000
,
00000000
00000000
00000000
00000000
,
00001000
00100000
00010000
00001000
,
00020000
00000000
00030000
00001000
,
00020000
00000000
00000000
00000000
00000000
00000000
00030000
00001000
,
00020000
00000000
00000000
00030000
,
00000000
00000000
00001000
00001000
,
00010000
00100000
10000000
01000000
,
01100000
00000000
00100000
00001000
,
00010000
00001000
00100000
01000000
,
00100000
00010000
00100000
00000000
00000000
00000000
00001000
00000000
,
00010000
01000000
00010000
00001000
,
00011000
00000000
00001000
00000100
,
00000010
00000001
00002000
00000010
,
00003100
00011000
00000000
00001000
,
00000100
00001001
00000001
00000100
,
00001001
00000000
00000010
00000100
,
00001000
00000100
00010000
00001000
,
00010000
00001000
00010000
00000000
00000000
00000000
00001000
00000000
,
00100000
01100000
00010000
00100000
,
01100000
00000000
00010000
00100000
,
01000000
10000000
00110000
11000000
,
00020000
00000000
00002000
00030000
,
00003200
00000000
00000320
00000000
,
00001030
00000000
00011000
00000000
,
00000000
00000000
00000000
00000000
,
00000000
00000000
00000000
00000000
00010000
00001000
00010000
00000000
,
01000000
00000000
00100000
00000000
00001000
00010000
00001000
00000000
,
00100000
01000000
00100000
00010000
,
00100000
00010000
00100000
00001000
,
00000000
00011000
00000100
00000001
,
00000100
00000001
00000100
00001000
,
00010000
00011000
00100000
01000000
,
00100000
01000000
00100000
00010000
,
00001000
00000000
00011000
00000000
02000000
00000000
00000000
03000000
,
00002000
00000000
00000000
00003000
00020000
00000000
00000000
00030000
,
00000000
00000200
00000000
00000300
00000010
00000000
00000000
00000000
,
00000000
00000000
00000000
00000000
,
00000001
00000010
00000001
00000100
,
00000001
00000100
00000001
00001001
,
00001000
00000100
00000010
00000001
,
00001000
00001100
00001010
00001001
,
00001000
00010000
00001000
00100000
,
00010000
00100000
00010000
10010000
,
00100000
00100000
00010000
00010000
,
00001000
00010000
00000000
00000000
00001000
00010000
00001000
00000000
,
00000000
00010000
00001000
00100000
,
00010000
00100000
10000000
10010000
,
10000000
00010000
00001000
00010000
,
00001100
00001010
00001001
00011000
,
00010000
00001000
00010000
01000000
,
00010000
01000000
00010000
00011000
,
00000100
00000100
00100000
00100000
,
01000000
00100000
01000000
00000000
01000000
00100000
10010000
00000000
,
00100000
00000000
00100000
00000000
,
00001000
00000000
00001000
00000000
,
00011000
00000000
00000000
00000000
;

//---------------dance-double - ----------------
#NOTES:
     dance-double:
     :
     Hard:
     8:
     :
00000000
00000000
00000000
00000000
,
00000000
00000000
00000000
00000000
,
00000000
00000000
00000000
00000000
,
00000000
00000000
00000000
00000000
,
00000000
00000000
00000000
00000000
,
00000000
00000000
00000000
00000000
,
00000000
00000000
00000000
00000000
,
10000000
00000000
01000000
00000000
00100000
00001000
00100000
00000000
,
00010000
00001000
00010000
00001000
00010000
00001000
00000000
00000000
00010000
00000000
00000000
00000000
00001100
00000000
00000000
00000000
,
00021000
00000000
00000000
00000000
00000000
00000000
00030000
00001000
,
00000120
00000000
00000000
00000000
00000000
00000100
00000030
00000100
,
00000110
00000000
00000000
00000000
00001000
00000100
00001100
00000000
,
00000010
00000001
00000000
00000100
00000000
00000000
00000000
00000100
00000000
00000000
00000001
00000000
00000010
00000100
00000000
00000000
,
00021000
00000000
00030000
00000000
00001000
00010000
00001000
00000000
,
00000100
00000000
00000010
00000000
00001000
00010000
00100000
00010000
,
00001000
00000000
00011000
00000000
00001000
00000100
00001100
00000000
,
00001000
00010000
00000000
00001000
00000000
00000000
00000000
00001000
00000000
00000000
00010000
00000000
00100000
01000000
00000000
00000000
,
21000000
30000000
00100000
10010000
,
00100000
00000000
10000000
00000000
10000000
01000000
00100000
00010000
,
00001000
00000100
00000010
00000001
00001001
00000000
00000000
00000000
,
00000010
00000001
00000000
00000010
00000000
00000000
00000000
00000100
00000000
00000000
00001000
00000000
00000100
00000010
00000000
00000000
,
00002020
00000000
00003030
00000000
00001000
00000010
00000001
00000000
,
00000100
00000000
00010000
00000000
00001000
00010000
00100000
00010000
,
00001000
00000100
00001100
00000000
,
00001000
00010000
00000000
00001000
00000000
00000000
00000000
00100000
00000000
00000000
00010000
00000000
01000000
00100000
00000000
00000000
,
20200000
00000000
30300000
00000000
00000000
00100000
00200000
00000000
,
00000000
01000000
02300000
00000000
10000000
00000000
03010000
00000000
,
00001000
00010000
00001000
00010000
00011000
00000000
00000000
00000000
,
00001010
00000000
00000001
00000000
,
00001010
00000000
00000000
00010000
00002000
00000000
00000000
00000000
,
00000000
00000000
00000000
00003000
,
00000000
00000000
00000000
00000000
00010000
00001000
00010000
00001000
,
00010000
00000000
00011000
00000000
00001000
00000100
00001000
00000100
,
00001000
00001100
00000001
00001000
,
00000001
00000100
00000010
00000100
00000010
00001000
00000010
00001000
,
00010000
00100000
00010000
00100000
00010000
00100000
00001000
00010000
,
00000100
00001000
00010000
00001000
00010000
00000100
00001000
00010000
,
00001000
01000000
00100000
01000000
00100000
00010000
00001000
00010000
,
00001000
00100000
01000000
00100000
01000000
00010000
00001000
00000100
,
00000010
00000001
00000010
00000100
00002000
00000000
00000010
00003010
,
00020000
00000000
00001000
00031000
00210000
00000000
00010000
00310000
,
12000000
00000000
10000000
13000000
00010000
00000000
00000000
00000000
,
00000000
00000000
00000000
00000000
,
00001000
00010000
00001000
00010000
00000100
00000000
00000010
00000000
,
00000010
00000100
00001000
00000000
00000100
00001000
00000001
00000000
,
00000010
00000100
00001000
00000100
00000010
00000100
00001000
00000000
,
00010000
00001000
00010000
00001000
00100000
00001000
01000000
00010000
,
10000000
01000000
00010000
01000000
10000000
00000000
00010000
00000000
,
01000000
00100000
00010000
00000000
00100000
00010000
00001000
00000000
,
00010000
00000000
00011000
00000000
00001100
00000100
00000101
00000000
,
00001000
00000000
00000010
00000000
00010000
00000000
00001000
00000000
00010000
00001000
00010000
00001000
00010000
00001000
00010000
00001000
,
00010000
00000000
00001000
00000100
00000001
00000000
00000100
00000000
,
00000010
00000100
00000001
00000000
00000100
00000010
00010000
00000000
,
00001000
01000000
00010000
10000000
00010000
01000000
00100000
00000000
,
00010000
00000100
00001000
00000001
00001000
00000100
00010000
00001000
,
00010000
00100000
01000000
00100000
00010000
00000000
00001000
00000000
,
00000100
00000010
00000001
00000000
00000100
00000001
00001000
00000000
,
00000001
00000000
00000101
00000000
00000110
00000100
00001100
00000000
,
00010000
00000000
00001000
00000000
01000000
00000000
00001000
00000000
00010000
00001000
00010000
00001000
00010000
00001000
00010000
00001000
,
00010000
00000000
00001000
00000000
,
01000000
00000000
00000000
00000000
00001000
00000000
00000000
00010000
,
00001000
00000000
00000000
00000000
;
