#TITLE:Don't You Love Me;
#ARTIST:Andy Caldwell;
#BANNER:Don't You Love Me.png;
#BACKGROUND:Don't You Love Me-bg.png;
#CDTITLE:./CDTITLES/DanceDanceRevolution UNIVERSE2.png;
#MUSIC:Don't You Love Me.ogg;
#SAMPLESTART:54.803;
#SAMPLELENGTH:15;
#BPMS:0=127;

//---------------dance-single - ----------------
#NOTES:
     dance-single:
     :
     Beginner:
     1:
     :
0000
0000
0000
0000
,
0000
0000
0000
0000
,
0000
0000
0000
0000
,
0000
0000
0000
0000
,
0000
0000
0000
0000
,
1000
0000
1000
0000
,
1000
0000
0000
0000
,
0001
0000
0001
0000
,
0001
0000
0000
0000
,
0100
0000
0100
0000
,
0010
0000
0010
0000
,
1000
0000
1000
0000
,
2000
0000
0000
3000
,
1000
1000
0000
0001
,
0000
0001
0000
0100
,
0100
0000
0100
0000
,
0100
0000
0000
0000
,
1001
0000
0000
0000
,
0110
0000
0000
0000
,
1001
0000
0000
0000
,
1001
0000
1000
1000
,
1000
0000
0001
0000
,
1000
0000
1001
0000
,
0000
0000
0010
0000
,
0100
0000
0010
0000
,
0110
0000
0000
0000
,
1001
0000
0100
0000
,
0100
0000
0010
0000
,
0010
0000
0000
0000
,
1000
0000
1000
0000
,
1000
0000
0000
0000
,
0001
0000
0001
0000
,
0001
0000
0000
0000
,
0100
0100
0100
0000
,
0100
0000
0000
0000
,
0010
0010
0010
0000
,
0010
0000
0000
0000
,
1000
0000
0000
1000
,
1000
0000
0000
0000
,
0001
0000
0000
0001
,
0001
0000
0000
0000
,
0100
0000
0000
0100
,
0100
0000
0010
0010
,
0010
0000
0000
0000
,
1000
1000
1000
0000
,
1001
0000
0000
0000
;

//---------------dance-single - ----------------
#NOTES:
     dance-single:
     :
     Easy:
     2:
     :
0000
0000
0000
0000
,
0000
0000
0000
0000
,
0000
0000
0000
0000
,
0000
0000
0000
0000
,
0000
0000
0000
0000
,
1000
0000
0001
0000
,
0100
0010
0100
0000
,
0001
1000
0001
0000
,
0100
0100
0000
0010
,
1000
0100
1000
0000
,
0001
0100
0001
0000
,
0010
0100
0010
0100
,
0020
0000
0000
0030
,
1000
1000
1000
0000
,
0001
0001
0001
0000
,
0100
0000
0100
0000
,
0010
0000
0010
0000
,
1000
1000
0001
0001
,
0100
0000
0010
0010
,
0100
0100
0010
0000
,
1000
1000
0001
0001
,
0010
0010
0100
0000
,
0100
0100
0010
0010
,
0110
0000
1001
0000
,
0110
0000
1000
1000
,
0100
0100
0010
0000
,
0001
0000
0100
0100
,
0110
0000
0010
0010
,
0110
0000
1000
0000
,
0001
0001
0100
0000
,
1000
1000
0110
0000
,
0001
0000
1000
0000
,
0010
0000
0100
0000
,
0001
0100
0001
0000
,
1000
0010
1000
1000
,
1001
0000
0100
0000
,
0010
0000
0100
0100
,
0010
0000
0001
0000
,
0100
0000
1000
0010
,
0001
0000
0010
0000
,
1000
0000
0100
0010
,
0100
0100
0001
0001
,
0100
0000
0100
0010
,
0110
0000
1001
0000
,
0100
0010
0010
0100
,
1001
0000
0000
0000
;

//---------------dance-single - ----------------
#NOTES:
     dance-single:
     :
     Medium:
     4:
     :
0000
0000
0000
0000
,
0000
0000
0000
0000
,
0000
0000
0000
0000
,
0000
0000
0000
0000
,
0000
0000
0000
0000
,
0010
1000
0100
0000
1000
0001
0100
0000
,
0010
1000
0100
0100
,
0010
0001
0100
0000
0001
1000
0100
0000
,
0010
0001
0100
0100
,
0010
0100
1000
0000
0001
0100
0010
0000
,
0100
0001
1000
1000
,
0010
0100
0001
0000
1000
0100
0010
0000
,
1001
0000
0000
0000
,
0010
0000
0010
0000
1000
0000
0001
0200
,
0000
1000
0000
0301
,
0010
0000
0010
0000
0001
0000
1000
0200
,
0000
0001
0000
1300
,
0001
0000
0001
0000
1000
0000
0001
0020
,
0000
1000
0000
0031
,
1000
0000
1000
0000
0001
0000
1000
0020
,
0000
0001
0000
1030
,
0100
1000
0001
0100
,
0010
1000
2001
0001
,
3001
0100
0010
1000
,
0001
0000
0010
0000
0100
1000
0001
0000
,
0100
0001
1000
0100
,
0010
0001
1002
1000
,
1003
0100
0010
0001
,
1000
0000
0010
0000
0100
0001
1000
0000
,
0010
0000
1000
0000
0100
0000
0010
0001
,
0100
0010
1000
0001
,
0010
0100
1000
0001
,
1000
0000
0010
0000
0100
0000
0001
0010
,
0010
0000
0001
0000
0100
0000
0010
1000
,
0100
0010
0001
1000
,
0010
0100
0001
1000
,
0001
0000
0010
0000
0100
0000
1000
0010
,
0010
1010
1000
1001
,
0001
0011
0010
0110
,
0100
1000
0010
0001
,
0100
0000
1000
0000
0001
1000
0100
0010
,
0100
1100
1000
1001
,
0001
0101
0100
0110
,
0010
1000
0100
0001
,
0010
0000
1000
0000
0001
1000
0010
0100
,
0010
0000
0000
0000
;

//---------------dance-single - ----------------
#NOTES:
     dance-single:
     :
     Hard:
     6:
     :
0000
0000
0000
0000
,
0000
0000
0000
0000
,
0000
0000
0000
0000
,
0000
0000
0000
0000
,
0000
0000
0000
0000
,
0010
1000
0110
0000
0010
1000
0010
0000
,
0010
1000
0010
1000
0010
0000
0110
0000
,
0001
0100
0010
0000
0001
0000
1000
0100
,
1000
0100
1000
0000
0010
1000
0001
0000
,
0100
0001
1000
0000
1000
0100
1000
0000
,
0100
0001
1000
0100
1000
0000
0010
0000
,
0010
1000
0100
0000
0100
1000
0010
0000
,
0100
0001
1000
0010
0000
0010
0000
0000
,
0010
0000
0000
1000
0001
0000
0000
0000
0010
0000
0000
0001
1000
0000
0000
0000
,
0100
0000
0001
0000
0010
0001
0100
0000
,
0010
1000
0010
0000
0100
0001
0100
0000
,
0010
0000
0000
1000
0100
0000
0000
0010
0001
0000
0100
0000
0001
0000
0000
0000
,
0100
0000
0000
0010
0100
0000
0000
0000
0001
0000
0000
1000
0001
0000
0000
0000
,
1000
0100
1000
0000
0001
0010
0001
0000
,
0010
0000
0000
1000
0010
0000
0000
0000
0100
0000
0000
0001
0100
0000
0000
0000
,
1000
0000
1000
0000
0001
1000
1001
0000
,
0110
0000
0000
0000
0010
0000
0000
0000
0010
0000
1000
0000
0001
0000
0000
0102
,
0000
0000
0000
0000
1003
0000
0000
0000
0011
0000
0000
0000
1100
0000
0000
1000
,
0000
0000
0010
0000
0000
0000
0100
0000
0001
0000
0000
0000
0100
0000
0000
0110
,
0000
0000
0000
0000
1010
0000
0000
0000
0001
0010
0001
0000
1000
0000
0100
0000
,
0110
0000
0000
0000
1001
0000
0000
0000
0010
0000
0100
0000
1000
0000
0000
0201
,
0000
0310
0110
1010
,
0001
0000
0100
0000
0001
0000
1000
0000
0100
0000
0000
0010
0001
0000
0000
0100
,
0000
0000
0001
0000
0001
0000
0000
0000
1000
0010
1000
0000
0001
0100
0001
0000
,
1000
0100
0001
0100
0010
0001
0100
0000
,
1020
0000
0130
0000
0110
0100
0110
0000
,
0001
0000
0011
0000
0001
0000
0100
0000
0010
0000
0000
0000
1000
0000
0000
1100
,
0000
0010
0010
0000
0100
0001
0100
0010
,
1000
0000
1000
0000
0001
0000
0001
0000
0100
0000
0000
0000
0110
0000
0000
0102
,
0000
0000
0000
0000
1003
0000
0000
0000
1100
0000
0000
0000
0110
0000
0000
0001
,
0000
0000
0010
0000
0000
0000
0100
0000
0010
0000
0000
0000
1000
0000
0000
1100
,
0000
0000
0001
0000
1000
0000
0000
0000
0100
0010
0100
0000
0110
0000
0000
0000
,
1000
0100
0001
0100
1000
0000
1001
0000
,
0001
0000
0010
0000
1000
0000
0010
0000
0001
0000
0000
0000
0101
0000
0000
0010
,
0000
1010
0000
1000
0100
0000
0010
0000
,
0110
0000
0000
0000
1000
0000
0000
0000
0001
0100
0001
0000
1000
0010
1000
0000
,
0001
0000
0100
0000
0010
0000
0000
0000
1000
0000
0100
0000
0010
0000
0000
0110
,
0000
0000
1000
0000
0001
0100
0101
0000
,
1000
0100
1100
0000
0010
0001
0010
0100
,
1000
0000
1010
0000
0100
0010
0001
0010
,
1001
0000
0000
0000
;

//---------------dance-double - ----------------
#NOTES:
     dance-double:
     :
     Beginner:
     1:
     :
00000000
00000000
00000000
00000000
,
00000000
00000000
00000000
00000000
,
00000000
00000000
00000000
00000000
,
00000000
00000000
00000000
00000000
,
00000000
00000000
00000000
00000000
,
00000010
00000000
00000010
00000000
,
00000010
00000000
00000000
00000000
,
00000001
00000000
00000001
00000000
,
00000001
00000000
00000000
00000000
,
00000100
00000000
00000100
00000000
,
00001000
00000000
00001000
00000000
,
00010000
00000000
00010000
00000000
,
00002000
00000000
00000000
00003000
,
00001000
00001000
00000000
00100000
,
00000000
00100000
00000000
00010000
,
00010000
00000000
01000000
00000000
,
01000000
00000000
00000000
00000000
,
10010000
00000000
00000000
00000000
,
01000000
00000000
00000000
00000000
,
00010000
00000000
00000000
00000000
,
00011000
00000000
00010000
00010000
,
00010000
00000000
00000100
00000000
,
00000010
00000000
00000110
00000000
,
00000000
00000000
00000001
00000000
,
00001000
00000000
00000001
00000000
,
00001001
00000000
00000000
00000000
,
00000110
00000000
00000100
00000000
,
00000100
00000000
00001000
00000000
,
00001000
00000000
00000000
00000000
,
00010000
00000000
00010000
00000000
,
00010000
00000000
00000000
00000000
,
00001000
00000000
00001000
00000000
,
00001000
00000000
00000000
00000000
,
00100000
00100000
00100000
00000000
,
00100000
00000000
00000000
00000000
,
01000000
01000000
01000000
00000000
,
01000000
00000000
00000000
00000000
,
10000000
00000000
00000000
10000000
,
10000000
00000000
00000000
00000000
,
01000000
00000000
00000000
01000000
,
01000000
00000000
00000000
00000000
,
00010000
00000000
00000000
00010000
,
00010000
00000000
00001000
00001000
,
00001000
00000000
00000000
00000000
,
00010000
00010000
00010000
00000000
,
00011000
00000000
00000000
00000000
;

//---------------dance-double - ----------------
#NOTES:
     dance-double:
     :
     Easy:
     3:
     :
00000000
00000000
00000000
00000000
,
00000000
00000000
00000000
00000000
,
00000000
00000000
00000000
00000000
,
00000000
00000000
00000000
00000000
,
00000000
00000000
00000000
00000000
,
00001000
00000000
00010000
00000000
,
00001000
00010000
00010000
00000000
,
00100000
00000000
01000000
00000000
,
00010000
00010000
10000000
00000000
,
01000000
01000000
00010000
00000000
,
00001000
00001000
00010000
00000000
,
00000010
00001000
00000010
00001000
,
00000200
00000000
00000000
00000300
,
00000010
00000010
00000000
00000000
,
00000001
00000001
00000000
00000000
,
00000100
00000000
00001000
00000000
,
00010000
00000000
01000000
00000000
,
00100000
00100000
00010000
00000000
,
10000000
10000000
01000000
00000000
,
01000000
00010000
00001000
00000000
,
00010000
00000000
00001000
00001000
,
00010000
00000000
00000100
00000000
,
00001000
00000000
00000001
00001000
,
00001001
00000000
00000100
00000100
,
00001000
00000000
00010000
00010000
,
00001000
00000000
00100000
00000000
,
00010000
00000000
01000000
00100000
,
01100000
00000000
10000000
10000000
,
00010000
00000000
01000000
00000000
,
00001000
00001000
00010000
00010000
,
00001000
00000000
00000100
00000010
,
00000110
00000000
00000001
00000001
,
00000100
00000000
00001000
00010000
,
00001000
00001000
00010000
00000000
,
00100000
00000000
10000000
00010000
,
10010000
00000000
01000000
00000000
,
00010000
00000000
00001000
00001000
,
00020000
00030000
00002000
00003000
,
00000200
00000300
00000001
00001000
,
00001001
00000000
00000100
00000000
,
00001000
00000000
00010000
00001000
,
00100000
00100000
00010000
00010000
,
01000000
00000000
10000000
10000000
,
00100000
00000000
01100000
00000000
,
00010000
00001000
00001000
00010000
,
00011000
00000000
00000000
00000000
;

//---------------dance-double - ----------------
#NOTES:
     dance-double:
     :
     Medium:
     5:
     :
00000000
00000000
00000000
00000000
,
00000000
00000000
00000000
00000000
,
00000000
00000000
00000000
00000000
,
00000000
00000000
00000000
00000000
,
00000000
00000000
00000000
00000000
,
00000010
00000001
00000100
00000000
00000010
00010000
00001000
00000000
,
00100000
00010000
01000000
01000000
,
00100000
10000000
01000000
00000000
00100000
00001000
00010000
00000000
,
00000010
00001000
00000100
00001000
,
00000001
00000010
00001000
00000000
00010000
00001000
00010000
00000000
,
00001000
00100000
01000000
01000000
,
10000000
00100000
00010000
00000000
00001000
00010000
00001000
00000000
,
00011000
00000000
00000000
00000000
,
00000010
00000000
00001000
00000000
00000001
00000000
00001000
00000100
,
00000010
00000001
00000000
00000100
,
00000010
00000000
00010000
00000000
00001000
00000000
00100000
01000000
,
10000000
00100000
00000000
01000000
,
00010000
00000000
10000000
00000000
00100000
00000000
00010000
00011000
,
00000000
00000010
00000000
00000001
,
00000100
00000000
00000010
00000000
00001000
00000000
00000010
00000110
,
00000000
00010000
00000000
00001000
,
01000000
00100000
10000000
01000000
,
00100000
00001000
00010000
00000010
,
00000100
00000001
00000010
00000100
,
00010000
00000000
00001000
00000000
00020000
00001000
00001000
00000000
,
01030000
10000000
00100000
01000000
,
00001000
00010000
00001000
01000000
,
00100000
10000000
01000000
00010000
,
00001000
00000000
01000000
00000000
00002000
00010000
00010000
00000000
,
00003100
00000000
00000001
00000000
00000010
00000000
00000001
00000001
,
00000001
00000100
00000010
00010000
,
00001000
00100000
01000000
10000000
,
00100000
00000000
01000000
00000000
00001000
00000000
00010000
00010000
,
00010000
00000000
00001000
00000000
01000000
00000000
00100000
10000000
,
01000000
00100000
00001000
00010000
,
00000010
00001000
00000100
00001000
,
00000001
00000000
00001000
00000000
00000100
00000000
00000010
00000001
,
00000100
00000101
00000001
00000011
,
00000010
00001010
00001000
00011000
,
00100000
10000000
01000000
00010000
,
00001000
00000000
00100000
00000000
00010000
10000000
01000000
00100000
,
01000000
11000000
10000000
10100000
,
00100000
00110000
00010000
00011000
,
00000010
00000001
00000100
00001000
,
00010000
00000000
00000010
00000000
00001000
00000100
00000010
00000001
,
00000100
00000000
00000000
00000000
;

//---------------dance-double - ----------------
#NOTES:
     dance-double:
     :
     Hard:
     7:
     :
00000000
00000000
00000000
00000000
,
00000000
00000000
00000000
00000000
,
00000000
00000000
00000000
00000000
,
10000000
01000000
10000000
00100000
,
01000000
00000000
00000000
00100000
00001000
00010000
00000100
00000000
,
00001000
00000010
00000100
00000000
00000001
00000100
00001000
00000000
,
00010000
00001000
00010000
00101000
,
00010000
00100000
01000000
00000000
10000000
01000000
00100000
00000000
,
00001000
00010000
01000000
00000000
01000000
00010000
00001000
00000000
,
00000100
00000010
00000100
00000000
00000100
00000010
00000100
00000000
,
00000001
00000100
00001000
00010000
00001000
00000000
00010100
00000000
,
00001000
00000010
00000100
00000000
00000100
00000010
00010000
00000000
,
00001000
00100000
00010000
01000000
00000000
00100000
00000000
00000000
,
01100000
00000000
10010000
00000000
10000000
01000000
10000000
00000000
,
00010000
00000000
00110000
00000000
00100000
00010000
00100000
00000000
,
10000000
00000000
10000000
00100000
01000000
00000000
01000000
00100000
,
00010000
00000000
00010000
00001000
00000100
00000000
00000100
00000010
,
00000001
00000010
00001000
00010000
,
00100000
00000000
01000000
00000000
00010000
00100000
00010000
00100000
,
01000000
00000000
01000000
10000000
00010000
00100000
00100000
00001000
,
00010000
00000000
00000010
00000000
00000100
00000100
00000100
00000000
,
00001001
00000000
00000100
00000000
00000001
00000100
00000010
00000000
,
00010000
00001000
00100000
01100000
,
10000000
00100000
10000000
00000000
01010000
00000000
01000000
00000000
,
00001000
00010000
00001000
00000000
00000010
00000100
00000010
00000100
,
00001000
00001001
00000100
00001000
,
00010000
01100000
10100000
00110000
,
01000000
00010000
01000000
00000000
01010000
00000000
00011000
00000000
,
00010100
00001000
00000100
00000000
00000100
00001000
00000010
00000100
,
00000001
00000100
00000001
00000100
00001000
00010000
00001000
00000000
,
00001000
00000000
01001000
00000000
00010000
01000000
00100000
00000000
,
10000000
00100000
01000000
00000000
01010000
00000000
00110000
00000000
,
01000000
00100000
00010000
00000000
00001000
00100000
00010000
01000000
,
00001000
00000000
00010000
00000000
00000100
00001000
00000010
00000000
,
00000100
00000000
00001001
00000000
00001000
00000100
00000001
00000100
,
00000010
00000001
00000100
00000000
00001000
00010000
00100000
00000000
,
00100000
10000000
01000000
00000000
00100000
00010000
00100000
01000000
,
10000000
10000000
10000000
10000000
00100000
00000000
01000000
00000000
,
00010000
00010000
00010000
00010000
00100000
00000000
00001000
00000000
,
00010000
00001000
00010000
00000000
00000010
00000000
00000100
00000000
,
00000001
00001000
00000100
00000000
00000010
00000001
00000010
00000100
,
00001000
00001100
00010000
00011000
,
00100000
00000000
00110000
00000000
00100000
01000000
00100000
00000000
,
00010000
10000000
00010000
00000000
10000000
01000000
00010000
00000000
,
00010000
00001000
00000100
00000000
00000001
00000010
00001000
00010000
,
00001000
00000000
00000000
00000000
;
